<?xml version="1.0" standalone="no"?>
<!DOCTYPE svg PUBLIC "-//W3C//DTD SVG 1.1//EN" "http://www.w3.org/Graphics/SVG/1.1/DTD/svg11.dtd" >
<svg xmlns="http://www.w3.org/2000/svg" xmlns:xlink="http://www.w3.org/1999/xlink" version="1.1">
<metadata>
Created by FontForge 20170731 at Mon Oct 14 14:16:51 2002
 By ,,,
(c) 2000, 2002 Adobe Systems Incorporated. All Rights Reserved. U.S. Patent Des. 337,604. Other patents pending.
</metadata>
<defs>
<font id="MinionPro-Regular" horiz-adv-x="341" >
  <font-face 
    font-family="Minion Pro"
    font-weight="400"
    font-stretch="normal"
    units-per-em="1000"
    panose-1="2 4 5 3 5 2 1 2 2 3"
    ascent="727"
    descent="-273"
    x-height="436"
    cap-height="650"
    bbox="-289 -360 1684 917"
    underline-thickness="50"
    underline-position="-200"
    unicode-range="U+0020-FB06"
  />
<missing-glyph horiz-adv-x="500" 
d="M0 0v700h500v-700h-500zM250 395l170 255h-340zM280 350l170 -255v510zM80 50h340l-170 255zM50 605v-510l170 255z" />
    <glyph glyph-name="T_h" unicode="Th" horiz-adv-x="1071" 
d="M1052 0h-212v26q45 4 55.5 16.5t10.5 61.5v164q0 123 -99 123q-60 0 -103 -52v-235q0 -48 10.5 -61t55.5 -17v-26h-215v26q48 4 59 16.5t11 62.5v503q-64 7 -195 7h-71v-490q0 -64 15.5 -78.5t84.5 -19.5v-27h-282v27q67 5 82 20t15 78v490h-63q-64 0 -87 -7t-34 -26
q-17 -27 -33 -88h-29q9 111 12 181h19q10 -16 21.5 -20.5t33.5 -4.5h416q60 0 77.5 5.5t17.5 21.5v14q25 4 79 23v-338q69 71 140 72q65 2 103 -41t38 -129v-174q0 -50 11 -62t56 -16v-26z" />
    <glyph glyph-name="T_h.caron" unicode="&#x164;h" horiz-adv-x="1071" 
d="M1052 0h-212v26q45 4 55.5 16.5t10.5 61.5v164q0 123 -99 123q-60 0 -103 -52v-235q0 -48 10.5 -61t55.5 -17v-26h-215v26q48 4 59 16.5t11 62.5v503q-64 7 -195 7h-71v-490q0 -64 15.5 -78.5t84.5 -19.5v-27h-282v27q67 5 82 20t15 78v490h-63q-64 0 -87 -7t-34 -26
q-17 -27 -33 -88h-29q9 111 12 181h19q10 -16 21.5 -20.5t33.5 -4.5h416q60 0 77.5 5.5t17.5 21.5v14q25 4 79 23v-338q69 71 140 72q65 2 103 -41t38 -129v-174q0 -50 11 -62t56 -16v-26zM443 821l15 -25q-86 -66 -125 -108h-22q-40 42 -126 108l16 25q68 -29 121 -62
q68 40 121 62z" />
    <glyph glyph-name="T_h.commaaccent" unicode="&#x162;h" horiz-adv-x="1071" 
d="M1052 0h-212v26q45 4 55.5 16.5t10.5 61.5v164q0 123 -99 123q-60 0 -103 -52v-235q0 -48 10.5 -61t55.5 -17v-26h-215v26q48 4 59 16.5t11 62.5v503q-64 7 -195 7h-71v-490q0 -64 15.5 -78.5t84.5 -19.5v-27h-282v27q67 5 82 20t15 78v490h-63q-64 0 -87 -7t-34 -26
q-17 -27 -33 -88h-29q9 111 12 181h19q10 -16 21.5 -20.5t33.5 -4.5h416q60 0 77.5 5.5t17.5 21.5v14q25 4 79 23v-338q69 71 140 72q65 2 103 -41t38 -129v-174q0 -50 11 -62t56 -16v-26zM312 -27h1q29 0 51 -22.5t22 -56.5q0 -80 -106 -106l-9 28q60 24 60 56q0 29 -45 40
q-15 6 -15 24q0 17 12.5 27t28.5 10z" />
    <glyph glyph-name="f_b" unicode="fb" horiz-adv-x="803" 
d="M447 404l82 33q25 11 42 11q81 0 139 -60.5t58 -148.5q0 -107 -74.5 -179t-177.5 -72q-72 0 -148 36v598q-37 43 -93 43q-42 0 -68 -36q-29 -44 -28 -153l1 -40h116q6 -8 2.5 -21.5t-12.5 -18.5h-106v-283q0 -54 13.5 -68t73.5 -19v-26h-234v26q44 5 56 18t12 61v291h-70
l-5 12l28 28h47v21q0 50 11 83q19 69 77 118q54 47 117 54q45 -2 73 -23q35 10 63 23l5 -5v-303zM447 374v-258q0 -20 6 -35q7 -19 30 -37t58 -19q63 -1 101 51t38 137q0 82 -44 131t-110 49q-46 0 -79 -19z" />
    <glyph glyph-name="f_f_b" unicode="ffb" horiz-adv-x="1071" 
d="M715 708v-304q7 3 36.5 15t44.5 18q25 11 42 11q81 0 139 -60.5t58 -148.5q0 -107 -75.5 -179t-178.5 -72q-71 0 -146 37v597q-36 47 -91 47q-41 0 -67 -36q-29 -37 -30 -158v-39h117q5 -7 1 -21t-12 -19h-106v-292q0 -49 12.5 -61.5t66.5 -17.5v-25h-220v25
q41 5 51.5 17.5t10.5 61.5v292h-188v-292q0 -49 11 -61.5t56 -17.5v-25h-214v26q45 5 56.5 17.5t11.5 60.5v292h-71l-3 10l27 30h47v10q0 37 12 73q22 67 83 115q56 46 126 53q74 -2 113 -48q61 65 139 73q48 -2 75 -23q20 5 61 23zM368 436v16q0 76 31 134
q-16 24 -44.5 41.5t-63.5 17.5q-51 0 -81 -46t-30 -141v-22h188zM715 375v-259q0 -20 6 -34q7 -20 30.5 -38t58.5 -19q61 0 99.5 50.5t38.5 137.5q0 82 -44.5 131t-109.5 49q-47 0 -79 -18z" />
    <glyph glyph-name="f_f_h" unicode="ffh" horiz-adv-x="1081" 
d="M1063 0h-212v26q44 5 55 17t11 61v164q0 124 -100 124q-60 0 -103 -52v-236q0 -48 11 -60.5t55 -17.5v-26h-209v26q42 5 53 17.5t11 60.5v518q-40 46 -91 46q-45 0 -69 -37q-28 -39 -28 -156v-39h116q5 -8 2 -21.5t-12 -18.5h-106v-292q0 -48 12 -60.5t59 -17.5v-26h-212
v26q41 5 51.5 17.5t10.5 60.5v292h-188v-292q0 -47 11 -60t56 -18v-26h-212v26q43 5 54.5 18t11.5 60v292h-70l-3 10l26 30h47v10q0 36 13 73q20 66 82 115q58 47 128 53q74 -3 111 -48q61 64 135 73q44 0 76 -23q37 9 63 23l5 -4v-331q68 70 140 71q66 2 104 -40.5
t38 -129.5v-175q0 -48 11 -60.5t56 -16.5v-26zM368 436v17q0 76 31 134q-39 58 -108 58q-53 0 -80 -47q-31 -49 -31 -140v-22h188z" />
    <glyph glyph-name="f_f_j" unicode="ffj" horiz-adv-x="787" 
d="M447 436h80q125 0 186 13l1 -338q0 -96 -22 -161q-23 -66 -58.5 -120t-58.5 -75q-12 -12 -26 -12q-11 0 -23.5 13t-12.5 30t21 23q52 17 68 37q17 23 25 73q8 60 8 192v232q0 35 -7.5 44t-42.5 9h-138v-296q0 -47 11 -58.5t60 -15.5v-26h-215v26q45 4 55 15.5t10 58.5
v296h-188v-293q0 -49 10.5 -61t56.5 -17v-25h-212v26q44 5 55 17t11 61v292h-71l-3 11l27 29h47v20q0 32 11 70q23 68 83 115q60 44 127 51q82 -3 116 -53q71 69 147 73q73 -2 107 -48q13 -19 6 -35t-22 -26q-19 -12 -32 2q-16 18 -25.5 27.5t-31.5 21t-45 11.5
q-39 0 -64 -37q-31 -38 -31 -152v-40zM368 436v26q0 44 10 73q5 25 20 49q-16 27 -45.5 46t-66.5 19q-51 0 -76 -43q-30 -45 -30 -143v-27h188z" />
    <glyph glyph-name="f_f_k" unicode="ffk" horiz-adv-x="1045" 
d="M1061 0l-132 -1q-23 23 -50 54.5t-64.5 78t-52.5 64.5q-17 21 -30 21q-12 0 -18 -2v-110q0 -49 12 -61.5t61 -17.5v-26h-219v26q45 5 56.5 17.5t11.5 61.5v517q-39 46 -91 46q-45 0 -69 -35q-29 -40 -29 -158v-39h117q5 -7 2 -21.5t-11 -18.5h-108v-293q0 -48 12 -60
t60 -17v-26h-214v26q42 5 52.5 17.5t10.5 59.5v293h-188v-293q0 -47 11 -59.5t57 -17.5v-26h-215v27q45 5 56.5 17t11.5 59v293h-71l-3 9l27 31h47v9q0 34 13 75q23 67 81 114q60 47 130 53q73 -3 110 -48q61 64 138 73q44 -2 74 -22q31 7 63 22l4 -5v-467q37 8 64 35
q37 36 71 87q15 22 9.5 31.5t-38.5 12.5v27l204 9v-26q-47 -7 -72.5 -19t-53.5 -39q-30 -30 -87 -96q17 -26 73.5 -91.5t82.5 -90.5q28 -28 47.5 -40t46.5 -14v-26zM368 436v17q0 76 31 134q-39 58 -109 58q-50 0 -80 -47q-30 -42 -30 -140v-22h188z" />
    <glyph glyph-name="f_f_t" unicode="fft" horiz-adv-x="852" 
d="M843 35l-70 -35q-23 -12 -40 -12q-98 0 -98 118v290h-188v-294q0 -48 12.5 -60t63.5 -17v-25h-217v25q42 5 52 17.5t10 60.5v293h-188v-293q0 -49 11 -61t57 -17v-25h-215v26q45 5 56.5 17t11.5 59v294h-71l-4 11l28 29h47v11q0 31 11 70q25 71 83 117q62 48 129 53
q74 -3 112 -49q60 64 132 74q46 -1 75 -30q15 -16 6 -34q-7 -16 -24 -28q-10 -6 -23 5q-36 36 -77 36q-33 0 -54 -32q-25 -40 -24 -161v-32h188v67l66 68l13 -2v-133h113q7 -8 5.5 -21t-11.5 -19h-107v-255q0 -96 58 -96q30 0 62 16zM368 436v18q0 75 30 132q-42 58 -108 58
q-50 0 -80 -44q-30 -42 -30 -142v-22h188z" />
    <glyph glyph-name="f_h" unicode="fh" horiz-adv-x="814" 
d="M796 0h-212v26q44 5 55 17.5t11 60.5v163q0 63 -24 93.5t-75 29.5q-62 0 -104 -51v-235q0 -48 11 -60.5t55 -17.5v-26h-210v26q43 5 54 17.5t11 60.5v518q-38 45 -93 45q-42 0 -69 -37q-26 -37 -26 -155v-39h115q5 -8 1.5 -22t-11.5 -19h-105v-283q0 -54 10.5 -67.5
t55.5 -18.5v-26h-212v26q44 5 55.5 17.5t11.5 59.5v292h-70l-3 10l26 31h47v17q0 51 11 87q19 67 76 118q56 47 115 54q51 -2 76 -23q34 9 63 23l5 -4v-332q71 71 140 72q66 2 104 -41t38 -131v-172q0 -49 11 -61t56 -17v-26z" />
    <glyph glyph-name="f_j" unicode="fj" horiz-adv-x="520" 
d="M181 436h79q126 0 187 13v-338q0 -98 -23 -162q-42 -121 -117 -193q-12 -13 -27 -13q-11 0 -23.5 12t-12.5 29q0 16 21 24q55 16 69 37q19 24 27 74q7 54 7 196v228q0 35 -8 44t-43 9h-136v-297q0 -46 11 -57t59 -16v-26h-220v26q49 5 60 16.5t11 56.5v297h-71l-5 11
l28 29h48v23q0 39 11 78q23 73 82 121q61 47 123 54q73 -2 107 -48q13 -19 5 -37q-7 -14 -22 -24q-19 -10 -29 1q-48 59 -104 59q-40 0 -63 -36q-31 -44 -31 -157v-34z" />
    <glyph glyph-name="f_k" unicode="fk" horiz-adv-x="778" 
d="M794 0l-132 -1q-40 42 -167 197q-17 21 -30 21q-12 0 -18 -2v-110q0 -49 12 -61t61 -17v-27h-221v27q47 5 58.5 17t11.5 61v518q-38 43 -93 43q-44 0 -69 -37q-29 -46 -28 -155l1 -38h116q5 -7 2.5 -21.5t-10.5 -19.5h-108v-281q0 -55 11 -68.5t56 -18.5v-27h-214v27
q45 5 56.5 18t11.5 60v290h-71l-3 10l26 31h48v17q0 49 11 87q18 67 77 117q58 48 115 55q51 -2 75 -22q29 5 63 22l5 -5v-466q36 8 64 34q33 33 71 88q17 23 12 32t-40 12v26l203 9v-25q-48 -8 -72 -19t-54 -38q-19 -18 -88 -98q18 -26 74.5 -91.5t82.5 -90.5
q28 -28 47.5 -40t46.5 -13v-27z" />
    <glyph glyph-name="f_t" unicode="ft" horiz-adv-x="582" 
d="M576 34l-68 -34q-24 -12 -42 -12q-98 0 -98 118v290h-188v-291q0 -49 12 -62t61 -17v-26h-222v26q47 5 58.5 17.5t11.5 59.5v293h-70l-5 11l26 29h49v25q0 43 10 78q22 74 80 120q54 45 109 53q48 -1 75 -30q17 -17 7 -36q-8 -16 -23 -25q-11 -8 -24 3q-35 35 -77 35
q-34 0 -54 -30q-25 -37 -24 -167v-26h188v68l65 68l14 -3v-133h113q7 -7 5 -20.5t-11 -19.5h-107v-256q0 -96 58 -96q27 0 62 16z" />
    <glyph glyph-name="f_f" unicode="ff" horiz-adv-x="561" 
d="M99 436v12q0 41 12 77q25 68 79 111q59 47 126 54q75 -3 116 -48q62 62 132 70q52 -3 81 -35q13 -14 5 -32q-4 -12 -21 -25q-16 -13 -29 1q-40 40 -82 40q-35 0 -52 -32q-23 -36 -22 -159v-34h119q4 -7 1.5 -21t-9.5 -19h-111v-292q0 -50 12.5 -62t69.5 -17v-25h-223v25
q42 5 52 17.5t10 61.5v292h-187v-292q0 -49 11 -61.5t57 -17.5v-25h-214v26q45 5 56 17t11 61v292h-71l-3 11l27 29h47zM365 436v19q0 46 9 77q7 28 20 52q-41 64 -111 64q-47 0 -74 -43q-31 -47 -31 -145v-24h187z" />
    <glyph glyph-name="f_i" unicode="fi" horiz-adv-x="535" 
d="M517 0h-212v26q42 5 52.5 16.5t10.5 57.5v244q0 35 -8 43.5t-44 8.5h-136v-296q0 -46 11 -57.5t59 -16.5v-26h-220v26q48 5 59.5 16.5t11.5 57.5v296h-72l-4 11l28 29h48v23q0 39 11 78q22 72 82 121q60 47 125 54q40 -1 67.5 -16.5t38.5 -31.5q12 -17 5 -36
q-9 -16 -22 -25q-18 -10 -29 2q-50 59 -104 59q-40 0 -62 -36q-33 -45 -33 -158v-34h79q127 0 188 13v-349q0 -46 11 -57.5t59 -16.5v-26z" />
    <glyph glyph-name="f_l" unicode="fl" horiz-adv-x="533" 
d="M519 0h-216v26q44 4 54.5 16t10.5 58v521q-13 20 -38 33t-51 13q-41 0 -68 -36q-31 -42 -31 -143v-52h116q5 -7 2 -21t-11 -19h-107v-296q0 -46 10.5 -57.5t56.5 -16.5v-26h-216v26q48 5 59 16.5t11 57.5v296h-70l-4 11l27 29h47v17q0 54 13 91q18 66 81 116
q52 43 117 52q47 0 82 -23q11 3 45 21l8 -5v-605q0 -46 11.5 -57.5t60.5 -16.5v-26z" />
    <glyph glyph-name="f_f_i" unicode="ffi" horiz-adv-x="798" 
d="M781 0h-211v26q42 5 52.5 16.5t10.5 57.5v244q0 35 -7.5 43.5t-43.5 8.5h-137v-296q0 -46 10.5 -57.5t56.5 -16.5v-26h-210v26q44 5 54 16t10 58v296h-188v-293q0 -49 10.5 -61t56.5 -17v-25h-212v26q45 5 55.5 16.5t10.5 61.5v292h-70l-3 11l26 29h47v20q0 34 11 72
q20 64 85 115q58 43 124 50q84 -3 117 -53q69 69 148 73q71 -2 108 -48q13 -19 5 -35q-7 -16 -22 -26q-19 -13 -33 3q-1 1 -7 8t-8 9l-8.5 8.5t-10 9l-10.5 7.5t-12 7l-12.5 5t-15 4t-15.5 1q-41 0 -67 -37q-31 -42 -31 -153v-40h80q124 0 187 13v-349q0 -47 10.5 -58.5
t58.5 -15.5v-26zM366 436v26q0 36 9 72q9 33 21 52q-41 65 -111 65q-50 0 -77 -44q-30 -47 -30 -144v-27h188z" />
    <glyph glyph-name="f_f_l" unicode="ffl" horiz-adv-x="801" 
d="M785 0h-213v26q43 4 53 15.5t10 57.5v522q-29 47 -87 47q-45 0 -70 -34q-31 -41 -31 -153v-45h117q5 -7 2 -21t-11 -19h-107l-1 -296q0 -47 10.5 -58t56.5 -16v-26h-211v26q44 5 54.5 16.5t10.5 57.5v296h-188v-293q0 -48 11 -60t55 -17v-26h-212v26q45 5 56 16.5
t11 60.5v293h-70l-3 11l26 29h47v18q0 35 12 71q20 64 81 112q60 47 129 53q73 -2 116 -48q62 62 136 70q54 0 88 -25q7 3 42 24l9 -6v-606q0 -46 11 -57t60 -16v-26zM368 436v19q0 50 11 85q6 21 20 48q-16 25 -45 42t-65 17q-53 0 -81 -44q-28 -48 -28 -142v-25h188z" />
    <glyph glyph-name=".notdef" horiz-adv-x="500" 
d="M0 0v700h500v-700h-500zM250 395l170 255h-340zM280 350l170 -255v510zM80 50h340l-170 255zM50 605v-510l170 255z" />
    <glyph glyph-name=".null" horiz-adv-x="0" 
 />
    <glyph glyph-name="nonmarkingreturn" horiz-adv-x="333" 
 />
    <glyph glyph-name="space" unicode=" " horiz-adv-x="227" 
 />
    <glyph glyph-name="exclam" unicode="!" horiz-adv-x="276" 
d="M136 665h1q52 0 52 -30q0 -23 -7 -79q-10 -88 -29 -359q-4 -5 -17.5 -5t-16.5 5q-26 332 -29 359q-8 64 -8 79q0 30 54 30zM137 -12h-1q-24 0 -39.5 16t-15.5 43q0 25 16 41.5t40 16.5q25 0 41 -16.5t16 -41.5q0 -27 -16 -43t-41 -16z" />
    <glyph glyph-name="quotedbl" unicode="&#x22;" horiz-adv-x="318" 
d="M119 710l6 -5q-1 -6 -11 -95t-15 -124l-28 -12q-19 172 -29 209zM268 710l6 -5q0 -1 -10.5 -92t-15.5 -127l-28 -12q-22 183 -29 209z" />
    <glyph glyph-name="numbersign" unicode="#" horiz-adv-x="480" 
d="M448 452l-9 -58h-91l-30 -135h86l-9 -58h-90l-38 -174h-38l37 174h-108l-38 -174h-38l38 174h-96l11 58h99l29 135h-93l9 58h97l34 156h38l-34 -156h108l33 156h39l-33 -156h87zM310 394h-108l-29 -135h107z" />
    <glyph glyph-name="dollar" unicode="$" horiz-adv-x="480" 
d="M264 362l29 -11q141 -50 141 -166q0 -71 -45.5 -117.5t-124.5 -56.5v-87h-35v85q-93 0 -156 41q-10 31 -28 131l30 8q42 -134 154 -147v242l-36 15q-126 54 -126 154q0 62 42.5 107t119.5 54v79h35v-77q50 0 89 -13q6 -1 17 -4t17 -4q3 -19 10.5 -62t10.5 -62l-28 -7
q-16 53 -39 82.5t-77 37.5v-222zM229 376v208q-45 -4 -69 -33.5t-24 -67.5q0 -71 93 -107zM264 272v-229q45 6 70 35.5t25 71.5q0 39 -17.5 67t-65.5 50z" />
    <glyph glyph-name="percent" unicode="%" horiz-adv-x="756" 
d="M594 629l-404 -661l-31 23l402 661zM193 635h1q70 0 107 -56t37 -126q0 -69 -37.5 -125t-107.5 -56t-107 56t-37 125q0 70 37 126t107 56zM194 605h-1q-28 0 -45 -29t-21.5 -59.5t-4.5 -63.5q0 -23 3 -46t10 -48t22.5 -41t36.5 -16q22 0 37.5 16t22 42t9 48t2.5 45
t-2.5 45.5t-9 48.5t-22 42t-37.5 16zM566 351h1q69 0 106 -55.5t37 -125.5q0 -69 -37 -125.5t-107 -56.5t-107.5 56.5t-37.5 125.5t37.5 125t107.5 56zM567 322h-1q-28 0 -45 -28.5t-22 -59.5t-5 -64q0 -22 3 -45.5t10.5 -49t23 -41.5t36.5 -16t36 16t22 42t9.5 48.5
t2.5 45.5t-2.5 46t-9.5 48.5t-22 41.5t-36 16z" />
    <glyph glyph-name="ampersand" unicode="&#x26;" horiz-adv-x="711" 
d="M717 427v-28q-49 -6 -68.5 -20t-47.5 -55q-16 -23 -46.5 -70t-40.5 -63q40 -39 91.5 -100t71.5 -100l-7 -9q-38 3 -75 16.5t-47 24.5q-39 46 -87 95q-99 -132 -210 -132q-89 0 -143 55t-54 126q0 41 19.5 75t44 54.5t70.5 53.5q5 3 8.5 5.5t7.5 5.5q-72 67 -72 139
q0 66 48.5 112t115.5 46q62 0 105 -39.5t43 -98.5q0 -52 -42 -88q-40 -34 -81 -61q100 -85 168 -155q31 48 60 115q15 35 3.5 48t-64.5 20v28h229zM286 624h-1q-35 0 -58 -28t-23 -72q0 -37 21.5 -66.5t69.5 -66.5q74 55 74 128q0 44 -23.5 74.5t-59.5 30.5zM277 54h1
q47 0 90 26.5t70 64.5q-83 92 -208 194q-91 -65 -91 -143q0 -67 42 -104.5t96 -37.5z" />
    <glyph glyph-name="quotesingle" unicode="'" horiz-adv-x="169" 
d="M119 710l6 -5q-1 -7 -11 -95t-15 -124l-28 -12q-18 171 -29 209z" />
    <glyph glyph-name="parenleft" unicode="(" horiz-adv-x="346" 
d="M300 -147l-18 -23q-106 71 -159 185.5t-53 254.5v1q0 139 53 252.5t159 186.5l18 -24q-74 -62 -115.5 -173.5t-41.5 -242.5q0 -130 41.5 -242.5t115.5 -174.5z" />
    <glyph glyph-name="parenright" unicode=")" horiz-adv-x="346" 
d="M275 270v-1q0 -295 -211 -439l-19 23q75 62 116.5 174t41.5 243t-42 243t-116 173l19 24q211 -144 211 -440z" />
    <glyph glyph-name="asterisk" unicode="*" horiz-adv-x="404" 
d="M364 493l-132 -25l39 -138l-23 -9l-70 130l-122 -77l-14 22l102 94l-104 102l15 21l121 -80l58 132l24 -6l-27 -139l133 -2v-25z" />
    <glyph glyph-name="plus" unicode="+" horiz-adv-x="580" 
d="M529 230h-209v-230h-58v230h-210v50h210v207h58v-207h209v-50z" />
    <glyph glyph-name="comma" unicode="," horiz-adv-x="228" 
d="M94 130h1q31 0 61 -30t30 -78q0 -53 -38 -87.5t-93 -51.5l-11 29q77 31 77 85q0 26 -17.5 43t-44.5 24q-4 0 -8.5 6.5t-4.5 17.5q0 18 14.5 30t33.5 12z" />
    <glyph glyph-name="hyphen" unicode="-" horiz-adv-x="356" 
d="M300 253l-14 -55h-229l14 55h229z" />
    <glyph glyph-name="period" unicode="." horiz-adv-x="228" 
d="M114 -12h-1q-24 0 -39.5 16t-15.5 42q0 24 16 40.5t40 16.5t40 -16.5t16 -40.5q0 -26 -16 -42t-40 -16z" />
    <glyph glyph-name="slash" unicode="/" horiz-adv-x="331" 
d="M298 665l-217 -709h-56l216 709h57z" />
    <glyph glyph-name="zero" unicode="0" horiz-adv-x="480" 
d="M240 635h1q53 0 94 -28.5t63.5 -76t33.5 -102.5t11 -116q0 -58 -11 -112.5t-34 -103.5t-63.5 -78.5t-94.5 -29.5t-95 28t-64.5 75.5t-34.5 103t-11 117.5q0 58 11 112.5t34 103t64.5 78t95.5 29.5zM239 602h-1q-32 0 -55.5 -25t-35.5 -68t-17.5 -91t-5.5 -105
q0 -76 10 -138t37 -107.5t69 -45.5q32 0 55.5 25t35.5 68.5t17.5 92t5.5 104.5q0 57 -5.5 106t-18 92t-36 67.5t-55.5 24.5z" />
    <glyph glyph-name="one" unicode="1" horiz-adv-x="480" 
d="M384 0h-275v27q67 5 81.5 18.5t14.5 68.5v385q0 38 -7.5 47.5t-40.5 10.5l-48 2v24q85 15 178 52v-521q0 -55 14.5 -68.5t82.5 -18.5v-27z" />
    <glyph glyph-name="two" unicode="2" horiz-adv-x="480" 
d="M412 140l28 -9q0 -2 -35 -131h-373v23q112 112 161 170q60 72 92.5 128t32.5 114q0 63 -31 98t-86 35q-75 0 -137 -93l-22 20l57 81q55 59 135 59q69 0 118.5 -46.5t49.5 -122.5q0 -62 -29.5 -114t-102.5 -130l-141 -149h186q42 0 58.5 10.5t38.5 56.5z" />
    <glyph glyph-name="three" unicode="3" horiz-adv-x="480" 
d="M285 378v-2q65 -13 102 -54.5t37 -97.5q0 -57 -30.5 -104.5t-74 -75t-85.5 -42t-72 -14.5q-31 0 -59.5 11t-40.5 23q-19 18 -16 36q1 16 23 33q13 10 24 0q58 -51 124 -51q55 0 88 40t33 112q0 64 -39 96.5t-88 32.5q-29 0 -64 -11l-6 29q77 25 118 57.5t41 84.5
q0 45 -26.5 69.5t-68.5 24.5q-67 0 -120 -79l-20 20l43 63q51 56 127 56h1q66 0 107 -37.5t41 -94.5q0 -42 -31 -71q-22 -23 -68 -54z" />
    <glyph glyph-name="four" unicode="4" horiz-adv-x="480" 
d="M456 178h-96v-72q0 -50 12.5 -62t72.5 -17v-27h-256v27q65 5 78 17t13 62v72h-260v28q182 271 300 426h40v-407h96v-47zM280 225v295h-2q-107 -148 -196 -295h198z" />
    <glyph glyph-name="five" unicode="5" horiz-adv-x="480" 
d="M153 550l-26 -186q79 31 111 31q90 0 141.5 -51t51.5 -119q0 -93 -89 -166q-85 -69 -173 -71q-32 0 -61.5 11.5t-41.5 23.5q-18 17 -17 34q2 16 22 33q14 9 26 -1q61 -50 124 -50q60 0 93 43.5t33 104.5q0 69 -41.5 110t-121.5 41q-53 0 -102 -20l38 305h286l6 -8
l-26 -65h-233z" />
    <glyph glyph-name="six" unicode="6" horiz-adv-x="480" 
d="M137 343l67 33q37 17 63 17q79 0 129.5 -53.5t50.5 -131.5q0 -91 -58.5 -155.5t-146.5 -64.5q-89 0 -147 68t-58 182q0 63 17 119t43 95.5t61.5 72t69 52t67.5 31.5q62 22 128 33l6 -32q-56 -11 -108 -35q-149 -71 -184 -231zM228 337h-1q-47 0 -95 -27q-6 -23 -6 -70
q0 -93 36 -155.5t96 -62.5q53 0 78 45t25 105q0 68 -34.5 116.5t-98.5 48.5z" />
    <glyph glyph-name="seven" unicode="7" horiz-adv-x="480" 
d="M447 623l8 -12q-50 -107 -144 -312t-139 -301l-74 -10l-7 11q171 277 297 551h-216q-48 0 -62.5 -12t-33.5 -64h-29q10 61 18 149h382z" />
    <glyph glyph-name="eight" unicode="8" horiz-adv-x="480" 
d="M248 635h1q70 0 116 -43t46 -105q0 -46 -28 -80q-22 -25 -80 -64q62 -35 97 -75t35 -99q0 -81 -63 -131t-135 -50q-83 0 -137.5 45.5t-54.5 123.5q0 52 45 95q29 28 89 64q-109 62 -109 155q0 66 50 115t128 49zM239 603h-1q-42 0 -67.5 -31t-25.5 -72q0 -50 32.5 -79.5
t98.5 -62.5q61 48 61 124q0 59 -29.5 90t-68.5 31zM247 20h1q46 0 76.5 33.5t30.5 89.5q0 50 -39 85.5t-110 71.5q-81 -54 -81 -137q0 -67 35.5 -105t86.5 -38z" />
    <glyph glyph-name="nine" unicode="9" horiz-adv-x="480" 
d="M243 635h1q90 0 143 -72t53 -177q0 -133 -65 -229.5t-171 -139.5q-79 -32 -140 -32l-5 30q109 18 185 91t101 186l-68 -36q-29 -16 -60 -16q-79 0 -129 51.5t-50 130.5q0 80 57 146.5t148 66.5zM229 602h-1q-52 0 -78 -45.5t-26 -98.5q0 -69 36.5 -115.5t97.5 -46.5
q53 0 90 28q4 31 4 66q0 51 -9.5 95.5t-39 80.5t-74.5 36z" />
    <glyph glyph-name="colon" unicode=":" horiz-adv-x="228" 
d="M115 412h1q23 0 38.5 -16t15.5 -41t-15.5 -41.5t-39.5 -16.5t-40 16.5t-16 41.5t16 41t40 16zM115 -12h-1q-23 0 -38.5 16t-15.5 42q0 24 16 40.5t39 16.5q24 0 40 -16.5t16 -40.5q0 -26 -16 -42t-40 -16z" />
    <glyph glyph-name="semicolon" unicode=";" horiz-adv-x="228" 
d="M113 412h1q23 0 39 -16t16 -41t-16 -41.5t-40 -16.5t-39.5 16.5t-15.5 41.5t15.5 41t39.5 16zM94 130h1q31 0 61 -30t30 -78q0 -53 -38 -88t-92 -52l-11 30q76 32 76 85q0 26 -17.5 43.5t-44.5 23.5q-13 3 -13 24q0 19 14.5 30.5t33.5 11.5z" />
    <glyph glyph-name="less" unicode="&#x3c;" horiz-adv-x="552" 
d="M492 0l-432 230v47l432 230v-56l-373 -197v-2l373 -196v-56z" />
    <glyph glyph-name="equal" unicode="=" horiz-adv-x="580" 
d="M529 321h-477v50h477v-50zM529 138h-477v50h477v-50z" />
    <glyph glyph-name="greater" unicode="&#x3e;" horiz-adv-x="552" 
d="M492 230l-432 -230v56l374 196v2l-374 197v56l432 -230v-47z" />
    <glyph glyph-name="question" unicode="?" horiz-adv-x="379" 
d="M219 216l-18 -23q-36 13 -73.5 51t-37.5 79q0 26 18.5 51.5t65.5 60.5q2 2 16.5 12.5t20 15t17.5 14.5t18 17t13.5 16.5t10.5 18t3 17.5q0 26 -16 40.5t-44 14.5t-53.5 -13.5t-41.5 -27t-19 -13.5q-11 0 -26 13.5t-15 30.5q0 19 21 36q21 18 48.5 28t42.5 10h1
q63 0 112 -49t49 -111q0 -48 -48 -88l-38 -29q-39 -28 -56.5 -48.5t-17.5 -42.5q0 -40 47 -81zM185 -12h-1q-23 0 -38.5 16t-15.5 42q0 24 16 40.5t39 16.5t39 -16.5t16 -40.5q0 -26 -15.5 -42t-39.5 -16z" />
    <glyph glyph-name="at" unicode="@" horiz-adv-x="753" 
d="M545 -14l11 -28q-94 -55 -204 -55q-126 0 -213 80t-87 225q0 112 56 198.5t141.5 129.5t183.5 43q129 0 204.5 -74.5t75.5 -182.5q0 -103 -68 -175.5t-168 -72.5q-36 0 -45 20t0 51l11 58l-2 1q-27 -41 -82.5 -85.5t-87.5 -44.5q-20 0 -34 21.5t-14 62.5q0 46 20 97.5
t60 90.5q78 73 161 74q15 0 50 -8q19 -4 34 -4q-25 -102 -48 -227q-7 -40 -3.5 -53t22.5 -12q57 2 101.5 56.5t44.5 149.5q0 101 -66 159.5t-171 58.5q-139 0 -225.5 -90.5t-86.5 -231.5q0 -52 14.5 -98t45 -86t84 -63t125.5 -23q41 0 89 12.5t71 25.5zM423 380h-1
q-37 0 -65 -30q-23 -25 -40.5 -73t-17.5 -94q0 -45 21 -45q16 0 53.5 31.5t78.5 88.5q14 48 25 111q-24 11 -54 11z" />
    <glyph glyph-name="A" unicode="A" horiz-adv-x="691" 
d="M673 0h-245v28q47 6 58 16t1 39q-7 20 -55 154h-213q-32 -89 -44 -128q-16 -48 -5 -61.5t68 -19.5v-28h-218v28q50 7 68.5 23.5t43.5 80.5l207 524l31 9q18 -49 87 -242t106 -293q23 -63 41.5 -80t68.5 -22v-28zM418 280l-88 255h-2q-16 -42 -47 -127.5t-47 -127.5h184z
" />
    <glyph glyph-name="B" unicode="B" horiz-adv-x="588" 
d="M372 352v-2q176 -27 176 -159q0 -99 -95 -151q-73 -40 -196 -40h-221v28q65 5 78.5 19t13.5 76v404q0 63 -12 77t-72 18v28h257q102 0 150 -34q26 -18 41 -48.5t15 -65.5q0 -111 -135 -150zM213 362h47q80 0 117.5 32t37.5 96q0 56 -33 92t-100 36q-41 0 -56 -10
q-13 -8 -13 -50v-196zM213 328v-203q0 -54 17 -73t66 -18q66 0 110 36.5t44 110.5q0 147 -192 147h-45z" />
    <glyph glyph-name="C" unicode="C" horiz-adv-x="665" 
d="M614 175l29 -10q-33 -109 -57 -154q-121 -26 -184 -26q-90 0 -160.5 29t-112.5 77t-63.5 105.5t-21.5 119.5q0 157 108 253t277 96q36 0 71.5 -5t69 -13.5t36.5 -8.5q14 -102 20 -151l-29 -7q-20 79 -66.5 114t-128.5 35q-119 0 -187.5 -86t-68.5 -207
q0 -140 73.5 -227.5t188.5 -87.5q73 0 119.5 37.5t86.5 116.5z" />
    <glyph glyph-name="D" unicode="D" horiz-adv-x="735" 
d="M43 650h280q194 0 282 -85q85 -82 85 -215q0 -173 -123 -267q-107 -83 -297 -83h-236v27q65 5 79.5 19.5t14.5 77.5v402q0 45 -6 62.5t-21.5 24t-57.5 9.5v28zM213 547v-416q0 -55 24.5 -75t81.5 -20q133 0 203 86t70 214q0 80 -30 143t-88 97q-66 41 -170 41
q-62 0 -78 -13q-13 -9 -13 -57z" />
    <glyph glyph-name="E" unicode="E" horiz-adv-x="568" 
d="M517 162l29 -4q-18 -100 -35 -158h-482v28q68 5 83.5 20t15.5 77v398q0 66 -13 80.5t-73 19.5v27h446q0 -5 8 -144l-29 -4q-11 51 -32 85q-11 17 -35 23t-78 6h-76q-23 0 -28 -5t-5 -27v-228h94q67 0 83 12t25 63h29v-191h-29q-10 54 -26 65.5t-81 11.5h-95v-189
q0 -65 24 -81q19 -13 104 -13q57 0 83 7t43 27q29 34 50 94z" />
    <glyph glyph-name="F" unicode="F" horiz-adv-x="529" 
d="M493 503l-29 -3q-13 55 -28 80q-13 21 -35.5 28.5t-78.5 7.5h-76q-22 0 -27.5 -5t-5.5 -27v-238h103q66 0 82.5 12t25.5 62h29v-193h-29q-9 54 -25.5 67t-82.5 13h-103v-181q0 -64 15 -78.5t84 -19.5v-28h-272v28q61 5 74.5 19.5t13.5 78.5v399q0 64 -13 78t-72 19v28
h440q1 -40 10 -147z" />
    <glyph glyph-name="G" unicode="G" horiz-adv-x="715" 
d="M692 302v-28q-45 -6 -54.5 -17t-9.5 -55v-86q0 -62 7 -95q-7 -2 -32 -7.5t-37 -8t-35.5 -7.5t-40.5 -7t-38.5 -4t-40.5 -2q-165 0 -266 93t-101 243q0 84 32 151t86 108t121.5 63t142.5 22q73 0 193 -29q7 -76 15 -156l-28 -6q-17 87 -66.5 121.5t-128.5 34.5
q-117 0 -191 -80.5t-74 -216.5q0 -56 17 -110t49.5 -100.5t87.5 -74.5t124 -28q53 0 87 17q17 9 24.5 23t7.5 43v85q0 54 -15.5 67t-89.5 19v28h254z" />
    <glyph glyph-name="H" unicode="H" horiz-adv-x="766" 
d="M729 650v-28q-62 -5 -76 -19.5t-14 -75.5v-404q0 -62 13.5 -76t75.5 -19v-28h-268v28q65 5 79.5 19t14.5 76v199h-341v-199q0 -62 14 -76t76 -19v-28h-263v28q61 5 74.5 19t13.5 76v404q0 62 -14 76t-76 19v28h259v-28q-58 -5 -71 -19t-13 -76v-162h341v162
q0 61 -13.5 75.5t-72.5 19.5v28h261z" />
    <glyph glyph-name="I" unicode="I" 
d="M303 0h-265v28q62 5 76 19.5t14 77.5v400q0 63 -14 77.5t-76 19.5v28h265v-28q-62 -5 -76 -19.5t-14 -77.5v-400q0 -64 14 -78t76 -19v-28z" />
    <glyph glyph-name="J" unicode="J" horiz-adv-x="329" 
d="M303 650v-28q-58 -5 -71.5 -19.5t-13.5 -77.5v-374q0 -98 -18.5 -155.5t-67.5 -102.5q-49 -44 -93 -58l-12 28q78 39 96 131q10 60 10 190v341q0 63 -14 77.5t-75 19.5v28h259z" />
    <glyph glyph-name="K" unicode="K" horiz-adv-x="673" 
d="M667 0h-153q-58 64 -248 291q-28 32 -54 27v-189q0 -65 14.5 -80.5t77.5 -20.5v-28h-260v28q58 5 71 20.5t13 80.5v391q0 48 -6 66.5t-22 25.5t-59 10v28h258v-28q-59 -5 -73 -20.5t-14 -81.5v-175q29 6 70 45q101 97 167 178q23 27 20 37t-36 14l-23 3v28h240v-28
q-57 -5 -86 -18.5t-76 -56.5q-40 -35 -177 -175q98 -124 235 -272q39 -41 61.5 -54t59.5 -18v-28z" />
    <glyph glyph-name="L" unicode="L" horiz-adv-x="538" 
d="M495 163l30 -6q-19 -99 -36 -157h-453v28q63 5 77.5 20t14.5 78v400q0 63 -13 77t-75 19v28h261v-28q-60 -5 -74 -19t-14 -77v-395q0 -41 5 -59t18 -25q24 -13 96 -13q85 0 112 31q30 33 51 98z" />
    <glyph glyph-name="M" unicode="M" horiz-adv-x="891" 
d="M861 0h-264v27q61 6 73 23t12 97l-4 408h-3l-244 -549h-21l-224 535h-2l-14 -285q-5 -98 -3 -166q1 -34 19.5 -45t72.5 -17v-28h-233v28q45 5 62.5 17t22.5 43q11 65 19 183l14 208q3 36 3.5 55t-2.5 37.5t-6.5 25t-16.5 13t-25.5 8t-39.5 4.5v28h164l227 -501l232 501
h170v-28q-16 -1 -24 -2t-19.5 -3t-16 -3.5t-11.5 -5t-9.5 -7t-6 -10.5t-4 -13.5t-1.5 -18t-0.5 -22.5t0.5 -28l10 -362q2 -80 15 -97t78 -23v-27z" />
    <glyph glyph-name="N" unicode="N" horiz-adv-x="743" 
d="M719 650v-28q-43 -2 -62 -15t-22 -44q-6 -47 -6 -169v-403h-31l-426 524h-2v-251q0 -111 6 -169q4 -37 24 -50.5t72 -16.5v-28h-237v28q45 3 64.5 16.5t23.5 48.5q6 62 6 171v220q0 53 -3 67.5t-17 33.5q-16 19 -34.5 26.5t-54.5 10.5v28h147l418 -501h3v245
q0 117 -7 166q-4 33 -24.5 46t-73.5 16v28h236z" />
    <glyph glyph-name="O" unicode="O" horiz-adv-x="747" 
d="M380 665h1q131 0 226.5 -93t95.5 -239q0 -158 -96 -253t-238 -95q-137 0 -231 95t-94 238q0 142 92.5 244.5t243.5 102.5zM360 629h-1q-89 0 -151 -74.5t-62 -208.5q0 -141 69 -233t175 -92q90 0 150.5 74t60.5 211q0 152 -69 237.5t-172 85.5z" />
    <glyph glyph-name="P" unicode="P" horiz-adv-x="563" 
d="M46 650h247q112 0 169 -41q64 -49 64 -141q0 -91 -56.5 -143t-138.5 -62q-23 -3 -45 -1l-74 19v-157q0 -63 15.5 -77t83.5 -19v-28h-271v28q60 5 74 20t14 77v400q0 65 -12.5 79t-69.5 18v28zM212 559v-245q31 -12 73 -12q59 0 102 38t43 124q0 77 -42.5 115.5
t-108.5 38.5q-44 0 -56 -12q-11 -8 -11 -47z" />
    <glyph glyph-name="Q" unicode="Q" horiz-adv-x="745" 
d="M720 -138l-8 -21q-67 -1 -128 15q-71 19 -229 130q-125 7 -208 87q-47 44 -75 107t-28 135q0 145 92.5 247.5t247.5 102.5q130 0 224.5 -94t94.5 -240q0 -126 -65.5 -212.5t-161.5 -116.5q123 -85 244 -140zM348 25l68 22q5 -3 14 -9.5t13 -9.5q66 19 112 90t46 184
q0 152 -67.5 239.5t-173.5 87.5q-89 0 -151.5 -75.5t-62.5 -211.5q0 -126 56.5 -212.5t145.5 -104.5z" />
    <glyph glyph-name="R" unicode="R" horiz-adv-x="621" 
d="M631 18l-4 -26q-24 0 -35 1q-57 3 -92.5 23t-69.5 68q-21 30 -101 160q-13 22 -30.5 31t-54.5 9h-32v-159q0 -62 14 -77t74 -20v-28h-262v28q62 5 76 19.5t14 77.5v401q0 63 -13 77t-73 19v28h248q109 0 159 -34q67 -42 67 -131q0 -115 -127 -172q27 -52 89 -144
q49 -71 81 -104q31 -36 72 -47zM212 316h48q73 0 108 29q55 42 55 124q0 76 -42 112t-104 36q-41 0 -54 -10q-11 -7 -11 -44v-247z" />
    <glyph glyph-name="S" unicode="S" horiz-adv-x="474" 
d="M409 504l-29 -5q-16 60 -44.5 96t-86.5 36q-54 0 -82.5 -32t-28.5 -77q0 -51 30.5 -82.5t96.5 -65.5q26 -13 35.5 -18t33 -19.5t33.5 -23.5t27 -25.5t24.5 -32t13.5 -36.5t6 -45q0 -80 -62 -134.5t-160 -54.5q-47 0 -98 15q-29 10 -50 21q-8 23 -27 155l30 7
q7 -27 18 -52t30 -51.5t49 -42.5t67 -16q56 0 88 32.5t32 87.5q0 51 -31.5 82t-98.5 67q-80 44 -110 73q-55 53 -55 124q0 75 56 126.5t150 51.5q53 0 126 -23q4 -33 17 -138z" />
    <glyph glyph-name="T" unicode="T" horiz-adv-x="617" 
d="M592 498l-30 -3q-13 62 -31 90q-13 18 -33.5 24.5t-75.5 6.5h-70v-493q0 -59 16 -75t86 -20v-28h-286v28q68 4 83.5 19.5t15.5 75.5v493h-62q-60 0 -83 -6.5t-33 -24.5q-12 -17 -32 -90h-29q10 119 12 180h20q10 -16 21 -20.5t34 -4.5h395q19 0 28.5 5t21.5 20h21
q2 -90 11 -177z" />
    <glyph glyph-name="U" unicode="U" horiz-adv-x="736" 
d="M716 650v-28q-46 -3 -65 -15.5t-22 -43.5q-6 -54 -6 -163v-81q0 -185 -75 -264q-68 -69 -180 -69q-97 0 -160 47q-88 67 -88 239v249q0 66 -13.5 81t-73.5 20v28h258v-28q-59 -4 -72.5 -19t-13.5 -82v-227q0 -123 48 -188.5t140 -65.5q189 0 189 286v75q0 111 -7 165
q-4 29 -24 40.5t-73 15.5v28h238z" />
    <glyph glyph-name="V" unicode="V" horiz-adv-x="703" 
d="M687 650v-28q-52 -6 -71.5 -23t-47.5 -83q-142 -346 -208 -527h-31q-119 325 -207 545q-21 54 -39.5 68.5t-65.5 19.5v28h245v-28q-52 -5 -61.5 -15.5t3.5 -43.5q55 -157 166 -437h2q120 303 158 421q15 43 3.5 55.5t-71.5 19.5v28h225z" />
    <glyph glyph-name="W" unicode="W" horiz-adv-x="971" 
d="M956 650v-28q-52 -7 -69 -22.5t-39 -77.5q-60 -175 -165 -533h-31q-17 50 -175 499h-2q-28 -88 -82.5 -253t-80.5 -246h-31q-24 81 -164 535q-18 60 -36 76.5t-65 21.5v28h243v-28q-53 -7 -63 -18.5t3 -49.5q78 -270 122 -412h2q25 78 80 245t82 254h29q33 -98 175 -500
h2q87 277 113 401q12 45 0.5 59t-68.5 21v28h220z" />
    <glyph glyph-name="X" unicode="X" horiz-adv-x="654" 
d="M655 0h-263v28q46 5 55.5 14.5t-5.5 34.5q-90 148 -132 214q-69 -104 -122 -202q-19 -32 -10.5 -43.5t58.5 -17.5v-28h-229v28q44 5 70 17t47 40q47 59 164 239q-27 42 -134 214q-33 50 -54 64t-74 20v28h246v-28q-44 -5 -52 -14t5 -28q32 -55 114 -182q66 102 99 162
q19 33 10.5 44.5t-57.5 17.5v28h228v-28q-56 -6 -80 -19.5t-58 -57.5q-45 -62 -121 -179q78 -124 157 -246q35 -53 60.5 -70t77.5 -22v-28z" />
    <glyph glyph-name="Y" unicode="Y" horiz-adv-x="634" 
d="M620 650v-28q-51 -6 -70.5 -19t-48.5 -60q-68 -110 -126 -219q-17 -32 -17 -63v-136q0 -63 15.5 -77.5t84.5 -19.5v-28h-283v28q68 5 83 19.5t15 77.5v133q0 22 -21 60q-111 193 -126 219q-31 53 -49 67t-62 18v28h239v-28q-51 -6 -59.5 -18t8.5 -36q33 -62 136 -237
q93 170 118 225q18 37 9 48.5t-67 17.5v28h221z" />
    <glyph glyph-name="Z" unicode="Z" horiz-adv-x="603" 
d="M561 176l29 -6q-25 -130 -36 -170h-517l-8 15q312 441 420 599h-173q-77 0 -102 -7t-39 -29q-19 -29 -35 -87l-29 1q9 111 12 183h24q9 -16 19 -20.5t34 -4.5h399l7 -14q-279 -395 -413 -594q48 -6 163 -6q94 0 131.5 7.5t58.5 29.5q28 29 55 103z" />
    <glyph glyph-name="bracketleft" unicode="[" horiz-adv-x="345" 
d="M290 -163h-170v866h170v-28q-79 -7 -94 -19.5t-15 -72.5v-627q0 -59 14.5 -71.5t94.5 -19.5v-28z" />
    <glyph glyph-name="backslash" unicode="\" horiz-adv-x="333" 
d="M299 -44h-57l-206 709h56z" />
    <glyph glyph-name="bracketright" unicode="]" horiz-adv-x="345" 
d="M226 -163h-170v27q79 7 94 20t15 73v627q0 59 -15 72t-94 20v27h170v-866z" />
    <glyph glyph-name="asciicircum" unicode="^" horiz-adv-x="566" 
d="M496 211h-59l-155 346l-157 -346h-55l191 412h43z" />
    <glyph glyph-name="underscore" unicode="_" horiz-adv-x="500" 
d="M500 -125h-500v50h500v-50z" />
    <glyph glyph-name="grave" unicode="`" horiz-adv-x="400" 
d="M247 496l-27 -14q-81 112 -117 161l3 8q7 4 35 9t39 4q57 -142 67 -168z" />
    <glyph glyph-name="a" unicode="a" horiz-adv-x="439" 
d="M433 39l-85 -51q-26 0 -47 19q-16 16 -24 45q-5 -3 -24 -16.5t-27 -18.5t-23 -13.5t-25 -12t-19 -3.5q-52 0 -86 36.5t-34 85.5q0 70 81 98q127 42 155 65v17q0 54 -22.5 83.5t-61.5 29.5q-28 0 -44 -19q-15 -15 -30 -65q-7 -23 -29 -23q-14 0 -28.5 13t-14.5 29
q0 17 31 40q74 53 149 70q49 0 82 -27q45 -39 45 -123v-185q0 -60 35 -60q16 0 36 12zM275 84v155q-12 -6 -49 -23t-41 -19q-32 -15 -46.5 -31t-14.5 -42q0 -36 22 -56t49 -20q19 0 42 10.5t38 25.5z" />
    <glyph glyph-name="b" unicode="b" horiz-adv-x="508" 
d="M152 403l81 35q23 10 41 10q81 0 139 -61t58 -149q0 -107 -74.5 -178.5t-176.5 -71.5q-71 0 -147 36v555q0 48 -9.5 59t-56.5 15v24q79 10 145 35v-309zM152 373v-257q0 -20 6 -35q7 -19 30 -37t58 -18q63 0 99.5 50t36.5 136q0 83 -43.5 131.5t-108.5 48.5
q-47 0 -78 -19z" />
    <glyph glyph-name="c" unicode="c" horiz-adv-x="423" 
d="M390 111l17 -21q-34 -45 -80 -73.5t-89 -28.5q-91 0 -146 61.5t-55 146.5q0 118 101 195q74 57 149 57h1q59 0 90 -27q16 -12 16 -30q0 -15 -12 -29t-21 -14q-8 0 -19 11q-44 41 -101 41q-52 0 -87.5 -42.5t-35.5 -117.5q0 -93 48.5 -138.5t102.5 -45.5q33 0 60.5 12
t60.5 43z" />
    <glyph glyph-name="d" unicode="d" horiz-adv-x="528" 
d="M517 51v-25q-101 -18 -155 -38v65l-61 -36q-50 -29 -78 -29q-68 0 -126.5 58t-58.5 155q0 102 77 174.5t180 72.5q36 0 67 -12v143q0 49 -11.5 59.5t-65.5 14.5v25q79 9 156 34v-597q0 -37 8 -47.5t36 -13.5zM362 85v274q-35 51 -103 51q-20 0 -40.5 -8.5t-42 -28
t-35 -57t-13.5 -88.5q0 -83 42 -130t96 -47q51 0 96 34z" />
    <glyph glyph-name="e" unicode="e" horiz-adv-x="425" 
d="M380 106l15 -22q-42 -52 -87 -74t-76 -22q-89 0 -142 62t-53 151q0 103 66 174q67 73 146 73h1q61 0 105.5 -46t44.5 -105q0 -16 -4.5 -22.5t-18.5 -9.5q-54 -10 -262 -17q1 -95 46 -143.5t104 -48.5q61 0 115 50zM226 411h-1q-35 0 -64.5 -32t-40.5 -90q83 0 170 3
q24 0 24 19q1 41 -23.5 70.5t-64.5 29.5z" />
    <glyph glyph-name="f" unicode="f" horiz-adv-x="296" 
d="M54 436h47v21q0 49 11 84q24 72 77 118q55 46 110 53q51 -2 79 -33q13 -16 5 -36q-5 -13 -19 -24t-27 3q-37 37 -81 37q-34 0 -53 -29q-24 -37 -23 -154v-40h118q5 -7 1.5 -21t-11.5 -19h-108v-287q0 -54 13 -66t73 -18v-25h-236v26q48 5 59.5 17t11.5 60v293h-70l-4 11z
" />
    <glyph glyph-name="g" unicode="g" horiz-adv-x="468" 
d="M463 436l5 -8q-22 -38 -45 -50l-57 3q30 -37 30 -89q0 -75 -52.5 -117t-122.5 -42q-24 0 -51 5q-30 -21 -30 -42q0 -16 16 -27t47 -11q19 0 54 0.5t52 0.5q36 0 65.5 -8t53.5 -36t24 -74q0 -77 -75 -137.5t-174 -60.5q-79 0 -126 37.5t-48 84.5q0 32 24 56q21 21 83 70
q-49 15 -74 55q-13 20 -11 42q56 21 88 61q-37 16 -62.5 50.5t-25.5 82.5q0 78 56.5 122t122.5 44h1q47 0 96 -26q67 3 136 14zM220 417h-1q-34 0 -58 -32t-24 -87q0 -58 26.5 -95.5t67.5 -37.5q35 1 59 31.5t24 86.5q0 59 -26 96.5t-68 37.5zM242 -11h-1q-62 0 -87 -21
q-46 -39 -46 -78q0 -41 38 -68.5t94 -27.5q69 0 106.5 31t37.5 80q0 53 -45 71q-33 13 -97 13z" />
    <glyph glyph-name="h" unicode="h" horiz-adv-x="534" 
d="M513 0h-211v26q44 5 55 17t11 60v165q0 123 -98 123q-59 0 -104 -51v-237q0 -48 10 -60.5t55 -16.5v-26h-213l1 26q46 4 57 16t11 61v477q0 48 -9.5 58.5t-58.5 14.5v24q63 9 147 35v-337q73 73 143 73q64 0 101 -42t37 -128v-175q0 -49 11 -61t55 -16v-26z" />
    <glyph glyph-name="i" unicode="i" horiz-adv-x="268" 
d="M135 651h1q21 0 35.5 -15t14.5 -37q0 -21 -15 -36t-36 -15q-19 0 -34.5 15t-15.5 35q0 22 15 37.5t35 15.5zM252 0h-220v26q48 5 59 17t11 63v206q0 46 -9 57t-54 18v24q78 12 142 39v-344q0 -51 11.5 -63t59.5 -17v-26z" />
    <glyph glyph-name="j" unicode="j" horiz-adv-x="256" 
d="M135 651h1q20 0 34.5 -15t14.5 -37q0 -21 -14.5 -36t-35.5 -15q-20 0 -35 15.5t-15 35.5q0 22 14.5 37t35.5 15zM34 388v23q84 13 146 39v-339q0 -97 -23 -161q-23 -66 -60 -120.5t-61 -75.5q-14 -11 -26 -11q-11 0 -23.5 13.5t-12.5 30.5q0 19 21 23q54 13 73 38
q16 20 25 72q8 56 8 193v195q0 50 -10 61.5t-57 18.5z" />
    <glyph glyph-name="k" unicode="k" horiz-adv-x="496" 
d="M510 0l-132 -1q-21 22 -48 54t-64.5 78t-53.5 65q-19 22 -31 21q-6 1 -16 -2v-111q0 -49 11.5 -61t60.5 -17v-26h-223v26q50 4 61.5 17t11.5 61v472q0 50 -10 61.5t-56 15.5v24q57 6 144 35v-471q38 8 63 34q31 31 71 88q16 23 10.5 31.5t-40.5 12.5v26l204 9v-25
q-51 -8 -75.5 -19t-53.5 -39q-28 -29 -86 -95q19 -26 75 -92t81 -91q30 -30 49.5 -42t46.5 -13v-26z" />
    <glyph glyph-name="l" unicode="l" horiz-adv-x="253" 
d="M238 0h-223v26q48 5 60 17t12 61v473q0 50 -10.5 60.5t-58.5 15.5v24q73 8 148 35v-608q0 -49 11.5 -61t60.5 -17v-26z" />
    <glyph glyph-name="m" unicode="m" horiz-adv-x="819" 
d="M796 0h-213v26q45 5 57 17.5t12 63.5v166q0 116 -88 116q-47 0 -111 -52q3 -18 3 -42v-194q0 -46 11 -58t53 -17v-26h-214v26q48 5 59.5 17t11.5 60v171q0 115 -88 115q-47 0 -109 -52v-234q0 -47 10 -59.5t48 -17.5v-26h-211v26q50 5 62.5 17t12.5 60v206q0 48 -9 59.5
t-52 18.5v23q79 14 139 41v-81q3 2 29 20.5t44 29.5q46 28 81 28q36 0 66 -22t46 -60q36 27 82 56q41 26 76 26q59 0 93 -40t34 -113v-192q0 -49 10.5 -60.5t54.5 -16.5v-26z" />
    <glyph glyph-name="n" unicode="n" horiz-adv-x="547" 
d="M524 0h-209v26q44 5 55 18t11 65v166q0 114 -91 114q-50 0 -109 -51v-234q0 -50 10 -61.5t55 -16.5v-26h-217v26q51 5 62 17t11 61v206q0 47 -9 58t-51 19v23q83 16 139 41v-80q21 15 67 47q47 30 83 30q60 0 94.5 -39.5t34.5 -111.5v-193q0 -50 10 -61.5t54 -16.5v-26z
" />
    <glyph glyph-name="o" unicode="o" horiz-adv-x="510" 
d="M256 448h1q92 0 154 -65t62 -158q0 -112 -67 -174.5t-150 -62.5q-98 0 -158.5 66t-60.5 154q0 59 21 106.5t54.5 75.5t70.5 43t73 15zM245 415h-1q-48 0 -81 -47t-33 -128q0 -96 37.5 -157.5t99.5 -61.5q113 0 113 183q0 91 -35.5 151t-99.5 60z" />
    <glyph glyph-name="p" unicode="p" horiz-adv-x="524" 
d="M169 380l92 52q26 16 49 16q80 0 128.5 -55.5t48.5 -132.5q0 -108 -72.5 -180.5t-176.5 -91.5q-38 1 -69 18v-131q0 -56 13 -69.5t71 -18.5v-27h-236v27q49 5 61 17t12 61v452q0 48 -9.5 58.5t-56.5 16.5v24q63 10 145 42v-78zM169 345v-270q38 -38 94 -38q63 0 101.5 50
t38.5 134q0 77 -38.5 122t-95.5 45q-45 0 -100 -43z" />
    <glyph glyph-name="q" unicode="q" horiz-adv-x="511" 
d="M515 -240h-241v27q59 4 72 17t13 66v160l-106 -42q-101 0 -158 64t-57 145q0 105 81 178.5t187 72.5q48 -5 69 -14q17 -5 27 -5q16 3 35 12l4 -3q-3 -63 -3 -107v-463q0 -52 12 -64t65 -17v-27zM359 61v304q-17 19 -44.5 30.5t-52.5 11.5q-55 0 -94.5 -47t-39.5 -130
q0 -85 48 -135.5t109 -50.5q42 0 74 17z" />
    <glyph glyph-name="r" unicode="r" horiz-adv-x="371" 
d="M181 342h2q64 106 121 106q24 0 41 -16t17 -34q0 -34 -32 -49q-17 -7 -26 2q-21 20 -43 20q-20 0 -42 -22t-38 -63v-182q0 -50 12.5 -62t69.5 -16v-26h-230v26q47 5 58 17t11 60v207q0 49 -9 60.5t-53 16.5v23q74 12 141 40v-108z" />
    <glyph glyph-name="s" unicode="s" horiz-adv-x="367" 
d="M319 324l-25 -7q-33 99 -103 99q-29 0 -47 -19.5t-18 -49.5t22 -49.5t62 -36.5q63 -26 95 -56.5t32 -78.5q0 -64 -50 -101t-115 -37q-35 0 -67.5 10.5t-46.5 23.5q-5 11 -11 51t-6 67l27 4q14 -52 46.5 -87.5t75.5 -35.5q29 0 50 19.5t21 50.5t-19 51t-60 39
q-29 13 -46 23t-38 26.5t-31 38.5t-10 49q0 54 42.5 92t109.5 38q48 0 88 -18q17 -41 22 -106z" />
    <glyph glyph-name="t" unicode="t" horiz-adv-x="305" 
d="M298 36l-68 -35q-25 -13 -42 -13q-98 0 -98 118v290h-69l-4 11l28 29h45v72l65 67l14 -2v-137h113q8 -8 6 -21t-12 -19h-107v-256q0 -95 59 -95q31 0 61 16z" />
    <glyph glyph-name="u" unicode="u" horiz-adv-x="531" 
d="M518 50v-26q-32 -4 -77 -16t-70 -20l-6 6v72q-49 -38 -74 -53q-43 -25 -77 -25q-55 0 -89.5 36.5t-34.5 112.5v196q0 38 -6.5 49t-26.5 15l-28 6v24q18 1 72 5q59 9 71 11q-3 -31 -3 -144v-135q0 -113 88 -113q59 0 108 48v234q0 38 -8 49t-34 15l-36 6v24q6 0 90 6
q37 4 67 10v-333q0 -37 8.5 -47t38.5 -12z" />
    <glyph glyph-name="v" unicode="v" horiz-adv-x="463" 
d="M478 436v-26q-39 -5 -53 -17.5t-35 -57.5q-67 -148 -142 -346h-28q-50 136 -138 349q-17 43 -30.5 54.5t-53.5 17.5v26h205v-26q-40 -5 -46.5 -15t6.5 -42q38 -107 95 -246q42 99 89 237q12 36 3.5 48.5t-50.5 17.5v26h178z" />
    <glyph glyph-name="w" unicode="w" horiz-adv-x="685" 
d="M696 436v-26q-37 -6 -50.5 -19t-28.5 -55q-35 -93 -120 -347h-29q-23 63 -67.5 174t-54.5 136q-10 -27 -53 -136.5t-66 -173.5h-28q-68 220 -116 356q-13 39 -25.5 49.5t-48.5 15.5v26h207v-26q-45 -7 -53.5 -17t2.5 -44q47 -149 74 -232h2q38 99 116 314h26
q43 -121 120 -317h2q51 160 69 230q10 38 0 48.5t-58 17.5v26h180z" />
    <glyph glyph-name="x" unicode="x" horiz-adv-x="472" 
d="M474 0h-214v26q32 4 39 12t-5 28l-74 116q-38 -57 -64 -105q-16 -25 -10 -35t44 -16v-26h-186v26q46 6 64 17t48 49q26 33 85 119l-87 136q-23 36 -40 47t-58 16v26h199v-26q-31 -4 -36.5 -12.5t9.5 -29.5l59 -92q35 50 58 93q13 23 7 30t-40 11v26h183v-26
q-46 -5 -64.5 -13.5t-45.5 -39.5q-17 -20 -78 -109l97 -149q28 -42 46.5 -54.5t63.5 -18.5v-26z" />
    <glyph glyph-name="y" unicode="y" horiz-adv-x="459" 
d="M478 436v-26q-39 -6 -53 -17.5t-35 -54.5q-12 -24 -26.5 -59.5t-44 -107.5t-55.5 -134q-86 -203 -103 -269q-6 -25 -32 -25q-21 0 -38.5 15t-17.5 33q0 20 25 36q41 26 75 89q21 40 31 69q7 20 -2 44q-67 191 -114 306q-17 43 -31.5 56.5t-54.5 18.5v26h202l1 -26
q-35 -5 -42 -16t4 -39l90 -250q55 135 92 248q10 28 0.5 39.5t-52.5 17.5v26h181z" />
    <glyph glyph-name="z" unicode="z" horiz-adv-x="420" 
d="M387 138l26 -13q-20 -55 -46 -125h-329l-7 15q108 158 249 387h-89q-52 0 -71.5 -13.5t-41.5 -57.5l-14 -27l-25 9q20 70 34 144h21q8 -21 55 -21h230l6 -14q-133 -208 -244 -389h99q54 0 79 16t55 65z" />
    <glyph glyph-name="braceleft" unicode="{" horiz-adv-x="347" 
d="M293 -141v-28q-145 0 -145 128q0 35 4 106t3 104q0 17 -2 28t-10 25.5t-27.5 23t-50.5 10.5l-1 29q31 2 51 10.5t28 23t10 25.5t2 28q0 31 -4 101t-3 104q0 132 145 132v-28q-51 -7 -67.5 -30t-16.5 -63q0 -32 6.5 -99.5t6.5 -100.5q0 -97 -83 -115v-4q83 -20 83 -117
q0 -34 -6.5 -99.5t-6.5 -96.5q0 -41 16.5 -65.5t67.5 -31.5z" />
    <glyph glyph-name="bar" unicode="|" horiz-adv-x="263" 
d="M163 -250h-64v1000h64v-1000z" />
    <glyph glyph-name="braceright" unicode="}" horiz-adv-x="347" 
d="M283 284v-29q-31 -2 -51 -10.5t-28 -23.5t-10 -27t-2 -30q0 -28 4 -97.5t4 -107.5q0 -128 -146 -128v28q50 7 67.5 31t17.5 63q0 33 -7 100t-7 98q0 96 84 117v4q-84 20 -84 115q0 34 7 102.5t7 98.5q0 40 -17.5 63t-67.5 30v28q28 0 50 -4t45.5 -16.5t37 -40t13.5 -68.5
q0 -37 -4 -106.5t-4 -98.5q0 -18 2 -30t10 -27t28 -23.5t51 -10.5z" />
    <glyph glyph-name="asciitilde" unicode="~" horiz-adv-x="580" 
d="M489 308l36 -21q-33 -110 -127 -110q-52 0 -126 45q-55 33 -91 33q-59 0 -91 -85l-35 25q44 110 130 110q51 0 117 -39t102 -39q30 0 49.5 19t35.5 62z" />
    <glyph glyph-name="uni00A0" unicode="&#xa0;" horiz-adv-x="227" 
 />
    <glyph glyph-name="exclamdown" unicode="&#xa1;" horiz-adv-x="276" 
d="M137 446h1q24 0 40 -16.5t16 -42.5q0 -25 -16.5 -41.5t-40.5 -16.5q-25 0 -41 16.5t-16 41.5q0 26 16 42.5t41 16.5zM139 -228h-1q-53 0 -53 30q0 22 7 78q10 86 29 358q4 5 18 5t18 -5q22 -306 28 -358q7 -70 7 -78q0 -30 -53 -30z" />
    <glyph glyph-name="cent" unicode="&#xa2;" horiz-adv-x="480" 
d="M417 219l17 -23q-30 -39 -71 -65.5t-78 -32.5v-98h-35v96q-87 2 -143 62t-56 140q0 112 93 184q49 37 106 49v84h35v-79q7 1 18 1q63 0 101 -27q14 -10 14 -25t-12 -28.5t-24 -14.5q-5 1 -15 9q-36 36 -82 43v-334q70 -3 132 59zM250 163v331q-46 -1 -83.5 -40.5
t-37.5 -114.5q0 -79 37 -122.5t84 -53.5z" />
    <glyph glyph-name="sterling" unicode="&#xa3;" horiz-adv-x="480" 
d="M376 295h-172q1 -8 1 -22q0 -93 -87 -174q46 0 105 -27q82 -38 120 -38q28 0 43 12.5t15 33.5q0 18 -7 32q-5 11 3 22q17 26 36 26q10 0 16.5 -13t6.5 -28q0 -32 -23 -63.5t-54 -52.5q-49 -31 -91 -31q-39 0 -135 54q-40 24 -58 24q-25 0 -41 -43q-4 -12 -12 -12
q-12 0 -17.5 13t5.5 35q9 15 47 58q42 46 42 135q0 17 -3 59h-89v38h84q-5 62 -5 82q0 108 83 175q22 18 52.5 31t51.5 14q31 0 59 -14t38 -28q11 -14 4 -30q-6 -14 -19 -23q-14 -9 -28 2q-48 42 -93 42q-72 0 -72 -96q0 -47 20 -155h174v-38z" />
    <glyph glyph-name="currency" unicode="&#xa4;" horiz-adv-x="480" 
d="M448 135l-41 -41l-64 76q-47 -39 -105 -39q-62 0 -107 38l-63 -75l-40 41l69 66q-43 52 -43 124q0 71 43 122l-69 68l40 40l64 -75q47 38 106 38h1q58 0 105 -38l63 75l41 -40l-69 -67q43 -51 43 -123q0 -71 -44 -123zM239 469h-1q-53 0 -88 -40t-35 -104t35.5 -104.5
t88.5 -40.5t88 40.5t35 104.5t-35 104t-88 40z" />
    <glyph glyph-name="yen" unicode="&#xa5;" horiz-adv-x="480" 
d="M466 623v-26q-38 -5 -53.5 -17.5t-38.5 -53.5q-34 -59 -99 -195h129v-36h-136v-30v-37h136v-37h-136v-84q0 -51 14 -63.5t76 -16.5v-27h-257v27q61 4 74.5 16.5t13.5 63.5v84h-130v37h130v31v36h-130v36h120q-35 86 -87 195q-20 43 -34.5 54.5t-50.5 16.5v26h204v-26
l-26 -5q-21 -5 -25.5 -10.5t1.5 -21.5q21 -53 88 -209q66 136 88 196q9 21 5 30.5t-27 13.5l-28 6v26h179z" />
    <glyph glyph-name="brokenbar" unicode="&#xa6;" horiz-adv-x="263" 
d="M163 325h-64v350h64v-350zM163 -175h-64v350h64v-350z" />
    <glyph glyph-name="section" unicode="&#xa7;" horiz-adv-x="477" 
d="M426 202v-1q-1 -104 -99 -213q-63 -69 -138 -92q-41 0 -69 22q-20 15 -20 30q0 14 21 32q11 8 21 3q45 -28 79 -28q28 0 48.5 15.5t21.5 44.5q0 41 -67 104l-49 49t-50 49q-71 68 -71 152q0 86 79 172q39 43 72.5 65.5t78.5 33.5q41 0 66 -23q12 -11 12 -23
q0 -22 -18 -32q-11 -8 -20 -2q-30 27 -75 27q-31 0 -47.5 -17t-16.5 -36q0 -35 37 -68q15 -13 110 -95q94 -81 94 -169zM104 413v-2q0 -78 89 -161q101 -92 122 -127q22 -36 19 -77l2 -2q38 58 38 114q0 78 -80 148q-98 90 -111 103q-46 44 -40 98l-3 1q-36 -49 -36 -95z
" />
    <glyph glyph-name="dieresis" unicode="&#xa8;" horiz-adv-x="400" 
d="M115 620h1q20 0 33.5 -14.5t13.5 -35.5q0 -20 -14 -34t-34 -14q-19 0 -33 14.5t-14 33.5q0 21 14 35.5t33 14.5zM284 620h1q20 0 33.5 -14.5t13.5 -35.5q0 -20 -14 -34t-34 -14q-19 0 -33 14.5t-14 33.5q0 21 14 35.5t33 14.5z" />
    <glyph glyph-name="copyright" unicode="&#xa9;" horiz-adv-x="702" 
d="M351 626h1q127 0 213 -88t86 -216q0 -127 -86 -214.5t-214 -87.5t-214 87.5t-86 214.5q0 128 86 216t214 88zM352 592h-1q-109 0 -181 -77t-72 -192t72 -192t182 -77q109 0 180.5 77t71.5 192t-71.5 192t-180.5 77zM481 263l22 -5q-20 -76 -26 -90q-54 -19 -104 -19
q-91 0 -140.5 51t-49.5 120q0 80 56.5 128t137.5 48q60 0 104 -17q7 -44 11 -91l-21 -4q-25 84 -101 84q-53 0 -83.5 -39.5t-30.5 -101.5q0 -66 33.5 -107.5t83.5 -41.5q72 0 108 85z" />
    <glyph glyph-name="ordfeminine" unicode="&#xaa;" horiz-adv-x="312" 
d="M300 299l-63 -33q-30 1 -45 39q-66 -39 -80 -39q-34 0 -56 23.5t-22 52.5q0 44 48 61q5 2 33.5 12t46.5 18t28 15v12q0 22 -13 37.5t-35 15.5q-34 0 -50 -54q-4 -15 -22 -15q-11 0 -21.5 8.5t-10.5 20.5t20 28q50 36 102 43q37 0 60 -17q28 -22 28 -68v-110q0 -35 21 -35
q10 0 23 7zM190 330v92q-6 -3 -30.5 -13.5t-32.5 -14.5q-30 -14 -30 -41q0 -20 13.5 -31.5t31.5 -11.5q26 0 48 20z" />
    <glyph glyph-name="guillemotleft" unicode="&#xab;" horiz-adv-x="444" 
d="M230 54l-23 -16q-104 132 -158 183q59 59 159 184l22 -15l-93 -169zM396 54l-23 -16q-99 126 -158 183q69 72 158 184l23 -15l-93 -169z" />
    <glyph glyph-name="logicalnot" unicode="&#xac;" horiz-adv-x="580" 
d="M529 97h-58v221h-419v50h477v-271z" />
    <glyph glyph-name="uni00AD" unicode="&#xad;" horiz-adv-x="356" 
d="M300 253l-14 -55h-229l14 55h229z" />
    <glyph glyph-name="registered" unicode="&#xae;" horiz-adv-x="321" 
d="M161 659h1q55 0 92 -38t37 -91q0 -52 -37.5 -90t-92.5 -38t-92 37t-37 91q0 52 38 90.5t91 38.5zM162 636h-1q-43 0 -71.5 -30.5t-28.5 -75.5t29 -75t72 -30t72 30t29 75q0 44 -29 75t-72 31zM235 474l-3 -12q-34 0 -49 21q-2 3 -18 31q-3 7 -13 7h-4v-24
q0 -13 2.5 -15.5t15.5 -3.5v-15h-67v15q14 1 16.5 3.5t2.5 15.5v68q0 13 -2.5 15.5t-15.5 3.5v15h68q48 0 48 -35q0 -24 -27 -34q11 -21 33 -46q4 -4 13 -10zM148 536h8q8 0 18 4q10 7 10 21q0 23 -24 23q-12 0 -12 -12v-36z" />
    <glyph glyph-name="macron" unicode="&#xaf;" horiz-adv-x="400" 
d="M310 532h-220v54h220v-54z" />
    <glyph glyph-name="degree" unicode="&#xb0;" horiz-adv-x="343" 
d="M172 664h1q56 0 97.5 -38.5t41.5 -98.5q0 -63 -41 -100t-99 -37t-99 37t-41 100q0 60 41.5 98.5t98.5 38.5zM173 621h-1q-35 0 -57.5 -26t-22.5 -68t22.5 -68t58.5 -26q35 0 57 26t22 67q0 43 -22 69t-57 26z" />
    <glyph glyph-name="plusminus" unicode="&#xb1;" horiz-adv-x="580" 
d="M529 311h-209v-204h-58v204h-210v50h210v191h58v-191h209v-50zM529 0h-477v50h477v-50z" />
    <glyph glyph-name="two.superior" unicode="&#xb2;" 
d="M284 498l22 -7q-13 -44 -23 -89h-243v22q3 2 20.5 16.5t24.5 20t24 20.5t25.5 24.5t23 24.5t22 26.5t16 26t12 28t3.5 26.5q0 36 -19 54.5t-48 18.5q-44 0 -85 -55l-17 18l32 43q36 45 97 45q45 0 77.5 -29t32.5 -78q0 -35 -23.5 -67t-82.5 -84l-52 -47v-2h91
q30 0 42.5 7.5t27.5 36.5z" />
    <glyph glyph-name="three.superior" unicode="&#xb3;" 
d="M206 614v-2q41 -8 64 -29.5t23 -54.5q0 -42 -34.5 -74.5t-71.5 -46t-62 -13.5q-40 0 -68 21q-16 13 -11 28q4 14 18 24q9 8 21 -1q40 -33 76 -33q28 0 46 18.5t18 55.5q0 33 -23 50.5t-54 17.5q-12 0 -42 -7l-6 24q99 31 99 78q0 20 -13.5 33t-38.5 13q-43 0 -75 -50
l-16 16l29 41q13 15 37 26t49 11h1q42 0 68.5 -22.5t26.5 -54.5q0 -25 -19 -41q-27 -20 -42 -28z" />
    <glyph glyph-name="acute" unicode="&#xb4;" horiz-adv-x="400" 
d="M316 657l-123 -172l-26 13q26 58 67 157q7 3 38.5 7.5t40.5 3.5z" />
    <glyph glyph-name="mu" unicode="&#xb5;" horiz-adv-x="512" 
d="M498 54l10 -26q-13 -16 -37 -28t-48 -12q-31 0 -52 21.5t-26 56.5h-2q-69 -78 -134 -78q-52 0 -81 42h-4v-16q-1 -56 12 -141.5t25 -117.5l-13 -12q-16 1 -39.5 14t-35.5 25q-2 7 -2 259v293q0 60 -3 96l81 18q2 -23 2 -105v-171q0 -65 27.5 -93.5t63.5 -28.5
q56 0 100 53v327l80 18v-334q0 -70 41 -70q17 0 35 10z" />
    <glyph glyph-name="paragraph" unicode="&#xb6;" horiz-adv-x="497" 
d="M466 533l-30 -27l-88 -10v-474q0 -115 -67 -185q-20 -21 -48.5 -35.5t-38.5 -14.5q-43 0 -66 23q-16 15 -10 30q4 13 20 27q9 7 19 0q33 -22 63 -22q77 0 77 157v150l-67 -29q-6 -3 -17 -3q-50 0 -106.5 58t-56.5 144q0 97 66 160q31 29 72 46t76 17h198z" />
    <glyph glyph-name="periodcentered" unicode="&#xb7;" horiz-adv-x="226" 
d="M113 174h-1q-24 0 -40 16.5t-16 42.5q0 24 16 40.5t41 16.5q24 0 40.5 -16.5t16.5 -40.5q0 -26 -16.5 -42.5t-40.5 -16.5z" />
    <glyph glyph-name="cedilla" unicode="&#xb8;" horiz-adv-x="400" 
d="M245 -1l-21 -27q-10 -13 -8.5 -21t14.5 -20q39 -40 39 -69q0 -31 -31 -58t-84 -43l-12 26q60 26 60 60q0 16 -23 39q-20 18 -22.5 30t11.5 32l38 51h39z" />
    <glyph glyph-name="one.superior" unicode="&#xb9;" 
d="M273 402h-197v23q42 3 54 13t12 46v178q0 29 -6 36t-31 9l-30 1v23q65 7 133 29v-276q0 -35 11.5 -44.5t53.5 -14.5v-23z" />
    <glyph glyph-name="ordmasculine" unicode="&#xba;" horiz-adv-x="342" 
d="M171 544h1q59 0 98.5 -40t39.5 -96q-1 -66 -43.5 -104t-96.5 -38q-64 0 -102.5 40.5t-38.5 93.5q0 68 45 106t97 38zM165 516h-1q-27 0 -45.5 -26t-18.5 -74q0 -54 22 -88t55 -34q64 0 64 100q0 54 -20 88t-56 34z" />
    <glyph glyph-name="guillemotright" unicode="&#xbb;" horiz-adv-x="445" 
d="M49 390l23 15q96 -122 158 -184q-59 -57 -158 -183l-23 15l94 168zM214 390l23 15q96 -122 158 -184q-59 -57 -158 -183l-23 15l93 168z" />
    <glyph glyph-name="onequarter" unicode="&#xbc;" horiz-adv-x="762" 
d="M603 631l-407 -658l-30 24l405 658zM276 278h-196v25q42 4 54 13.5t12 45.5v175q0 29 -6 36t-31 8l-30 2v24q69 9 132 30v-275q0 -35 11.5 -44.5t53.5 -14.5v-25zM689 98h-60v-25q0 -30 10 -38t46 -11v-24h-182v24q41 3 52 11t11 38v25h-164v23q105 140 187 237h40v-223
h60v-37zM566 135v147h-2q-57 -70 -108 -147h110z" />
    <glyph glyph-name="onehalf" unicode="&#xbd;" horiz-adv-x="762" 
d="M589 631l-407 -658l-30 24l405 658zM269 278h-196v25q42 5 54 14.5t12 44.5v175q0 29 -6 36t-31 8l-30 2v24q61 7 132 30v-275q0 -35 11.5 -44.5t53.5 -14.5v-25zM680 94l23 -7q-10 -33 -22 -87h-245v21q36 29 53.5 44.5t51.5 48.5t50.5 63.5t16.5 58.5q0 32 -17 51.5
t-50 19.5q-43 0 -82 -55l-21 18l35 45q33 44 95 44q45 0 77.5 -29t32.5 -79q0 -37 -22.5 -68.5t-80.5 -81.5l-53 -47v-2h89q29 0 42.5 8t26.5 34z" />
    <glyph glyph-name="threequarters" unicode="&#xbe;" horiz-adv-x="762" 
d="M606 631l-407 -658l-30 24l405 658zM233 489v-2q41 -8 64 -31t23 -53q0 -42 -34.5 -74.5t-71.5 -46t-62 -13.5q-39 0 -67 21q-16 13 -11 28q4 13 18 23q10 7 21 -1q41 -31 75 -31q30 0 47 19t17 54q0 34 -21.5 50t-52.5 16q-18 0 -44 -7l-6 25q99 31 99 78
q0 20 -13.5 32.5t-38.5 12.5q-43 0 -74 -46l-17 15l31 43q32 34 83 34h1q43 0 69.5 -22t26.5 -54q0 -26 -20 -42q-18 -15 -42 -28zM683 98h-60v-25q0 -30 10 -38.5t45 -11.5v-23h-181v23q40 3 51.5 11.5t11.5 38.5v25h-163v23q98 133 186 237h40v-223h60v-37zM560 135v147
h-3q-49 -61 -108 -147h111z" />
    <glyph glyph-name="questiondown" unicode="&#xbf;" horiz-adv-x="379" 
d="M190 447h1q23 0 38.5 -16t15.5 -41q0 -24 -16 -40.5t-39 -16.5t-38.5 16.5t-15.5 40.5q0 25 15.5 41t38.5 16zM158 220l18 23q36 -13 74 -51t38 -79q0 -49 -85 -112q-2 -1 -13 -9.5t-14.5 -11.5t-13.5 -11t-14.5 -12.5t-13 -12t-12 -13.5t-8 -13.5t-6.5 -14.5t-2 -14
q0 -53 59 -53q28 0 53.5 13t41 26.5t19.5 13.5q12 0 26.5 -13.5t14.5 -30.5t-21 -36q-21 -18 -48.5 -27.5t-43.5 -9.5h-1q-62 0 -111 48.5t-49 109.5q0 51 48 89q3 3 29.5 22.5t39.5 31t27.5 31.5t14.5 37q0 23 -11 40t-36 39z" />
    <glyph glyph-name="Agrave" unicode="&#xc0;" horiz-adv-x="691" 
d="M673 0h-245v28q47 6 58 16t1 39q-7 20 -55 154h-213q-32 -89 -44 -128q-16 -48 -5 -61.5t68 -19.5v-28h-218v28q50 7 68.5 23.5t43.5 80.5l207 524l31 9q18 -49 87 -242t106 -293q23 -63 41.5 -80t68.5 -22v-28zM418 280l-88 255h-2q-16 -42 -47 -127.5t-47 -127.5h184z
M407 709l-13 -25l-186 63l-2 8q3 11 18.5 32.5t24.5 24.5q126 -82 158 -103z" />
    <glyph glyph-name="Aacute" unicode="&#xc1;" horiz-adv-x="691" 
d="M673 0h-245v28q47 6 58 16t1 39q-7 20 -55 154h-213q-32 -89 -44 -128q-16 -48 -5 -61.5t68 -19.5v-28h-218v28q50 7 68.5 23.5t43.5 80.5l207 524l31 9q18 -49 87 -242t106 -293q23 -63 41.5 -80t68.5 -22v-28zM418 280l-88 255h-2q-16 -42 -47 -127.5t-47 -127.5h184z
M505 756l-2 -8l-185 -64l-13 25q17 11 157 102q9 -1 25 -22.5t18 -32.5z" />
    <glyph glyph-name="Acircumflex" unicode="&#xc2;" horiz-adv-x="691" 
d="M673 0h-245v28q47 6 58 16t1 39q-7 20 -55 154h-213q-32 -89 -44 -128q-16 -48 -5 -61.5t68 -19.5v-28h-218v28q50 7 68.5 23.5t43.5 80.5l207 524l31 9q18 -49 87 -242t106 -293q23 -63 41.5 -80t68.5 -22v-28zM418 280l-88 255h-2q-16 -42 -47 -127.5t-47 -127.5h184z
M494 709l-16 -25q-50 21 -121 62q-79 -45 -120 -62l-16 25q93 71 126 107h22q36 -38 125 -107z" />
    <glyph glyph-name="Atilde" unicode="&#xc3;" horiz-adv-x="691" 
d="M673 0h-245v28q47 6 58 16t1 39q-7 20 -55 154h-213q-32 -89 -44 -128q-16 -48 -5 -61.5t68 -19.5v-28h-218v28q50 7 68.5 23.5t43.5 80.5l207 524l31 9q18 -49 87 -242t106 -293q23 -63 41.5 -80t68.5 -22v-28zM418 280l-88 255h-2q-16 -42 -47 -127.5t-47 -127.5h184z
M304 788h1q22 0 61 -19q35 -16 55 -16q27 0 46 43l25 -14q-28 -85 -82 -85q-24 0 -70 22q-28 14 -44 14q-24 0 -48 -44l-24 17q33 82 80 82z" />
    <glyph glyph-name="Adieresis" unicode="&#xc4;" horiz-adv-x="691" 
d="M673 0h-245v28q47 6 58 16t1 39q-7 20 -55 154h-213q-32 -89 -44 -128q-16 -48 -5 -61.5t68 -19.5v-28h-218v28q50 7 68.5 23.5t43.5 80.5l207 524l31 9q18 -49 87 -242t106 -293q23 -63 41.5 -80t68.5 -22v-28zM418 280l-88 255h-2q-16 -42 -47 -127.5t-47 -127.5h184z
M449 794h1q20 0 33.5 -14.5t13.5 -35.5q0 -20 -14 -34t-34 -14q-19 0 -33 14.5t-14 33.5q0 21 14 35.5t33 14.5zM258 794h1q20 0 33.5 -14.5t13.5 -35.5q0 -20 -14 -34t-34 -14q-19 0 -33 14.5t-14 33.5q0 21 14 35.5t33 14.5z" />
    <glyph glyph-name="Aring" unicode="&#xc5;" horiz-adv-x="691" 
d="M673 0h-245v28q47 6 58 16t1 39q-7 20 -55 154h-213q-32 -89 -44 -128q-16 -48 -5 -61.5t68 -19.5v-28h-218v28q50 7 68.5 23.5t43.5 80.5l207 524l31 9q18 -49 87 -242t106 -293q23 -63 41.5 -80t68.5 -22v-28zM418 280l-88 255h-2q-16 -42 -47 -127.5t-47 -127.5h184z
M355 855h1q35 0 61.5 -23t26.5 -60q0 -38 -26.5 -62t-62.5 -24q-35 0 -61.5 24t-26.5 62q0 37 26.5 60t61.5 23zM355 824h-1q-19 0 -31 -14.5t-12 -37.5q0 -24 12.5 -39.5t31.5 -15.5q20 0 32 15.5t12 39.5q0 23 -12 37.5t-32 14.5z" />
    <glyph glyph-name="AE" unicode="&#xc6;" horiz-adv-x="869" 
d="M819 165l29 -7q-20 -102 -36 -158h-473v28q64 4 79 21t15 85v162h-177q-59 -110 -96 -194q-19 -39 -9 -53.5t67 -21.5v-27h-229v27q49 7 69.5 21.5t48.5 63.5q48 84 240 449q17 31 11.5 41.5t-42.5 15.5l-41 5v27h513q3 -70 10 -142l-30 -4q-15 62 -32 83q-12 16 -33 22
t-72 6h-83q-22 0 -27 -4.5t-5 -26.5v-249h89q67 0 83.5 12.5t26.5 64.5h30v-195h-30q-8 39 -16 53t-27.5 20t-66.5 6h-89v-166q0 -68 24 -83q20 -12 102 -12q55 0 83 7t45 27q25 30 49 96zM433 335v275q-12 0 -28 -19q-65 -122 -131 -256h159z" />
    <glyph glyph-name="Ccedilla" unicode="&#xc7;" horiz-adv-x="661" 
d="M613 178l28 -11q-26 -100 -54 -156q-100 -23 -165 -24l-11 -14q-9 -13 -7.5 -21t13.5 -21q38 -38 38 -68t-30.5 -58t-82.5 -44l-14 28q61 27 61 60q0 15 -23 38q-19 19 -21.5 31t10.5 31l27 37q-68 2 -125 22t-95 52.5t-65 74.5t-39 87t-12 92q0 155 106.5 253t272.5 98
q70 0 178 -27q14 -98 20 -154l-30 -5q-23 81 -67.5 115t-128.5 34q-112 0 -180 -82.5t-68 -208.5q0 -138 70 -226t186 -88q75 0 120.5 36.5t87.5 118.5z" />
    <glyph glyph-name="Egrave" unicode="&#xc8;" horiz-adv-x="568" 
d="M517 162l29 -4q-18 -100 -35 -158h-482v28q68 5 83.5 20t15.5 77v398q0 66 -13 80.5t-73 19.5v27h446q0 -5 8 -144l-29 -4q-11 51 -32 85q-11 17 -35 23t-78 6h-76q-23 0 -28 -5t-5 -27v-228h94q67 0 83 12t25 63h29v-191h-29q-10 54 -26 65.5t-81 11.5h-95v-189
q0 -65 24 -81q19 -13 104 -13q57 0 83 7t43 27q29 34 50 94zM349 709l-13 -25l-186 63l-2 8q3 11 18.5 32.5t24.5 24.5q126 -82 158 -103z" />
    <glyph glyph-name="Eacute" unicode="&#xc9;" horiz-adv-x="568" 
d="M517 162l29 -4q-18 -100 -35 -158h-482v28q68 5 83.5 20t15.5 77v398q0 66 -13 80.5t-73 19.5v27h446q0 -5 8 -144l-29 -4q-11 51 -32 85q-11 17 -35 23t-78 6h-76q-23 0 -28 -5t-5 -27v-228h94q67 0 83 12t25 63h29v-191h-29q-10 54 -26 65.5t-81 11.5h-95v-189
q0 -65 24 -81q19 -13 104 -13q57 0 83 7t43 27q29 34 50 94zM431 756l-2 -8l-185 -64l-13 25q17 11 157 102q9 -1 25 -22.5t18 -32.5z" />
    <glyph glyph-name="Ecircumflex" unicode="&#xca;" horiz-adv-x="568" 
d="M517 162l29 -4q-18 -100 -35 -158h-482v28q68 5 83.5 20t15.5 77v398q0 66 -13 80.5t-73 19.5v27h446q0 -5 8 -144l-29 -4q-11 51 -32 85q-11 17 -35 23t-78 6h-76q-23 0 -28 -5t-5 -27v-228h94q67 0 83 12t25 63h29v-191h-29q-10 54 -26 65.5t-81 11.5h-95v-189
q0 -65 24 -81q19 -13 104 -13q57 0 83 7t43 27q29 34 50 94zM424 709l-16 -25q-50 21 -121 62q-79 -45 -120 -62l-16 25q93 71 126 107h22q36 -38 125 -107z" />
    <glyph glyph-name="Edieresis" unicode="&#xcb;" horiz-adv-x="568" 
d="M517 162l29 -4q-18 -100 -35 -158h-482v28q68 5 83.5 20t15.5 77v398q0 66 -13 80.5t-73 19.5v27h446q0 -5 8 -144l-29 -4q-11 51 -32 85q-11 17 -35 23t-78 6h-76q-23 0 -28 -5t-5 -27v-228h94q67 0 83 12t25 63h29v-191h-29q-10 54 -26 65.5t-81 11.5h-95v-189
q0 -65 24 -81q19 -13 104 -13q57 0 83 7t43 27q29 34 50 94zM385 798h1q20 0 33.5 -14.5t13.5 -35.5q0 -20 -14 -34t-34 -14q-19 0 -33 14.5t-14 33.5q0 21 14 35.5t33 14.5zM194 798h1q20 0 33.5 -14.5t13.5 -35.5q0 -20 -14 -34t-34 -14q-19 0 -33 14.5t-14 33.5
q0 21 14 35.5t33 14.5z" />
    <glyph glyph-name="Igrave" unicode="&#xcc;" 
d="M303 0h-265v28q62 5 76 19.5t14 77.5v400q0 63 -14 77.5t-76 19.5v28h265v-28q-62 -5 -76 -19.5t-14 -77.5v-400q0 -64 14 -78t76 -19v-28zM235 709l-13 -25l-186 63l-2 8q3 11 18.5 32.5t24.5 24.5q126 -82 158 -103z" />
    <glyph glyph-name="Iacute" unicode="&#xcd;" 
d="M303 0h-265v28q62 5 76 19.5t14 77.5v400q0 63 -14 77.5t-76 19.5v28h265v-28q-62 -5 -76 -19.5t-14 -77.5v-400q0 -64 14 -78t76 -19v-28zM312 756l-2 -8l-185 -64l-13 25q17 11 157 102q9 -1 25 -22.5t18 -32.5z" />
    <glyph glyph-name="Icircumflex" unicode="&#xce;" 
d="M303 0h-265v28q62 5 76 19.5t14 77.5v400q0 63 -14 77.5t-76 19.5v28h265v-28q-62 -5 -76 -19.5t-14 -77.5v-400q0 -64 14 -78t76 -19v-28zM307 709l-16 -25q-50 21 -121 62q-79 -45 -120 -62l-16 25q93 71 126 107h22q36 -38 125 -107z" />
    <glyph glyph-name="Idieresis" unicode="&#xcf;" 
d="M303 0h-265v28q62 5 76 19.5t14 77.5v400q0 63 -14 77.5t-76 19.5v28h265v-28q-62 -5 -76 -19.5t-14 -77.5v-400q0 -64 14 -78t76 -19v-28zM266 795h1q20 0 33.5 -14.5t13.5 -35.5q0 -20 -14 -34t-34 -14q-19 0 -33 14.5t-14 33.5q0 21 14 35.5t33 14.5zM75 795h1
q20 0 33.5 -14.5t13.5 -35.5q0 -20 -14 -34t-34 -14q-19 0 -33 14.5t-14 33.5q0 21 14 35.5t33 14.5z" />
    <glyph glyph-name="Eth" unicode="&#xd0;" horiz-adv-x="737" 
d="M53 650h276q188 0 277 -85q86 -83 86 -215q0 -174 -125 -267q-110 -83 -293 -83h-229v28q65 4 79.5 21t14.5 88v183h-102v41h102v152q0 51 -6 71.5t-22 28t-58 10.5v27zM224 320v-188q0 -54 18.5 -74.5t78.5 -20.5q133 0 202 84.5t69 213.5q0 171 -115 243
q-62 39 -162 39q-59 0 -79 -10q-12 -7 -12 -43v-203h157v-41h-157z" />
    <glyph glyph-name="Ntilde" unicode="&#xd1;" horiz-adv-x="743" 
d="M719 650v-28q-43 -2 -62 -15t-22 -44q-6 -47 -6 -169v-403h-31l-426 524h-2v-251q0 -111 6 -169q4 -37 24 -50.5t72 -16.5v-28h-237v28q45 3 64.5 16.5t23.5 48.5q6 62 6 171v220q0 53 -3 67.5t-17 33.5q-16 19 -34.5 26.5t-54.5 10.5v28h147l418 -501h3v245
q0 117 -7 166q-4 33 -24.5 46t-73.5 16v28h236zM324 788h1q22 0 61 -19q35 -16 55 -16q27 0 46 43l25 -14q-28 -85 -82 -85q-24 0 -70 22q-28 14 -44 14q-24 0 -48 -44l-24 17q33 82 80 82z" />
    <glyph glyph-name="Ograve" unicode="&#xd2;" horiz-adv-x="747" 
d="M380 665h1q131 0 226.5 -93t95.5 -239q0 -158 -96 -253t-238 -95q-137 0 -231 95t-94 238q0 142 92.5 244.5t243.5 102.5zM360 629h-1q-89 0 -151 -74.5t-62 -208.5q0 -141 69 -233t175 -92q90 0 150.5 74t60.5 211q0 152 -69 237.5t-172 85.5zM446 718l-13 -25l-186 63
l-2 8q3 11 18.5 32.5t24.5 24.5q126 -82 158 -103z" />
    <glyph glyph-name="Oacute" unicode="&#xd3;" horiz-adv-x="747" 
d="M380 665h1q131 0 226.5 -93t95.5 -239q0 -158 -96 -253t-238 -95q-137 0 -231 95t-94 238q0 142 92.5 244.5t243.5 102.5zM360 629h-1q-89 0 -151 -74.5t-62 -208.5q0 -141 69 -233t175 -92q90 0 150.5 74t60.5 211q0 152 -69 237.5t-172 85.5zM504 763l-2 -8l-185 -64
l-13 25q17 11 157 102q9 -1 25 -22.5t18 -32.5z" />
    <glyph glyph-name="Ocircumflex" unicode="&#xd4;" horiz-adv-x="747" 
d="M380 665h1q131 0 226.5 -93t95.5 -239q0 -158 -96 -253t-238 -95q-137 0 -231 95t-94 238q0 142 92.5 244.5t243.5 102.5zM360 629h-1q-89 0 -151 -74.5t-62 -208.5q0 -141 69 -233t175 -92q90 0 150.5 74t60.5 211q0 152 -69 237.5t-172 85.5zM510 716l-16 -25
q-51 21 -121 62q-79 -45 -120 -62l-16 25q93 71 126 107h22q36 -38 125 -107z" />
    <glyph glyph-name="Otilde" unicode="&#xd5;" horiz-adv-x="747" 
d="M380 665h1q131 0 226.5 -93t95.5 -239q0 -158 -96 -253t-238 -95q-137 0 -231 95t-94 238q0 142 92.5 244.5t243.5 102.5zM360 629h-1q-89 0 -151 -74.5t-62 -208.5q0 -141 69 -233t175 -92q90 0 150.5 74t60.5 211q0 152 -69 237.5t-172 85.5zM322 797h1q22 0 61 -19
q35 -16 55 -16q27 0 46 43l25 -14q-28 -85 -82 -85q-24 0 -70 22q-28 14 -44 14q-24 0 -48 -44l-24 17q33 82 80 82z" />
    <glyph glyph-name="Odieresis" unicode="&#xd6;" horiz-adv-x="747" 
d="M380 665h1q131 0 226.5 -93t95.5 -239q0 -158 -96 -253t-238 -95q-137 0 -231 95t-94 238q0 142 92.5 244.5t243.5 102.5zM360 629h-1q-89 0 -151 -74.5t-62 -208.5q0 -141 69 -233t175 -92q90 0 150.5 74t60.5 211q0 152 -69 237.5t-172 85.5zM469 799h1
q20 0 33.5 -14.5t13.5 -35.5q0 -20 -14 -34t-34 -14q-19 0 -33 14.5t-14 33.5q0 21 14 35.5t33 14.5zM278 799h1q20 0 33.5 -14.5t13.5 -35.5q0 -20 -14 -34t-34 -14q-19 0 -33 14.5t-14 33.5q0 21 14 35.5t33 14.5z" />
    <glyph glyph-name="multiply" unicode="&#xd7;" horiz-adv-x="580" 
d="M522 46l-37 -38l-195 199l-195 -199l-35 38l193 199l-193 198l35 38l195 -199l195 200l37 -37l-195 -200z" />
    <glyph glyph-name="Oslash" unicode="&#xd8;" horiz-adv-x="749" 
d="M633 674l-49 -74q57 -47 91.5 -115.5t34.5 -149.5q0 -158 -96.5 -254t-239.5 -96q-95 0 -173 50l-56 -80l-27 23l53 78q-55 46 -88 114.5t-33 148.5q0 141 94.5 243.5t245.5 102.5q93 0 163 -46l50 75zM217 123l300 443q-59 63 -150 63t-154 -75t-63 -210q0 -132 67 -221
zM541 537l-301 -445q56 -71 151 -71q108 0 163.5 80t55.5 204q0 137 -69 232z" />
    <glyph glyph-name="Ugrave" unicode="&#xd9;" horiz-adv-x="736" 
d="M716 650v-28q-46 -3 -65 -15.5t-22 -43.5q-6 -54 -6 -163v-81q0 -185 -75 -264q-68 -69 -180 -69q-97 0 -160 47q-88 67 -88 239v249q0 66 -13.5 81t-73.5 20v28h258v-28q-59 -4 -72.5 -19t-13.5 -82v-227q0 -123 48 -188.5t140 -65.5q189 0 189 286v75q0 111 -7 165
q-4 29 -24 40.5t-73 15.5v28h238zM439 709l-13 -25l-186 63l-2 8q3 11 18.5 32.5t24.5 24.5q126 -82 158 -103z" />
    <glyph glyph-name="Uacute" unicode="&#xda;" horiz-adv-x="736" 
d="M716 650v-28q-46 -3 -65 -15.5t-22 -43.5q-6 -54 -6 -163v-81q0 -185 -75 -264q-68 -69 -180 -69q-97 0 -160 47q-88 67 -88 239v249q0 66 -13.5 81t-73.5 20v28h258v-28q-59 -4 -72.5 -19t-13.5 -82v-227q0 -123 48 -188.5t140 -65.5q189 0 189 286v75q0 111 -7 165
q-4 29 -24 40.5t-73 15.5v28h238zM519 756l-2 -8l-185 -64l-13 25q17 11 157 102q9 -1 25 -22.5t18 -32.5z" />
    <glyph glyph-name="Ucircumflex" unicode="&#xdb;" horiz-adv-x="736" 
d="M716 650v-28q-46 -3 -65 -15.5t-22 -43.5q-6 -54 -6 -163v-81q0 -185 -75 -264q-68 -69 -180 -69q-97 0 -160 47q-88 67 -88 239v249q0 66 -13.5 81t-73.5 20v28h258v-28q-59 -4 -72.5 -19t-13.5 -82v-227q0 -123 48 -188.5t140 -65.5q189 0 189 286v75q0 111 -7 165
q-4 29 -24 40.5t-73 15.5v28h238zM517 709l-16 -25q-50 21 -121 62q-79 -45 -120 -62l-16 25q93 71 126 107h22q36 -38 125 -107z" />
    <glyph glyph-name="Udieresis" unicode="&#xdc;" horiz-adv-x="736" 
d="M716 650v-28q-46 -3 -65 -15.5t-22 -43.5q-6 -54 -6 -163v-81q0 -185 -75 -264q-68 -69 -180 -69q-97 0 -160 47q-88 67 -88 239v249q0 66 -13.5 81t-73.5 20v28h258v-28q-59 -4 -72.5 -19t-13.5 -82v-227q0 -123 48 -188.5t140 -65.5q189 0 189 286v75q0 111 -7 165
q-4 29 -24 40.5t-73 15.5v28h238zM472 795h1q20 0 33.5 -14.5t13.5 -35.5q0 -20 -14 -34t-34 -14q-19 0 -33 14.5t-14 33.5q0 21 14 35.5t33 14.5zM281 795h1q20 0 33.5 -14.5t13.5 -35.5q0 -20 -14 -34t-34 -14q-19 0 -33 14.5t-14 33.5q0 21 14 35.5t33 14.5z" />
    <glyph glyph-name="Yacute" unicode="&#xdd;" horiz-adv-x="634" 
d="M620 650v-28q-51 -6 -70.5 -19t-48.5 -60q-68 -110 -126 -219q-17 -32 -17 -63v-136q0 -63 15.5 -77.5t84.5 -19.5v-28h-283v28q68 5 83 19.5t15 77.5v133q0 22 -21 60q-111 193 -126 219q-31 53 -49 67t-62 18v28h239v-28q-51 -6 -59.5 -18t8.5 -36q33 -62 136 -237
q93 170 118 225q18 37 9 48.5t-67 17.5v28h221zM471 756l-2 -8l-185 -64l-13 25q17 11 157 102q9 -1 25 -22.5t18 -32.5z" />
    <glyph glyph-name="Thorn" unicode="&#xde;" horiz-adv-x="549" 
d="M288 650v-28q-26 -2 -37 -4.5t-22 -7.5t-14 -19t-5 -32.5t-2 -53.5q60 2 88 2q214 0 214 -170q0 -88 -67.5 -136t-163.5 -49l-71 17v-42q0 -64 15 -79t79 -20v-28h-264v28q59 5 72.5 20.5t13.5 83.5v386q0 69 -12.5 84t-69.5 20v28h246zM208 433v-229q29 -12 68 -12
q60 0 99 37t39 105q0 69 -37 104.5t-104 35.5q-40 0 -54 -9q-11 -6 -11 -32z" />
    <glyph glyph-name="germandbls" unicode="&#xdf;" horiz-adv-x="545" 
d="M103 436v12q0 47 12 86q22 73 82 124q58 48 128 54q70 -2 112.5 -41t44.5 -110q0 -25 -11 -41q-103 -81 -103 -137q0 -17 12.5 -36t21 -27t36.5 -33q80 -69 80 -131q0 -69 -62.5 -119t-121.5 -50q-34 0 -55 13q-23 15 -20 34q4 14 19 26q10 8 20 1q38 -29 74 -29
q27 0 49.5 20t22.5 62q0 31 -17 55.5t-52 54.5q-82 69 -82 122q0 26 16 51t54 66q40 40 43 45q7 13 7 34q0 51 -34 89.5t-85 38.5q-36 0 -59 -21t-34 -62.5t-15 -84t-4 -103.5v-295q0 -47 8.5 -60t44.5 -17v-27h-204v27q48 4 60 17t12 58v291h-70l-5 10l28 33h47z" />
    <glyph glyph-name="agrave" unicode="&#xe0;" horiz-adv-x="439" 
d="M433 39l-85 -51q-26 0 -47 19q-16 16 -24 45q-5 -3 -24 -16.5t-27 -18.5t-23 -13.5t-25 -12t-19 -3.5q-52 0 -86 36.5t-34 85.5q0 70 81 98q127 42 155 65v17q0 54 -22.5 83.5t-61.5 29.5q-28 0 -44 -19q-15 -15 -30 -65q-7 -23 -29 -23q-14 0 -28.5 13t-14.5 29
q0 17 31 40q74 53 149 70q49 0 82 -27q45 -39 45 -123v-185q0 -60 35 -60q16 0 36 12zM275 84v155q-12 -6 -49 -23t-41 -19q-32 -15 -46.5 -31t-14.5 -42q0 -36 22 -56t49 -20q19 0 42 10.5t38 25.5zM252 501l-27 -14q-81 113 -117 161l3 8q7 4 35 9t39 4q57 -142 67 -168z
" />
    <glyph glyph-name="aacute" unicode="&#xe1;" horiz-adv-x="439" 
d="M433 39l-85 -51q-26 0 -47 19q-16 16 -24 45q-5 -3 -24 -16.5t-27 -18.5t-23 -13.5t-25 -12t-19 -3.5q-52 0 -86 36.5t-34 85.5q0 70 81 98q127 42 155 65v17q0 54 -22.5 83.5t-61.5 29.5q-28 0 -44 -19q-15 -15 -30 -65q-7 -23 -29 -23q-14 0 -28.5 13t-14.5 29
q0 17 31 40q74 53 149 70q49 0 82 -27q45 -39 45 -123v-185q0 -60 35 -60q16 0 36 12zM275 84v155q-12 -6 -49 -23t-41 -19q-32 -15 -46.5 -31t-14.5 -42q0 -36 22 -56t49 -20q19 0 42 10.5t38 25.5zM328 657l-123 -172l-26 13q26 58 67 157q7 3 38.5 7.5t40.5 3.5z" />
    <glyph glyph-name="acircumflex" unicode="&#xe2;" horiz-adv-x="439" 
d="M433 39l-85 -51q-26 0 -47 19q-16 16 -24 45q-5 -3 -24 -16.5t-27 -18.5t-23 -13.5t-25 -12t-19 -3.5q-52 0 -86 36.5t-34 85.5q0 70 81 98q127 42 155 65v17q0 54 -22.5 83.5t-61.5 29.5q-28 0 -44 -19q-15 -15 -30 -65q-7 -23 -29 -23q-14 0 -28.5 13t-14.5 29
q0 17 31 40q74 53 149 70q49 0 82 -27q45 -39 45 -123v-185q0 -60 35 -60q16 0 36 12zM275 84v155q-12 -6 -49 -23t-41 -19q-32 -15 -46.5 -31t-14.5 -42q0 -36 22 -56t49 -20q19 0 42 10.5t38 25.5zM321 501l-25 -17q-40 38 -87 97q-51 -63 -89 -97l-24 17q49 68 101 163
h25q47 -89 99 -163z" />
    <glyph glyph-name="atilde" unicode="&#xe3;" horiz-adv-x="439" 
d="M433 39l-85 -51q-26 0 -47 19q-16 16 -24 45q-5 -3 -24 -16.5t-27 -18.5t-23 -13.5t-25 -12t-19 -3.5q-52 0 -86 36.5t-34 85.5q0 70 81 98q127 42 155 65v17q0 54 -22.5 83.5t-61.5 29.5q-28 0 -44 -19q-15 -15 -30 -65q-7 -23 -29 -23q-14 0 -28.5 13t-14.5 29
q0 17 31 40q74 53 149 70q49 0 82 -27q45 -39 45 -123v-185q0 -60 35 -60q16 0 36 12zM275 84v155q-12 -6 -49 -23t-41 -19q-32 -15 -46.5 -31t-14.5 -42q0 -36 22 -56t49 -20q19 0 42 10.5t38 25.5zM162 612h1q19 0 58 -20q36 -19 53 -19q23 0 43 45l25 -14
q-28 -90 -79 -90q-23 0 -66 24q-26 15 -45 15q-25 0 -44 -48l-26 17q29 90 80 90z" />
    <glyph glyph-name="adieresis" unicode="&#xe4;" horiz-adv-x="439" 
d="M433 39l-85 -51q-26 0 -47 19q-16 16 -24 45q-5 -3 -24 -16.5t-27 -18.5t-23 -13.5t-25 -12t-19 -3.5q-52 0 -86 36.5t-34 85.5q0 70 81 98q127 42 155 65v17q0 54 -22.5 83.5t-61.5 29.5q-28 0 -44 -19q-15 -15 -30 -65q-7 -23 -29 -23q-14 0 -28.5 13t-14.5 29
q0 17 31 40q74 53 149 70q49 0 82 -27q45 -39 45 -123v-185q0 -60 35 -60q16 0 36 12zM275 84v155q-12 -6 -49 -23t-41 -19q-32 -15 -46.5 -31t-14.5 -42q0 -36 22 -56t49 -20q19 0 42 10.5t38 25.5zM125 620h1q20 0 33.5 -14.5t13.5 -35.5q0 -20 -14 -34t-34 -14
q-19 0 -33 14.5t-14 33.5q0 21 14 35.5t33 14.5zM294 620h1q20 0 33.5 -14.5t13.5 -35.5q0 -20 -14 -34t-34 -14q-19 0 -33 14.5t-14 33.5q0 21 14 35.5t33 14.5z" />
    <glyph glyph-name="aring" unicode="&#xe5;" horiz-adv-x="439" 
d="M433 39l-85 -51q-26 0 -47 19q-16 16 -24 45q-5 -3 -24 -16.5t-27 -18.5t-23 -13.5t-25 -12t-19 -3.5q-52 0 -86 36.5t-34 85.5q0 70 81 98q127 42 155 65v17q0 54 -22.5 83.5t-61.5 29.5q-28 0 -44 -19q-15 -15 -30 -65q-7 -23 -29 -23q-14 0 -28.5 13t-14.5 29
q0 17 31 40q74 53 149 70q49 0 82 -27q45 -39 45 -123v-185q0 -60 35 -60q16 0 36 12zM275 84v155q-12 -6 -49 -23t-41 -19q-32 -15 -46.5 -31t-14.5 -42q0 -36 22 -56t49 -20q19 0 42 10.5t38 25.5zM211 657h1q34 0 60.5 -23t26.5 -61t-26.5 -61.5t-61.5 -23.5
q-36 0 -62.5 23.5t-26.5 61.5t26.5 61t62.5 23zM212 626h-1q-19 0 -31.5 -15t-12.5 -38q0 -24 12.5 -39.5t32.5 -15.5t32 15.5t12 39.5t-12 38.5t-32 14.5z" />
    <glyph glyph-name="ae" unicode="&#xe6;" horiz-adv-x="671" 
d="M284 274v24q0 46 -25.5 75.5t-62.5 29.5q-30 0 -47 -22q-15 -19 -27 -63q-8 -24 -28 -24q-13 0 -29.5 13t-16.5 28q0 21 31 43q80 54 151 70q46 0 74 -22q26 -19 40 -54q68 76 148 76q63 0 108 -46t46 -104q0 -18 -4.5 -25t-18.5 -10q-51 -10 -266 -17q-1 -93 45 -142
t111 -49q58 0 111 50l17 -21q-38 -52 -84.5 -74t-78.5 -22q-108 0 -161 88l-35 -27q-82 -61 -121 -61q-53 0 -87 36.5t-34 83.5q0 38 19 61.5t60 37.5q138 48 165 67zM469 410h-1q-37 0 -67.5 -32.5t-37.5 -91.5q19 0 54.5 0.5t65.5 1t56 1.5q11 0 16 4.5t5 17.5
q0 40 -24.5 69.5t-66.5 29.5zM198 51h1q61 0 104 56q-20 41 -20 133q-15 -8 -98 -42q-32 -14 -46 -29.5t-14 -41.5q0 -35 22 -55.5t51 -20.5z" />
    <glyph glyph-name="ccedilla" unicode="&#xe7;" horiz-adv-x="421" 
d="M391 112l18 -22q-67 -81 -138 -97l-13 -19q-9 -13 -7 -20.5t14 -19.5q37 -37 37 -68q0 -30 -30 -57t-82 -44l-11 26q59 25 59 61q0 15 -23 38q-19 18 -21.5 29.5t10.5 30.5l29 38q-86 3 -141 62t-55 145q0 118 100 195q76 58 153 58q56 0 90 -27q17 -14 15 -30
q-1 -15 -13 -29t-23 -14q-8 0 -18 10q-45 41 -103 41q-47 0 -83.5 -40t-36.5 -118q0 -51 15.5 -89t40 -58t48.5 -29t47 -9q34 0 61 12t61 44z" />
    <glyph glyph-name="egrave" unicode="&#xe8;" horiz-adv-x="425" 
d="M380 106l15 -22q-42 -52 -87 -74t-76 -22q-89 0 -142 62t-53 151q0 103 66 174q67 73 146 73h1q61 0 105.5 -46t44.5 -105q0 -16 -4.5 -22.5t-18.5 -9.5q-54 -10 -262 -17q1 -95 46 -143.5t104 -48.5q61 0 115 50zM226 411h-1q-35 0 -64.5 -32t-40.5 -90q83 0 170 3
q24 0 24 19q1 41 -23.5 70.5t-64.5 29.5zM266 499l-27 -14q-81 113 -117 161l3 8q7 4 35 9t39 4q57 -143 67 -168z" />
    <glyph glyph-name="eacute" unicode="&#xe9;" horiz-adv-x="425" 
d="M380 106l15 -22q-42 -52 -87 -74t-76 -22q-89 0 -142 62t-53 151q0 103 66 174q67 73 146 73h1q61 0 105.5 -46t44.5 -105q0 -16 -4.5 -22.5t-18.5 -9.5q-54 -10 -262 -17q1 -95 46 -143.5t104 -48.5q61 0 115 50zM226 411h-1q-35 0 -64.5 -32t-40.5 -90q83 0 170 3
q24 0 24 19q1 41 -23.5 70.5t-64.5 29.5zM342 660l-123 -172l-26 13q26 58 67 157q7 3 38.5 7.5t40.5 3.5z" />
    <glyph glyph-name="ecircumflex" unicode="&#xea;" horiz-adv-x="425" 
d="M380 106l15 -22q-42 -52 -87 -74t-76 -22q-89 0 -142 62t-53 151q0 103 66 174q67 73 146 73h1q61 0 105.5 -46t44.5 -105q0 -16 -4.5 -22.5t-18.5 -9.5q-54 -10 -262 -17q1 -95 46 -143.5t104 -48.5q61 0 115 50zM226 411h-1q-35 0 -64.5 -32t-40.5 -90q83 0 170 3
q24 0 24 19q1 41 -23.5 70.5t-64.5 29.5zM341 501l-25 -17q-40 38 -87 97q-51 -63 -89 -97l-24 17q49 68 101 163h25q47 -89 99 -163z" />
    <glyph glyph-name="edieresis" unicode="&#xeb;" horiz-adv-x="425" 
d="M380 106l15 -22q-42 -52 -87 -74t-76 -22q-89 0 -142 62t-53 151q0 103 66 174q67 73 146 73h1q61 0 105.5 -46t44.5 -105q0 -16 -4.5 -22.5t-18.5 -9.5q-54 -10 -262 -17q1 -95 46 -143.5t104 -48.5q61 0 115 50zM226 411h-1q-35 0 -64.5 -32t-40.5 -90q83 0 170 3
q24 0 24 19q1 41 -23.5 70.5t-64.5 29.5zM140 620h1q20 0 33.5 -14.5t13.5 -35.5q0 -20 -14 -34t-34 -14q-19 0 -33 14.5t-14 33.5q0 21 14 35.5t33 14.5zM309 620h1q20 0 33.5 -14.5t13.5 -35.5q0 -20 -14 -34t-34 -14q-19 0 -33 14.5t-14 33.5q0 21 14 35.5t33 14.5z" />
    <glyph glyph-name="igrave" unicode="&#xec;" horiz-adv-x="268" 
d="M253 0h-220v26q48 5 59 18t11 64v200q0 49 -9.5 60.5t-53.5 18.5v24q78 12 142 39v-342q0 -52 11.5 -64.5t59.5 -17.5v-26zM168 501l-27 -14q-81 113 -117 161l3 8q7 4 35 9t39 4q57 -142 67 -168z" />
    <glyph glyph-name="iacute" unicode="&#xed;" horiz-adv-x="268" 
d="M253 0h-220v26q48 5 59 18t11 64v200q0 49 -9.5 60.5t-53.5 18.5v24q78 12 142 39v-342q0 -52 11.5 -64.5t59.5 -17.5v-26zM246 657l-123 -172l-26 13q26 58 67 157q7 3 38.5 7.5t40.5 3.5z" />
    <glyph glyph-name="icircumflex" unicode="&#xee;" horiz-adv-x="268" 
d="M253 0h-220v26q48 5 59 18t11 64v200q0 49 -9.5 60.5t-53.5 18.5v24q78 12 142 39v-342q0 -52 11.5 -64.5t59.5 -17.5v-26zM244 501l-25 -17q-40 38 -87 97q-51 -63 -89 -97l-24 17q49 68 101 163h25q47 -89 99 -163z" />
    <glyph glyph-name="idieresis" unicode="&#xef;" horiz-adv-x="268" 
d="M253 0h-220v26q48 5 59 18t11 64v200q0 49 -9.5 60.5t-53.5 18.5v24q78 12 142 39v-342q0 -52 11.5 -64.5t59.5 -17.5v-26zM46 620h1q20 0 33.5 -14.5t13.5 -35.5q0 -20 -14 -34t-34 -14q-19 0 -33 14.5t-14 33.5q0 21 14 35.5t33 14.5zM215 620h1q20 0 33.5 -14.5
t13.5 -35.5q0 -20 -14 -34t-34 -14q-19 0 -33 14.5t-14 33.5q0 21 14 35.5t33 14.5z" />
    <glyph glyph-name="eth" unicode="&#xf0;" horiz-adv-x="505" 
d="M450 661l-113 -61q130 -139 130 -333q0 -136 -64 -207.5t-155 -71.5q-93 0 -151.5 67.5t-58.5 152.5q0 112 70 176t150 64h1q51 0 96 -24q-18 82 -72 145l-145 -78l-16 31l135 73q-79 73 -173 87q-4 6 -2 16t8 14q120 -7 218 -87l126 67zM254 415h-1q-54 0 -88 -49
t-34 -130q0 -95 36.5 -154.5t97.5 -59.5q49 0 81 49t33 163q1 66 -6 95t-24 47q-39 39 -95 39z" />
    <glyph glyph-name="ntilde" unicode="&#xf1;" horiz-adv-x="547" 
d="M524 0h-209v26q44 5 55 18t11 65v166q0 114 -91 114q-50 0 -109 -51v-234q0 -50 10 -61.5t55 -16.5v-26h-217v26q51 5 62 17t11 61v206q0 47 -9 58t-51 19v23q83 16 139 41v-80q21 15 67 47q47 30 83 30q60 0 94.5 -39.5t34.5 -111.5v-193q0 -50 10 -61.5t54 -16.5v-26z
M222 612h1q19 0 58 -20q36 -19 53 -19q23 0 43 45l25 -14q-28 -90 -79 -90q-23 0 -66 24q-25 15 -45 15q-25 0 -44 -48l-26 17q29 90 80 90z" />
    <glyph glyph-name="ograve" unicode="&#xf2;" horiz-adv-x="510" 
d="M256 448h1q92 0 154 -65t62 -158q0 -112 -67 -174.5t-150 -62.5q-98 0 -158.5 66t-60.5 154q0 59 21 106.5t54.5 75.5t70.5 43t73 15zM245 415h-1q-48 0 -81 -47t-33 -128q0 -96 37.5 -157.5t99.5 -61.5q113 0 113 183q0 91 -35.5 151t-99.5 60zM295 499l-27 -14
q-81 113 -117 161l3 8q7 4 35 9t39 4q57 -143 67 -168z" />
    <glyph glyph-name="oacute" unicode="&#xf3;" horiz-adv-x="510" 
d="M256 448h1q92 0 154 -65t62 -158q0 -112 -67 -174.5t-150 -62.5q-98 0 -158.5 66t-60.5 154q0 59 21 106.5t54.5 75.5t70.5 43t73 15zM245 415h-1q-48 0 -81 -47t-33 -128q0 -96 37.5 -157.5t99.5 -61.5q113 0 113 183q0 91 -35.5 151t-99.5 60zM368 657l-123 -172
l-26 13q26 58 67 157q7 3 38.5 7.5t40.5 3.5z" />
    <glyph glyph-name="ocircumflex" unicode="&#xf4;" horiz-adv-x="510" 
d="M256 448h1q92 0 154 -65t62 -158q0 -112 -67 -174.5t-150 -62.5q-98 0 -158.5 66t-60.5 154q0 59 21 106.5t54.5 75.5t70.5 43t73 15zM245 415h-1q-48 0 -81 -47t-33 -128q0 -96 37.5 -157.5t99.5 -61.5q113 0 113 183q0 91 -35.5 151t-99.5 60zM368 501l-25 -17
q-40 38 -87 97q-51 -63 -89 -97l-24 17q49 68 101 163h25q47 -89 99 -163z" />
    <glyph glyph-name="otilde" unicode="&#xf5;" horiz-adv-x="510" 
d="M256 448h1q92 0 154 -65t62 -158q0 -112 -67 -174.5t-150 -62.5q-98 0 -158.5 66t-60.5 154q0 59 21 106.5t54.5 75.5t70.5 43t73 15zM245 415h-1q-48 0 -81 -47t-33 -128q0 -96 37.5 -157.5t99.5 -61.5q113 0 113 183q0 91 -35.5 151t-99.5 60zM205 612h1q19 0 58 -20
q36 -19 53 -19q23 0 43 45l25 -14q-28 -90 -79 -90q-23 0 -66 24q-25 15 -45 15q-25 0 -44 -48l-26 17q29 90 80 90z" />
    <glyph glyph-name="odieresis" unicode="&#xf6;" horiz-adv-x="510" 
d="M256 448h1q92 0 154 -65t62 -158q0 -112 -67 -174.5t-150 -62.5q-98 0 -158.5 66t-60.5 154q0 59 21 106.5t54.5 75.5t70.5 43t73 15zM245 415h-1q-48 0 -81 -47t-33 -128q0 -96 37.5 -157.5t99.5 -61.5q113 0 113 183q0 91 -35.5 151t-99.5 60zM170 620h1
q20 0 33.5 -14.5t13.5 -35.5q0 -20 -14 -34t-34 -14q-19 0 -33 14.5t-14 33.5q0 21 14 35.5t33 14.5zM339 620h1q20 0 33.5 -14.5t13.5 -35.5q0 -20 -14 -34t-34 -14q-19 0 -33 14.5t-14 33.5q0 21 14 35.5t33 14.5z" />
    <glyph glyph-name="divide" unicode="&#xf7;" horiz-adv-x="580" 
d="M292 353h-1q-18 0 -33 14.5t-15 34.5q0 19 15 34t34 15q20 0 35 -14.5t15 -34.5t-15 -34.5t-35 -14.5zM529 229h-478v50h478v-50zM291 154h1q18 0 33 -14.5t15 -34.5q0 -19 -15.5 -34t-33.5 -15q-21 0 -35.5 14.5t-14.5 34.5q0 21 14.5 35t35.5 14z" />
    <glyph glyph-name="oslash" unicode="&#xf8;" horiz-adv-x="513" 
d="M432 453l-35 -52q79 -66 79 -174q0 -111 -66 -175t-150 -64q-64 0 -117 31l-39 -55l-25 22l37 52q-37 32 -58 77.5t-21 93.5q0 58 21.5 105.5t55.5 75.5t72 43t74 15q58 0 109 -30l37 54zM157 100l181 271q-32 44 -89 44q-52 0 -87.5 -48.5t-35.5 -133.5q0 -80 31 -133z
M358 340l-180 -270q32 -49 91 -49q51 0 85 47.5t34 144.5q0 73 -30 127z" />
    <glyph glyph-name="ugrave" unicode="&#xf9;" horiz-adv-x="531" 
d="M518 50v-26q-32 -4 -77 -16t-70 -20l-6 6v72q-49 -38 -74 -53q-43 -25 -77 -25q-55 0 -89.5 36.5t-34.5 112.5v196q0 38 -6.5 49t-26.5 15l-28 6v24q18 1 72 5q59 9 71 11q-3 -31 -3 -144v-135q0 -113 88 -113q59 0 108 48v234q0 38 -8 49t-34 15l-36 6v24q6 0 90 6
q37 4 67 10v-333q0 -37 8.5 -47t38.5 -12zM293 501l-27 -14q-81 113 -117 161l3 8q7 4 35 9t39 4q57 -142 67 -168z" />
    <glyph glyph-name="uacute" unicode="&#xfa;" horiz-adv-x="531" 
d="M518 50v-26q-32 -4 -77 -16t-70 -20l-6 6v72q-49 -38 -74 -53q-43 -25 -77 -25q-55 0 -89.5 36.5t-34.5 112.5v196q0 38 -6.5 49t-26.5 15l-28 6v24q18 1 72 5q59 9 71 11q-3 -31 -3 -144v-135q0 -113 88 -113q59 0 108 48v234q0 38 -8 49t-34 15l-36 6v24q6 0 90 6
q37 4 67 10v-333q0 -37 8.5 -47t38.5 -12zM375 657l-123 -172l-26 13q26 58 67 157q7 3 38.5 7.5t40.5 3.5z" />
    <glyph glyph-name="ucircumflex" unicode="&#xfb;" horiz-adv-x="531" 
d="M518 50v-26q-32 -4 -77 -16t-70 -20l-6 6v72q-49 -38 -74 -53q-43 -25 -77 -25q-55 0 -89.5 36.5t-34.5 112.5v196q0 38 -6.5 49t-26.5 15l-28 6v24q18 1 72 5q59 9 71 11q-3 -31 -3 -144v-135q0 -113 88 -113q59 0 108 48v234q0 38 -8 49t-34 15l-36 6v24q6 0 90 6
q37 4 67 10v-333q0 -37 8.5 -47t38.5 -12zM375 501l-25 -17q-40 38 -87 97q-51 -63 -89 -97l-24 17q49 68 101 163h25q47 -89 99 -163z" />
    <glyph glyph-name="udieresis" unicode="&#xfc;" horiz-adv-x="531" 
d="M518 50v-26q-32 -4 -77 -16t-70 -20l-6 6v72q-49 -38 -74 -53q-43 -25 -77 -25q-55 0 -89.5 36.5t-34.5 112.5v196q0 38 -6.5 49t-26.5 15l-28 6v24q18 1 72 5q59 9 71 11q-3 -31 -3 -144v-135q0 -113 88 -113q59 0 108 48v234q0 38 -8 49t-34 15l-36 6v24q6 0 90 6
q37 4 67 10v-333q0 -37 8.5 -47t38.5 -12zM173 620h1q20 0 33.5 -14.5t13.5 -35.5q0 -20 -14 -34t-34 -14q-19 0 -33 14.5t-14 33.5q0 21 14 35.5t33 14.5zM342 620h1q20 0 33.5 -14.5t13.5 -35.5q0 -20 -14 -34t-34 -14q-19 0 -33 14.5t-14 33.5q0 21 14 35.5t33 14.5z" />
    <glyph glyph-name="yacute" unicode="&#xfd;" horiz-adv-x="459" 
d="M478 436v-26q-39 -6 -53 -17.5t-35 -54.5q-12 -24 -26.5 -59.5t-44 -107.5t-55.5 -134q-86 -203 -103 -269q-6 -25 -32 -25q-21 0 -38.5 15t-17.5 33q0 20 25 36q41 26 75 89q21 40 31 69q7 20 -2 44q-67 191 -114 306q-17 43 -31.5 56.5t-54.5 18.5v26h202l1 -26
q-35 -5 -42 -16t4 -39l90 -250q55 135 92 248q10 28 0.5 39.5t-52.5 17.5v26h181zM368 657l-123 -172l-26 13q26 58 67 157q7 3 38.5 7.5t40.5 3.5z" />
    <glyph glyph-name="thorn" unicode="&#xfe;" horiz-adv-x="514" 
d="M156 712v-329q45 25 111 57q16 8 35 8q79 0 126.5 -57.5t47.5 -130.5q0 -108 -71.5 -180.5t-178.5 -91.5q-42 3 -70 20v-139q0 -52 14 -64.5t75 -17.5v-26h-240v26q48 5 60 17.5t12 62.5v710q0 52 -10 62.5t-60 15.5v25q78 8 149 32zM156 350v-270q15 -17 43 -29t55 -12
q58 0 98.5 44.5t40.5 134.5q0 83 -39 127t-99 44q-43 0 -99 -39z" />
    <glyph glyph-name="ydieresis" unicode="&#xff;" horiz-adv-x="459" 
d="M478 436v-26q-39 -6 -53 -17.5t-35 -54.5q-12 -24 -26.5 -59.5t-44 -107.5t-55.5 -134q-86 -203 -103 -269q-6 -25 -32 -25q-21 0 -38.5 15t-17.5 33q0 20 25 36q41 26 75 89q21 40 31 69q7 20 -2 44q-67 191 -114 306q-17 43 -31.5 56.5t-54.5 18.5v26h202l1 -26
q-35 -5 -42 -16t4 -39l90 -250q55 135 92 248q10 28 0.5 39.5t-52.5 17.5v26h181zM156 620h1q20 0 33.5 -14.5t13.5 -35.5q0 -20 -14 -34t-34 -14q-19 0 -33 14.5t-14 33.5q0 21 14 35.5t33 14.5zM325 620h1q20 0 33.5 -14.5t13.5 -35.5q0 -20 -14 -34t-34 -14
q-19 0 -33 14.5t-14 33.5q0 21 14 35.5t33 14.5z" />
    <glyph glyph-name="Amacron" unicode="&#x100;" horiz-adv-x="691" 
d="M673 0h-245v28q47 6 58 16t1 39q-7 20 -55 154h-213q-32 -89 -44 -128q-16 -48 -5 -61.5t68 -19.5v-28h-218v28q50 7 68.5 23.5t43.5 80.5l207 524l31 9q18 -49 87 -242t106 -293q23 -63 41.5 -80t68.5 -22v-28zM418 280l-88 255h-2q-16 -42 -47 -127.5t-47 -127.5h184z
M468 716h-223v52h223v-52z" />
    <glyph glyph-name="amacron" unicode="&#x101;" horiz-adv-x="439" 
d="M433 39l-85 -51q-26 0 -47 19q-16 16 -24 45q-5 -3 -24 -16.5t-27 -18.5t-23 -13.5t-25 -12t-19 -3.5q-52 0 -86 36.5t-34 85.5q0 70 81 98q127 42 155 65v17q0 54 -22.5 83.5t-61.5 29.5q-28 0 -44 -19q-15 -15 -30 -65q-7 -23 -29 -23q-14 0 -28.5 13t-14.5 29
q0 17 31 40q74 53 149 70q49 0 82 -27q45 -39 45 -123v-185q0 -60 35 -60q16 0 36 12zM275 84v155q-12 -6 -49 -23t-41 -19q-32 -15 -46.5 -31t-14.5 -42q0 -36 22 -56t49 -20q19 0 42 10.5t38 25.5zM316 532h-220v54h220v-54z" />
    <glyph glyph-name="Abreve" unicode="&#x102;" horiz-adv-x="691" 
d="M673 0h-245v28q47 6 58 16t1 39q-7 20 -55 154h-213q-32 -89 -44 -128q-16 -48 -5 -61.5t68 -19.5v-28h-218v28q50 7 68.5 23.5t43.5 80.5l207 524l31 9q18 -49 87 -242t106 -293q23 -63 41.5 -80t68.5 -22v-28zM418 280l-88 255h-2q-16 -42 -47 -127.5t-47 -127.5h184z
M443 813h30q-1 -58 -32.5 -88t-84.5 -30t-84.5 30t-32.5 88h30q16 -61 87 -61t87 61z" />
    <glyph glyph-name="abreve" unicode="&#x103;" horiz-adv-x="439" 
d="M433 39l-85 -51q-26 0 -47 19q-16 16 -24 45q-5 -3 -24 -16.5t-27 -18.5t-23 -13.5t-25 -12t-19 -3.5q-52 0 -86 36.5t-34 85.5q0 70 81 98q127 42 155 65v17q0 54 -22.5 83.5t-61.5 29.5q-28 0 -44 -19q-15 -15 -30 -65q-7 -23 -29 -23q-14 0 -28.5 13t-14.5 29
q0 17 31 40q74 53 149 70q49 0 82 -27q45 -39 45 -123v-185q0 -60 35 -60q16 0 36 12zM275 84v155q-12 -6 -49 -23t-41 -19q-32 -15 -46.5 -31t-14.5 -42q0 -36 22 -56t49 -20q19 0 42 10.5t38 25.5zM288 636h30q0 -73 -31 -105t-80 -32h-1q-49 0 -79.5 32t-30.5 105h30
q11 -79 80 -79q71 0 82 79z" />
    <glyph glyph-name="Aogonek" unicode="&#x104;" horiz-adv-x="691" 
d="M673 0h-169q-22 -19 -42.5 -57.5t-20.5 -66.5q0 -26 16 -40.5t42 -14.5q22 0 46 11l8 -25l-57 -34q-17 -10 -34 -10q-46 0 -67.5 24.5t-21.5 59.5q0 72 113 183q14 14 6 36q-6 19 -31 88t-30 83h-211q-38 -106 -45 -129q-16 -48 -5 -61.5t68 -19.5v-27h-218v27
q49 7 68 23.5t45 81.5q47 117 206 524q20 6 31 9q112 -315 193 -536q24 -63 42.5 -80.5t67.5 -22.5v-26zM418 280l-87 253h-2q-19 -49 -53 -141t-42 -112h184z" />
    <glyph glyph-name="aogonek" unicode="&#x105;" horiz-adv-x="439" 
d="M423 64l10 -24q-3 -2 -14.5 -9t-21 -13t-13.5 -9q-38 -24 -70 -64.5t-32 -75.5q0 -46 53 -46q19 0 42 10l8 -25l-51 -30q-19 -12 -36 -12q-41 0 -62.5 20.5t-21.5 56.5q0 67 107 154q-36 16 -44 55q-5 -3 -20 -13.5t-22.5 -15.5t-20.5 -13t-21 -12t-17.5 -7t-16.5 -3
q-52 0 -86 36.5t-34 85.5q0 70 81 98q127 42 155 65v18q0 54 -22 83.5t-60 29.5q-29 0 -46 -21q-14 -15 -29 -65q-7 -23 -30 -23q-14 0 -28.5 13.5t-14.5 29.5q0 17 31 40q73 52 150 70q50 0 81 -27q45 -39 45 -121v-187q0 -59 35 -59q16 0 36 10zM275 84v156
q-13 -7 -49 -23.5t-40 -18.5q-31 -14 -46 -31t-15 -43q0 -36 22 -56t49 -20q41 0 79 36z" />
    <glyph glyph-name="Cacute" unicode="&#x106;" horiz-adv-x="665" 
d="M614 175l29 -10q-33 -109 -57 -154q-121 -26 -184 -26q-90 0 -160.5 29t-112.5 77t-63.5 105.5t-21.5 119.5q0 157 108 253t277 96q36 0 71.5 -5t69 -13.5t36.5 -8.5q14 -102 20 -151l-29 -7q-20 79 -66.5 114t-128.5 35q-119 0 -187.5 -86t-68.5 -207
q0 -140 73.5 -227.5t188.5 -87.5q73 0 119.5 37.5t86.5 116.5zM516 771l-2 -8l-185 -64l-13 25q17 11 157 102q9 -1 25 -22.5t18 -32.5z" />
    <glyph glyph-name="cacute" unicode="&#x107;" horiz-adv-x="423" 
d="M390 111l17 -21q-34 -45 -80 -73.5t-89 -28.5q-91 0 -146 61.5t-55 146.5q0 118 101 195q74 57 149 57h1q59 0 90 -27q16 -12 16 -30q0 -15 -12 -29t-21 -14q-8 0 -19 11q-44 41 -101 41q-52 0 -87.5 -42.5t-35.5 -117.5q0 -93 48.5 -138.5t102.5 -45.5q33 0 60.5 12
t60.5 43zM352 657l-123 -172l-26 13q26 58 67 157q7 3 38.5 7.5t40.5 3.5z" />
    <glyph glyph-name="Ccircumflex" unicode="&#x108;" horiz-adv-x="665" 
d="M614 175l29 -10q-33 -109 -57 -154q-121 -26 -184 -26q-90 0 -160.5 29t-112.5 77t-63.5 105.5t-21.5 119.5q0 157 108 253t277 96q36 0 71.5 -5t69 -13.5t36.5 -8.5q14 -102 20 -151l-29 -7q-20 79 -66.5 114t-128.5 35q-119 0 -187.5 -86t-68.5 -207
q0 -140 73.5 -227.5t188.5 -87.5q73 0 119.5 37.5t86.5 116.5zM533 723l-16 -25q-51 21 -121 62q-79 -45 -120 -62l-16 25q93 71 126 107h22q36 -38 125 -107z" />
    <glyph glyph-name="ccircumflex" unicode="&#x109;" horiz-adv-x="423" 
d="M390 111l17 -21q-34 -45 -80 -73.5t-89 -28.5q-91 0 -146 61.5t-55 146.5q0 118 101 195q74 57 149 57h1q59 0 90 -27q16 -12 16 -30q0 -15 -12 -29t-21 -14q-8 0 -19 11q-44 41 -101 41q-52 0 -87.5 -42.5t-35.5 -117.5q0 -93 48.5 -138.5t102.5 -45.5q33 0 60.5 12
t60.5 43zM358 501l-25 -17q-40 38 -87 97q-51 -63 -89 -97l-24 17q49 68 101 163h25q47 -89 99 -163z" />
    <glyph glyph-name="Cdotaccent" unicode="&#x10a;" horiz-adv-x="665" 
d="M614 175l29 -10q-33 -109 -57 -154q-121 -26 -184 -26q-90 0 -160.5 29t-112.5 77t-63.5 105.5t-21.5 119.5q0 157 108 253t277 96q36 0 71.5 -5t69 -13.5t36.5 -8.5q14 -102 20 -151l-29 -7q-20 79 -66.5 114t-128.5 35q-119 0 -187.5 -86t-68.5 -207
q0 -140 73.5 -227.5t188.5 -87.5q73 0 119.5 37.5t86.5 116.5zM399 811h1q21 0 35.5 -15.5t14.5 -37.5q0 -21 -14.5 -36t-36.5 -15t-36.5 15t-14.5 36q0 23 14.5 38t36.5 15z" />
    <glyph glyph-name="cdotaccent" unicode="&#x10b;" horiz-adv-x="423" 
d="M390 111l17 -21q-34 -45 -80 -73.5t-89 -28.5q-91 0 -146 61.5t-55 146.5q0 118 101 195q74 57 149 57h1q59 0 90 -27q16 -12 16 -30q0 -15 -12 -29t-21 -14q-8 0 -19 11q-44 41 -101 41q-52 0 -87.5 -42.5t-35.5 -117.5q0 -93 48.5 -138.5t102.5 -45.5q33 0 60.5 12
t60.5 43zM243 630h1q21 0 35.5 -15t14.5 -37q0 -21 -15 -36t-36 -15q-20 0 -35 15.5t-15 35.5q0 21 15 36.5t35 15.5z" />
    <glyph glyph-name="Ccaron" unicode="&#x10c;" horiz-adv-x="665" 
d="M614 175l29 -10q-33 -109 -57 -154q-121 -26 -184 -26q-90 0 -160.5 29t-112.5 77t-63.5 105.5t-21.5 119.5q0 157 108 253t277 96q36 0 71.5 -5t69 -13.5t36.5 -8.5q14 -102 20 -151l-29 -7q-20 79 -66.5 114t-128.5 35q-119 0 -187.5 -86t-68.5 -207
q0 -140 73.5 -227.5t188.5 -87.5q73 0 119.5 37.5t86.5 116.5zM519 836l15 -25q-86 -66 -125 -108h-22q-40 42 -126 108l16 25q68 -29 121 -62q68 40 121 62z" />
    <glyph glyph-name="ccaron" unicode="&#x10d;" horiz-adv-x="423" 
d="M390 111l17 -21q-34 -45 -80 -73.5t-89 -28.5q-91 0 -146 61.5t-55 146.5q0 118 101 195q74 57 149 57h1q59 0 90 -27q16 -12 16 -30q0 -15 -12 -29t-21 -14q-8 0 -19 11q-44 41 -101 41q-52 0 -87.5 -42.5t-35.5 -117.5q0 -93 48.5 -138.5t102.5 -45.5q33 0 60.5 12
t60.5 43zM336 668l25 -17q-53 -73 -101 -163h-25q-44 84 -99 163l25 17q45 -43 87 -97q46 56 88 97z" />
    <glyph glyph-name="Dcaron" unicode="&#x10e;" horiz-adv-x="735" 
d="M43 650h280q194 0 282 -85q85 -82 85 -215q0 -173 -123 -267q-107 -83 -297 -83h-236v27q65 5 79.5 19.5t14.5 77.5v402q0 45 -6 62.5t-21.5 24t-57.5 9.5v28zM213 547v-416q0 -55 24.5 -75t81.5 -20q133 0 203 86t70 214q0 80 -30 143t-88 97q-66 41 -170 41
q-62 0 -78 -13q-13 -9 -13 -57zM465 821l15 -25q-86 -66 -125 -108h-22q-40 42 -126 108l16 25q68 -29 121 -62q68 40 121 62z" />
    <glyph glyph-name="dcaron" unicode="&#x10f;" horiz-adv-x="528" 
d="M517 51v-25q-101 -18 -155 -38v65l-61 -36q-50 -29 -78 -29q-68 0 -126.5 58t-58.5 155q0 102 77 174.5t180 72.5q36 0 67 -12v143q0 49 -11.5 59.5t-65.5 14.5v25q79 9 156 34v-597q0 -37 8 -47.5t36 -13.5zM362 85v274q-35 51 -103 51q-20 0 -40.5 -8.5t-42 -28
t-35 -57t-13.5 -88.5q0 -83 42 -130t96 -47q51 0 96 34zM526 712h1q25 0 42.5 -22.5t17.5 -57.5q0 -79 -86 -105l-10 27q45 23 45 57q0 29 -32 39q-13 4 -13 25q0 17 10.5 27t24.5 10z" />
    <glyph glyph-name="Dcroat" unicode="&#x110;" horiz-adv-x="737" 
d="M53 650h276q188 0 277 -85q86 -83 86 -215q0 -174 -125 -267q-110 -83 -293 -83h-229v28q65 4 79.5 21t14.5 88v183h-102v41h102v152q0 51 -6 71.5t-22 28t-58 10.5v27zM224 320v-188q0 -54 18.5 -74.5t78.5 -20.5q133 0 202 84.5t69 213.5q0 171 -115 243
q-62 39 -162 39q-59 0 -79 -10q-12 -7 -12 -43v-203h157v-41h-157z" />
    <glyph glyph-name="dcroat" unicode="&#x111;" horiz-adv-x="526" 
d="M517 50v-24q-103 -19 -156 -38v66l-63 -37q-49 -29 -75 -29q-67 0 -125.5 58t-59.5 155q0 100 76.5 173.5t178.5 73.5q37 0 68 -12v97h-132v37h132v21q-1 41 -11.5 50t-61.5 14v24q81 11 152 34v-143h76v-37h-76v-417q0 -39 7.5 -49.5t36.5 -13.5zM361 85v274
q-18 25 -46.5 38.5t-55.5 13.5q-18 0 -38 -8.5t-42 -27.5t-36.5 -57.5t-14.5 -90.5q0 -84 42 -130.5t96 -46.5q48 0 95 35z" />
    <glyph glyph-name="Emacron" unicode="&#x112;" horiz-adv-x="568" 
d="M517 162l29 -4q-18 -100 -35 -158h-482v28q68 5 83.5 20t15.5 77v398q0 66 -13 80.5t-73 19.5v27h446q0 -5 8 -144l-29 -4q-11 51 -32 85q-11 17 -35 23t-78 6h-76q-23 0 -28 -5t-5 -27v-228h94q67 0 83 12t25 63h29v-191h-29q-10 54 -26 65.5t-81 11.5h-95v-189
q0 -65 24 -81q19 -13 104 -13q57 0 83 7t43 27q29 34 50 94zM411 716h-223v52h223v-52z" />
    <glyph glyph-name="emacron" unicode="&#x113;" horiz-adv-x="425" 
d="M380 106l15 -22q-42 -52 -87 -74t-76 -22q-89 0 -142 62t-53 151q0 103 66 174q67 73 146 73h1q61 0 105.5 -46t44.5 -105q0 -16 -4.5 -22.5t-18.5 -9.5q-54 -10 -262 -17q1 -95 46 -143.5t104 -48.5q61 0 115 50zM226 411h-1q-35 0 -64.5 -32t-40.5 -90q83 0 170 3
q24 0 24 19q1 41 -23.5 70.5t-64.5 29.5zM340 532h-220v54h220v-54z" />
    <glyph glyph-name="Ebreve" unicode="&#x114;" horiz-adv-x="568" 
d="M517 162l29 -4q-18 -100 -35 -158h-482v28q68 5 83.5 20t15.5 77v398q0 66 -13 80.5t-73 19.5v27h446q0 -5 8 -144l-29 -4q-11 51 -32 85q-11 17 -35 23t-78 6h-76q-23 0 -28 -5t-5 -27v-228h94q67 0 83 12t25 63h29v-191h-29q-10 54 -26 65.5t-81 11.5h-95v-189
q0 -65 24 -81q19 -13 104 -13q57 0 83 7t43 27q29 34 50 94zM387 813h30q-1 -58 -32.5 -88t-84.5 -30t-84.5 30t-32.5 88h30q16 -61 87 -61t87 61z" />
    <glyph glyph-name="ebreve" unicode="&#x115;" horiz-adv-x="425" 
d="M380 106l15 -22q-42 -52 -87 -74t-76 -22q-89 0 -142 62t-53 151q0 103 66 174q67 73 146 73h1q61 0 105.5 -46t44.5 -105q0 -16 -4.5 -22.5t-18.5 -9.5q-54 -10 -262 -17q1 -95 46 -143.5t104 -48.5q61 0 115 50zM226 411h-1q-35 0 -64.5 -32t-40.5 -90q83 0 170 3
q24 0 24 19q1 41 -23.5 70.5t-64.5 29.5zM314 636h30q0 -73 -31 -105t-80 -32h-1q-49 0 -79.5 32t-30.5 105h30q11 -79 80 -79q71 0 82 79z" />
    <glyph glyph-name="Edotaccent" unicode="&#x116;" horiz-adv-x="568" 
d="M517 162l29 -4q-18 -100 -35 -158h-482v28q68 5 83.5 20t15.5 77v398q0 66 -13 80.5t-73 19.5v27h446q0 -5 8 -144l-29 -4q-11 51 -32 85q-11 17 -35 23t-78 6h-76q-23 0 -28 -5t-5 -27v-228h94q67 0 83 12t25 63h29v-191h-29q-10 54 -26 65.5t-81 11.5h-95v-189
q0 -65 24 -81q19 -13 104 -13q57 0 83 7t43 27q29 34 50 94zM299 807h1q21 0 35.5 -15.5t14.5 -37.5q0 -21 -14.5 -36t-36.5 -15t-36.5 15t-14.5 36q0 23 14.5 38t36.5 15z" />
    <glyph glyph-name="edotaccent" unicode="&#x117;" horiz-adv-x="425" 
d="M380 106l15 -22q-42 -52 -87 -74t-76 -22q-89 0 -142 62t-53 151q0 103 66 174q67 73 146 73h1q61 0 105.5 -46t44.5 -105q0 -16 -4.5 -22.5t-18.5 -9.5q-54 -10 -262 -17q1 -95 46 -143.5t104 -48.5q61 0 115 50zM226 411h-1q-35 0 -64.5 -32t-40.5 -90q83 0 170 3
q24 0 24 19q1 41 -23.5 70.5t-64.5 29.5zM228 623h1q21 0 35.5 -15t14.5 -37q0 -21 -15 -36t-36 -15q-20 0 -35 15.5t-15 35.5q0 21 15 36.5t35 15.5z" />
    <glyph glyph-name="Eogonek" unicode="&#x118;" horiz-adv-x="568" 
d="M517 163l29 -5q-11 -76 -35 -158h-37q-36 -31 -58.5 -68t-22.5 -66q0 -45 50 -45q23 0 48 11l7 -26l-52 -32q-22 -11 -38 -11q-43 0 -63.5 20.5t-20.5 54.5q0 37 31.5 80.5t78.5 81.5h-405v28q69 5 84 20.5t15 79.5v391q0 67 -13.5 82.5t-72.5 20.5v28h444q2 -52 11 -143
l-30 -4q-13 60 -36 86q-13 15 -36 20.5t-77 5.5h-72q-22 0 -27.5 -5t-5.5 -27v-224h97q67 0 81.5 10.5t23.5 61.5h29v-187h-29q-10 54 -24.5 64.5t-79.5 10.5h-98v-188q0 -68 24 -84q20 -13 104 -13q55 0 82.5 7.5t44.5 27.5q24 28 49 94z" />
    <glyph glyph-name="eogonek" unicode="&#x119;" horiz-adv-x="424" 
d="M265 -6l-1 2q-20 -7 -33 -8q-89 0 -142 62t-53 151q0 104 65 172q69 75 147 75h1q61 0 106 -46t45 -105q0 -16 -4.5 -22.5t-18.5 -9.5q-54 -10 -262 -17q1 -95 45.5 -144t103.5 -49q61 0 115 51l16 -21q-31 -35 -53 -53q-42 -35 -76 -82t-34 -83q0 -21 13 -32.5t34 -11.5
q25 0 51 14l8 -25l-56 -35q-15 -11 -36 -11q-40 0 -61.5 21.5t-21.5 50.5q0 71 102 156zM226 412h-1q-36 0 -66 -33t-39 -90q2 0 170 3q14 0 19 4t5 14q1 41 -24 71.5t-64 30.5z" />
    <glyph glyph-name="Ecaron" unicode="&#x11a;" horiz-adv-x="568" 
d="M517 162l29 -4q-18 -100 -35 -158h-482v28q68 5 83.5 20t15.5 77v398q0 66 -13 80.5t-73 19.5v27h446q0 -5 8 -144l-29 -4q-11 51 -32 85q-11 17 -35 23t-78 6h-76q-23 0 -28 -5t-5 -27v-228h94q67 0 83 12t25 63h29v-191h-29q-10 54 -26 65.5t-81 11.5h-95v-189
q0 -65 24 -81q19 -13 104 -13q57 0 83 7t43 27q29 34 50 94zM416 822l15 -25q-86 -66 -125 -108h-22q-40 42 -126 108l16 25q68 -29 121 -62q68 40 121 62z" />
    <glyph glyph-name="ecaron" unicode="&#x11b;" horiz-adv-x="425" 
d="M380 106l15 -22q-42 -52 -87 -74t-76 -22q-89 0 -142 62t-53 151q0 103 66 174q67 73 146 73h1q61 0 105.5 -46t44.5 -105q0 -16 -4.5 -22.5t-18.5 -9.5q-54 -10 -262 -17q1 -95 46 -143.5t104 -48.5q61 0 115 50zM226 411h-1q-35 0 -64.5 -32t-40.5 -90q83 0 170 3
q24 0 24 19q1 41 -23.5 70.5t-64.5 29.5zM318 664l25 -17q-53 -73 -101 -163h-25q-44 84 -99 163l25 17q45 -43 87 -97q46 56 88 97z" />
    <glyph glyph-name="Gcircumflex" unicode="&#x11c;" horiz-adv-x="715" 
d="M692 302v-28q-45 -6 -54.5 -17t-9.5 -55v-86q0 -62 7 -95q-7 -2 -32 -7.5t-37 -8t-35.5 -7.5t-40.5 -7t-38.5 -4t-40.5 -2q-165 0 -266 93t-101 243q0 84 32 151t86 108t121.5 63t142.5 22q73 0 193 -29q7 -76 15 -156l-28 -6q-17 87 -66.5 121.5t-128.5 34.5
q-117 0 -191 -80.5t-74 -216.5q0 -56 17 -110t49.5 -100.5t87.5 -74.5t124 -28q53 0 87 17q17 9 24.5 23t7.5 43v85q0 54 -15.5 67t-89.5 19v28h254zM538 716l-16 -25q-51 21 -121 62q-79 -45 -120 -62l-16 25q93 71 126 107h22q36 -38 125 -107z" />
    <glyph glyph-name="gcircumflex" unicode="&#x11d;" horiz-adv-x="468" 
d="M463 436l5 -8q-22 -38 -45 -50l-57 3q30 -37 30 -89q0 -75 -52.5 -117t-122.5 -42q-24 0 -51 5q-30 -21 -30 -42q0 -16 16 -27t47 -11q19 0 54 0.5t52 0.5q36 0 65.5 -8t53.5 -36t24 -74q0 -77 -75 -137.5t-174 -60.5q-79 0 -126 37.5t-48 84.5q0 32 24 56q21 21 83 70
q-49 15 -74 55q-13 20 -11 42q56 21 88 61q-37 16 -62.5 50.5t-25.5 82.5q0 78 56.5 122t122.5 44h1q47 0 96 -26q67 3 136 14zM220 417h-1q-34 0 -58 -32t-24 -87q0 -58 26.5 -95.5t67.5 -37.5q35 1 59 31.5t24 86.5q0 59 -26 96.5t-68 37.5zM242 -11h-1q-62 0 -87 -21
q-46 -39 -46 -78q0 -41 38 -68.5t94 -27.5q69 0 106.5 31t37.5 80q0 53 -45 71q-33 13 -97 13zM337 509l-25 -17q-40 38 -87 97q-51 -63 -89 -97l-24 17q49 68 101 163h25q47 -89 99 -163z" />
    <glyph glyph-name="Gbreve" unicode="&#x11e;" horiz-adv-x="715" 
d="M692 302v-28q-45 -6 -54.5 -17t-9.5 -55v-86q0 -62 7 -95q-7 -2 -32 -7.5t-37 -8t-35.5 -7.5t-40.5 -7t-38.5 -4t-40.5 -2q-165 0 -266 93t-101 243q0 84 32 151t86 108t121.5 63t142.5 22q73 0 193 -29q7 -76 15 -156l-28 -6q-17 87 -66.5 121.5t-128.5 34.5
q-117 0 -191 -80.5t-74 -216.5q0 -56 17 -110t49.5 -100.5t87.5 -74.5t124 -28q53 0 87 17q17 9 24.5 23t7.5 43v85q0 54 -15.5 67t-89.5 19v28h254zM479 821h30q-1 -58 -32.5 -88t-84.5 -30t-84.5 30t-32.5 88h30q16 -61 87 -61t87 61z" />
    <glyph glyph-name="gbreve" unicode="&#x11f;" horiz-adv-x="468" 
d="M463 436l5 -8q-22 -38 -45 -50l-57 3q30 -37 30 -89q0 -75 -52.5 -117t-122.5 -42q-24 0 -51 5q-30 -21 -30 -42q0 -16 16 -27t47 -11q19 0 54 0.5t52 0.5q36 0 65.5 -8t53.5 -36t24 -74q0 -77 -75 -137.5t-174 -60.5q-79 0 -126 37.5t-48 84.5q0 32 24 56q21 21 83 70
q-49 15 -74 55q-13 20 -11 42q56 21 88 61q-37 16 -62.5 50.5t-25.5 82.5q0 78 56.5 122t122.5 44h1q47 0 96 -26q67 3 136 14zM220 417h-1q-34 0 -58 -32t-24 -87q0 -58 26.5 -95.5t67.5 -37.5q35 1 59 31.5t24 86.5q0 59 -26 96.5t-68 37.5zM242 -11h-1q-62 0 -87 -21
q-46 -39 -46 -78q0 -41 38 -68.5t94 -27.5q69 0 106.5 31t37.5 80q0 53 -45 71q-33 13 -97 13zM305 636h30q0 -73 -31 -105t-80 -32h-1q-49 0 -79.5 32t-30.5 105h30q11 -79 80 -79q71 0 82 79z" />
    <glyph glyph-name="Gdotaccent" unicode="&#x120;" horiz-adv-x="715" 
d="M692 302v-28q-45 -6 -54.5 -17t-9.5 -55v-86q0 -62 7 -95q-7 -2 -32 -7.5t-37 -8t-35.5 -7.5t-40.5 -7t-38.5 -4t-40.5 -2q-165 0 -266 93t-101 243q0 84 32 151t86 108t121.5 63t142.5 22q73 0 193 -29q7 -76 15 -156l-28 -6q-17 87 -66.5 121.5t-128.5 34.5
q-117 0 -191 -80.5t-74 -216.5q0 -56 17 -110t49.5 -100.5t87.5 -74.5t124 -28q53 0 87 17q17 9 24.5 23t7.5 43v85q0 54 -15.5 67t-89.5 19v28h254zM399 809h1q21 0 35.5 -15.5t14.5 -37.5q0 -21 -14.5 -36t-36.5 -15t-36.5 15t-14.5 36q0 23 14.5 38t36.5 15z" />
    <glyph glyph-name="gdotaccent" unicode="&#x121;" horiz-adv-x="468" 
d="M463 436l5 -8q-22 -38 -45 -50l-57 3q30 -37 30 -89q0 -75 -52.5 -117t-122.5 -42q-24 0 -51 5q-30 -21 -30 -42q0 -16 16 -27t47 -11q19 0 54 0.5t52 0.5q36 0 65.5 -8t53.5 -36t24 -74q0 -77 -75 -137.5t-174 -60.5q-79 0 -126 37.5t-48 84.5q0 32 24 56q21 21 83 70
q-49 15 -74 55q-13 20 -11 42q56 21 88 61q-37 16 -62.5 50.5t-25.5 82.5q0 78 56.5 122t122.5 44h1q47 0 96 -26q67 3 136 14zM220 417h-1q-34 0 -58 -32t-24 -87q0 -58 26.5 -95.5t67.5 -37.5q35 1 59 31.5t24 86.5q0 59 -26 96.5t-68 37.5zM242 -11h-1q-62 0 -87 -21
q-46 -39 -46 -78q0 -41 38 -68.5t94 -27.5q69 0 106.5 31t37.5 80q0 53 -45 71q-33 13 -97 13zM225 623h1q21 0 35.5 -15t14.5 -37q0 -21 -15 -36t-36 -15q-20 0 -35 15.5t-15 35.5q0 21 15 36.5t35 15.5z" />
    <glyph glyph-name="Gcommaaccent" unicode="&#x122;" horiz-adv-x="715" 
d="M692 302v-28q-45 -6 -54.5 -17t-9.5 -55v-86q0 -62 7 -95q-7 -2 -32 -7.5t-37 -8t-35.5 -7.5t-40.5 -7t-38.5 -4t-40.5 -2q-165 0 -266 93t-101 243q0 84 32 151t86 108t121.5 63t142.5 22q73 0 193 -29q7 -76 15 -156l-28 -6q-17 87 -66.5 121.5t-128.5 34.5
q-117 0 -191 -80.5t-74 -216.5q0 -56 17 -110t49.5 -100.5t87.5 -74.5t124 -28q53 0 87 17q17 9 24.5 23t7.5 43v85q0 54 -15.5 67t-89.5 19v28h254zM395 -46h1q29 0 51 -22.5t22 -56.5q0 -80 -106 -106l-9 28q60 24 60 56q0 29 -45 40q-15 6 -15 24q0 17 12.5 27t28.5 10z
" />
    <glyph glyph-name="gcommaaccent" unicode="&#x123;" horiz-adv-x="468" 
d="M463 436l5 -8q-22 -38 -45 -50l-57 3q30 -37 30 -89q0 -75 -52.5 -117t-122.5 -42q-24 0 -51 5q-30 -21 -30 -42q0 -16 16 -27t47 -11q19 0 54 0.5t52 0.5q36 0 65.5 -8t53.5 -36t24 -74q0 -77 -75 -137.5t-174 -60.5q-79 0 -126 37.5t-48 84.5q0 32 24 56q21 21 83 70
q-49 15 -74 55q-13 20 -11 42q56 21 88 61q-37 16 -62.5 50.5t-25.5 82.5q0 78 56.5 122t122.5 44h1q47 0 96 -26q67 3 136 14zM220 417h-1q-34 0 -58 -32t-24 -87q0 -58 26.5 -95.5t67.5 -37.5q35 1 59 31.5t24 86.5q0 59 -26 96.5t-68 37.5zM242 -11h-1q-62 0 -87 -21
q-46 -39 -46 -78q0 -41 38 -68.5t94 -27.5q69 0 106.5 31t37.5 80q0 53 -45 71q-33 13 -97 13zM238 529h-1q-29 0 -51.5 22.5t-22.5 57.5q0 78 108 106l9 -27q-61 -26 -61 -58q0 -29 46 -40q15 -4 15 -24q0 -17 -12.5 -27t-29.5 -10z" />
    <glyph glyph-name="Hcircumflex" unicode="&#x124;" horiz-adv-x="766" 
d="M729 650v-28q-62 -5 -76 -19.5t-14 -75.5v-404q0 -62 13.5 -76t75.5 -19v-28h-268v28q65 5 79.5 19t14.5 76v199h-341v-199q0 -62 14 -76t76 -19v-28h-263v28q61 5 74.5 19t13.5 76v404q0 62 -14 76t-76 19v28h259v-28q-58 -5 -71 -19t-13 -76v-162h341v162
q0 61 -13.5 75.5t-72.5 19.5v28h261zM519 709l-16 -25q-50 21 -121 62q-79 -45 -120 -62l-16 25q93 71 126 107h22q36 -38 125 -107z" />
    <glyph glyph-name="hcircumflex" unicode="&#x125;" horiz-adv-x="534" 
d="M513 0h-211v26q44 5 55 17t11 60v165q0 123 -98 123q-59 0 -104 -51v-237q0 -48 10 -60.5t55 -16.5v-26h-213l1 26q46 4 57 16t11 61v477q0 48 -9.5 58.5t-58.5 14.5v24q63 9 147 35v-337q73 73 143 73q64 0 101 -42t37 -128v-175q0 -49 11 -61t55 -16v-26zM253 749
l-16 -25q-51 21 -121 62q-79 -45 -120 -62l-16 25q93 71 126 107h22q36 -38 125 -107z" />
    <glyph glyph-name="Hbar" unicode="&#x126;" horiz-adv-x="766" 
d="M727 471h-88v-342q0 -65 14 -80.5t75 -20.5v-28h-268v28q65 5 79.5 20.5t14.5 80.5v181h-341v-181q0 -65 14 -80.5t76 -20.5v-28h-263v28q60 5 74 20.5t14 80.5v342h-88v37h88v18q0 63 -14 77t-76 19v28h259v-28q-58 -5 -71 -19t-13 -77v-18h341v17q0 63 -13 77.5
t-73 19.5v28h261v-28q-62 -5 -76 -19.5t-14 -76.5v-18h88v-37zM554 352v119h-341v-119h341z" />
    <glyph glyph-name="hbar" unicode="&#x127;" horiz-adv-x="533" 
d="M513 0h-210v26q44 5 54.5 17.5t10.5 60.5v165q0 122 -97 122q-63 0 -105 -51v-235q0 -49 10.5 -61.5t54.5 -17.5v-26h-211v26q45 4 56 17t11 63v429h-69v37h69v51q0 25 -7.5 31.5t-37.5 10.5v24q57 7 124 27v-144h155v-37h-155v-160q66 72 144 73q63 2 100 -40t37 -125
v-179q0 -49 11 -61.5t55 -16.5v-26z" />
    <glyph glyph-name="Itilde" unicode="&#x128;" 
d="M303 0h-265v28q62 5 76 19.5t14 77.5v400q0 63 -14 77.5t-76 19.5v28h265v-28q-62 -5 -76 -19.5t-14 -77.5v-400q0 -64 14 -78t76 -19v-28zM118 788h1q22 0 61 -19q35 -16 55 -16q27 0 46 43l25 -14q-28 -85 -82 -85q-24 0 -70 22q-28 14 -44 14q-24 0 -48 -44l-24 17
q33 82 80 82z" />
    <glyph glyph-name="itilde" unicode="&#x129;" horiz-adv-x="268" 
d="M253 0h-220v26q48 5 59 18t11 64v200q0 49 -9.5 60.5t-53.5 18.5v24q78 12 142 39v-342q0 -52 11.5 -64.5t59.5 -17.5v-26zM84 612h1q19 0 58 -20q36 -19 53 -19q23 0 43 45l25 -14q-28 -90 -79 -90q-23 0 -66 24q-25 15 -45 15q-25 0 -44 -48l-26 17q29 90 80 90z" />
    <glyph glyph-name="Imacron" unicode="&#x12a;" 
d="M303 0h-265v28q62 5 76 19.5t14 77.5v400q0 63 -14 77.5t-76 19.5v28h265v-28q-62 -5 -76 -19.5t-14 -77.5v-400q0 -64 14 -78t76 -19v-28zM282 716h-223v52h223v-52z" />
    <glyph glyph-name="imacron" unicode="&#x12b;" horiz-adv-x="268" 
d="M253 0h-220v26q48 5 59 18t11 64v200q0 49 -9.5 60.5t-53.5 18.5v24q78 12 142 39v-342q0 -52 11.5 -64.5t59.5 -17.5v-26zM239 532h-220v54h220v-54z" />
    <glyph glyph-name="Ibreve" unicode="&#x12c;" 
d="M303 0h-265v28q62 5 76 19.5t14 77.5v400q0 63 -14 77.5t-76 19.5v28h265v-28q-62 -5 -76 -19.5t-14 -77.5v-400q0 -64 14 -78t76 -19v-28zM257 813h30q-1 -58 -32.5 -88t-84.5 -30t-84.5 30t-32.5 88h30q16 -61 87 -61t87 61z" />
    <glyph glyph-name="ibreve" unicode="&#x12d;" horiz-adv-x="268" 
d="M253 0h-220v26q48 5 59 18t11 64v200q0 49 -9.5 60.5t-53.5 18.5v24q78 12 142 39v-342q0 -52 11.5 -64.5t59.5 -17.5v-26zM210 636h30q0 -73 -31 -105t-80 -32h-1q-49 0 -79.5 32t-30.5 105h30q11 -79 80 -79q71 0 82 79z" />
    <glyph glyph-name="Iogonek" unicode="&#x12e;" 
d="M303 0h-114q-35 -74 -35 -124q0 -26 16.5 -41t42.5 -15q21 0 49 13l8 -25l-56 -34q-18 -11 -39 -11q-44 0 -66 23.5t-22 57.5q0 10 2 20.5t4 19t8 21t8.5 19t11 20.5t11 18l12.5 20t11 18h-117v27q62 5 76 20t14 80v395q0 65 -14 80.5t-76 20.5v27h265v-27
q-62 -5 -76 -20.5t-14 -80.5v-395q0 -64 14 -79.5t76 -20.5v-27z" />
    <glyph glyph-name="iogonek" unicode="&#x12f;" horiz-adv-x="268" 
d="M136 652h1q21 0 35.5 -15t14.5 -37q0 -21 -15 -36t-36 -15q-20 0 -35 15.5t-15 34.5q0 22 15 37.5t35 15.5zM252 0h-93q-34 -71 -34 -119q0 -58 56 -58q18 0 44 11l9 -25l-52 -30q-18 -12 -36 -12q-42 0 -64 21t-22 59q0 52 66 153h-94v26q48 5 59 17.5t11 63.5v201
q0 49 -9.5 60.5t-53.5 18.5v24q77 12 142 39v-343q0 -51 11.5 -63.5t59.5 -17.5v-26z" />
    <glyph glyph-name="Idotaccent" unicode="&#x130;" 
d="M303 0h-265v28q62 5 76 19.5t14 77.5v400q0 63 -14 77.5t-76 19.5v28h265v-28q-62 -5 -76 -19.5t-14 -77.5v-400q0 -64 14 -78t76 -19v-28zM171 807h1q21 0 35.5 -15.5t14.5 -37.5q0 -21 -14.5 -36t-36.5 -15t-36.5 15t-14.5 36q0 23 14.5 38t36.5 15z" />
    <glyph glyph-name="dotlessi" unicode="&#x131;" horiz-adv-x="268" 
d="M253 0h-220v26q48 5 59 18t11 64v200q0 49 -9.5 60.5t-53.5 18.5v24q78 12 142 39v-342q0 -52 11.5 -64.5t59.5 -17.5v-26z" />
    <glyph glyph-name="IJ" unicode="&#x132;" horiz-adv-x="669" 
d="M303 0h-265v28q62 5 76 19.5t14 77.5v400q0 63 -14 77.5t-76 19.5v28h265v-28q-62 -5 -76 -19.5t-14 -77.5v-400q0 -64 14 -78t76 -19v-28zM644 650v-28q-58 -5 -71.5 -19.5t-13.5 -77.5v-374q0 -98 -18.5 -155.5t-67.5 -102.5q-49 -44 -93 -58l-12 28q78 39 96 131
q10 60 10 190v341q0 63 -14 77.5t-75 19.5v28h259z" />
    <glyph glyph-name="ij" unicode="&#x133;" horiz-adv-x="522" 
d="M135 651h1q21 0 35.5 -15t14.5 -37q0 -21 -15 -36t-36 -15q-19 0 -34.5 15t-15.5 35q0 22 15 37.5t35 15.5zM252 0h-220v26q48 5 59 17t11 63v206q0 46 -9 57t-54 18v24q78 12 142 39v-344q0 -51 11.5 -63t59.5 -17v-26zM391 651h1q20 0 34.5 -15t14.5 -37
q0 -21 -14.5 -36t-35.5 -15q-20 0 -35 15.5t-15 35.5q0 22 14.5 37t35.5 15zM290 388v23q84 13 146 39v-339q0 -97 -23 -161q-23 -66 -60 -120.5t-61 -75.5q-14 -11 -26 -11q-11 0 -23.5 13.5t-12.5 30.5q0 19 21 23q54 13 73 38q16 20 25 72q8 56 8 193v195q0 50 -10 61.5
t-57 18.5z" />
    <glyph glyph-name="Jcircumflex" unicode="&#x134;" horiz-adv-x="329" 
d="M303 650v-28q-58 -5 -71.5 -19.5t-13.5 -77.5v-374q0 -98 -18.5 -155.5t-67.5 -102.5q-49 -44 -93 -58l-12 28q78 39 96 131q10 60 10 190v341q0 63 -14 77.5t-75 19.5v28h259zM309 709l-16 -25q-50 21 -121 62q-79 -45 -120 -62l-16 25q93 71 126 107h22
q36 -38 125 -107z" />
    <glyph glyph-name="jcircumflex" unicode="&#x135;" horiz-adv-x="258" 
d="M237 528l-21 -15q-48 47 -86 95q-46 -56 -87 -95l-22 15q54 75 97 159h23q49 -91 96 -159zM33 390v21q87 13 149 39v-340q0 -97 -23 -161q-23 -66 -60 -120.5t-61 -75.5q-12 -11 -26 -11q-11 0 -22.5 12.5t-11.5 29.5q0 19 20 23q52 13 72 38q16 19 25 73q8 57 8 194v196
q0 51 -11 63.5t-59 18.5z" />
    <glyph glyph-name="Kcommaaccent" unicode="&#x136;" horiz-adv-x="673" 
d="M667 0h-153q-58 64 -248 291q-28 32 -54 27v-189q0 -65 14.5 -80.5t77.5 -20.5v-28h-260v28q58 5 71 20.5t13 80.5v391q0 48 -6 66.5t-22 25.5t-59 10v28h258v-28q-59 -5 -73 -20.5t-14 -81.5v-175q29 6 70 45q101 97 167 178q23 27 20 37t-36 14l-23 3v28h240v-28
q-57 -5 -86 -18.5t-76 -56.5q-40 -35 -177 -175q98 -124 235 -272q39 -41 61.5 -54t59.5 -18v-28zM362 -22h1q29 0 51 -22.5t22 -56.5q0 -80 -106 -106l-9 28q60 24 60 56q0 29 -45 40q-15 6 -15 24q0 17 12.5 27t28.5 10z" />
    <glyph glyph-name="kcommaaccent" unicode="&#x137;" horiz-adv-x="496" 
d="M510 0l-132 -1q-21 22 -48 54t-64.5 78t-53.5 65q-19 22 -31 21q-6 1 -16 -2v-111q0 -49 11.5 -61t60.5 -17v-26h-223v26q50 4 61.5 17t11.5 61v472q0 50 -10 61.5t-56 15.5v24q57 6 144 35v-471q38 8 63 34q31 31 71 88q16 23 10.5 31.5t-40.5 12.5v26l204 9v-25
q-51 -8 -75.5 -19t-53.5 -39q-28 -29 -86 -95q19 -26 75 -92t81 -91q30 -30 49.5 -42t46.5 -13v-26zM264 -32h1q29 0 51 -22.5t22 -56.5q0 -80 -106 -106l-9 28q60 24 60 56q0 29 -45 40q-15 6 -15 24q0 17 12.5 27t28.5 10z" />
    <glyph glyph-name="kgreenlandic" unicode="&#x138;" horiz-adv-x="525" 
d="M520 0h-136q-36 38 -155 190q-19 26 -44 16v-98q0 -52 11 -65t58 -17v-26h-218v26q48 4 59 16.5t11 64.5v215q0 49 -10.5 61.5t-56.5 16.5v25q75 7 146 25v-216q25 5 50 25q63 57 103 106q27 36 -12 42l-17 3v26h197v-26q-38 -4 -61.5 -13t-54.5 -35q-28 -23 -113 -106
q78 -104 150 -179q29 -28 46 -37.5t47 -13.5v-26z" />
    <glyph glyph-name="Lacute" unicode="&#x139;" horiz-adv-x="538" 
d="M495 163l30 -6q-19 -99 -36 -157h-453v28q63 5 77.5 20t14.5 78v400q0 63 -13 77t-75 19v28h261v-28q-60 -5 -74 -19t-14 -77v-395q0 -41 5 -59t18 -25q24 -13 96 -13q85 0 112 31q30 33 51 98zM319 756l-2 -8l-185 -64l-13 25q17 11 157 102q9 -1 25 -22.5t18 -32.5z
" />
    <glyph glyph-name="lacute" unicode="&#x13a;" horiz-adv-x="253" 
d="M238 0h-223v26q48 5 60 17t12 61v473q0 50 -10.5 60.5t-58.5 15.5v24q73 8 148 35v-608q0 -49 11.5 -61t60.5 -17v-26zM250 805l-2 -8l-185 -64l-13 25q17 11 157 102q9 -1 25 -22.5t18 -32.5z" />
    <glyph glyph-name="Lcommaaccent" unicode="&#x13b;" horiz-adv-x="538" 
d="M495 163l30 -6q-19 -99 -36 -157h-453v28q63 5 77.5 20t14.5 78v400q0 63 -13 77t-75 19v28h261v-28q-60 -5 -74 -19t-14 -77v-395q0 -41 5 -59t18 -25q24 -13 96 -13q85 0 112 31q30 33 51 98zM293 -34h1q29 0 51 -22.5t22 -56.5q0 -80 -106 -106l-9 28q60 24 60 56
q0 29 -45 40q-15 6 -15 24q0 17 12.5 27t28.5 10z" />
    <glyph glyph-name="lcommaaccent" unicode="&#x13c;" horiz-adv-x="253" 
d="M238 0h-223v26q48 5 60 17t12 61v473q0 50 -10.5 60.5t-58.5 15.5v24q73 8 148 35v-608q0 -49 11.5 -61t60.5 -17v-26zM115 -34h1q29 0 51 -22.5t22 -56.5q0 -80 -106 -106l-9 28q60 24 60 56q0 29 -45 40q-15 6 -15 24q0 17 12.5 27t28.5 10z" />
    <glyph glyph-name="Lcaron" unicode="&#x13d;" horiz-adv-x="538" 
d="M495 163l30 -6q-19 -99 -36 -157h-453v28q63 5 77.5 20t14.5 78v400q0 63 -13 77t-75 19v28h261v-28q-60 -5 -74 -19t-14 -77v-395q0 -41 5 -59t18 -25q24 -13 96 -13q85 0 112 31q30 33 51 98zM384 656h1q25 0 42.5 -22.5t17.5 -57.5q0 -79 -86 -105l-10 27q45 23 45 57
q0 29 -32 39q-13 4 -13 25q0 17 10.5 27t24.5 10z" />
    <glyph glyph-name="lcaron" unicode="&#x13e;" horiz-adv-x="253" 
d="M238 0h-223v26q48 5 60 17t12 61v473q0 50 -10.5 60.5t-58.5 15.5v24q73 8 148 35v-608q0 -49 11.5 -61t60.5 -17v-26zM248 712h1q25 0 42.5 -22.5t17.5 -57.5q0 -79 -86 -105l-10 27q45 23 45 57q0 29 -32 39q-13 4 -13 25q0 17 10.5 27t24.5 10z" />
    <glyph glyph-name="Ldot" unicode="&#x13f;" horiz-adv-x="538" 
d="M495 163l30 -6q-19 -99 -36 -157h-453v28q63 5 77.5 20t14.5 78v400q0 63 -13 77t-75 19v28h261v-28q-60 -5 -74 -19t-14 -77v-395q0 -41 5 -59t18 -25q24 -13 96 -13q85 0 112 31q30 33 51 98zM361 406h1q21 0 35.5 -15.5t14.5 -37.5q0 -21 -14.5 -36t-36.5 -15
t-36.5 15t-14.5 36q0 23 14.5 38t36.5 15z" />
    <glyph glyph-name="ldot" unicode="&#x140;" horiz-adv-x="271" 
d="M262 407h1q20 0 34 -14.5t14 -36.5q0 -21 -14 -35.5t-35 -14.5q-20 0 -34.5 15t-14.5 35q0 21 14.5 36t34.5 15zM238 0h-221v26q48 5 59 17t11 62v472q0 51 -10 62t-58 15v24q70 8 147 35v-608q0 -50 11.5 -62t60.5 -17v-26z" />
    <glyph glyph-name="Lslash" unicode="&#x141;" horiz-adv-x="550" 
d="M506 165l30 -5q-28 -135 -36 -160h-454v27q64 4 79 20.5t15 82.5v147l-98 -73v45l98 74v198q0 64 -14 80t-74 21v28h261v-28q-60 -5 -74 -21t-14 -80v-137l125 94v-47l-125 -95v-196q0 -45 4.5 -65.5t18.5 -27.5q22 -13 94 -13q47 0 72 6t41 25q26 27 51 100z" />
    <glyph glyph-name="lslash" unicode="&#x142;" horiz-adv-x="273" 
d="M271 462l-91 -76v-278q0 -52 12 -64.5t62 -17.5v-26h-227v26q50 5 62 17.5t12 64.5v214l-74 -61v46l74 61v215q0 47 -10.5 58t-59.5 16v23q87 10 149 35v-284l91 77v-46z" />
    <glyph glyph-name="Nacute" unicode="&#x143;" horiz-adv-x="743" 
d="M719 650v-28q-43 -2 -62 -15t-22 -44q-6 -47 -6 -169v-403h-31l-426 524h-2v-251q0 -111 6 -169q4 -37 24 -50.5t72 -16.5v-28h-237v28q45 3 64.5 16.5t23.5 48.5q6 62 6 171v220q0 53 -3 67.5t-17 33.5q-16 19 -34.5 26.5t-54.5 10.5v28h147l418 -501h3v245
q0 117 -7 166q-4 33 -24.5 46t-73.5 16v28h236zM509 756l-2 -8l-185 -64l-13 25q17 11 157 102q9 -1 25 -22.5t18 -32.5z" />
    <glyph glyph-name="nacute" unicode="&#x144;" horiz-adv-x="547" 
d="M524 0h-209v26q44 5 55 18t11 65v166q0 114 -91 114q-50 0 -109 -51v-234q0 -50 10 -61.5t55 -16.5v-26h-217v26q51 5 62 17t11 61v206q0 47 -9 58t-51 19v23q83 16 139 41v-80q21 15 67 47q47 30 83 30q60 0 94.5 -39.5t34.5 -111.5v-193q0 -50 10 -61.5t54 -16.5v-26z
M390 657l-123 -172l-26 13q26 58 67 157q7 3 38.5 7.5t40.5 3.5z" />
    <glyph glyph-name="Ncommaaccent" unicode="&#x145;" horiz-adv-x="743" 
d="M719 650v-28q-43 -2 -62 -15t-22 -44q-6 -47 -6 -169v-403h-31l-426 524h-2v-251q0 -111 6 -169q4 -37 24 -50.5t72 -16.5v-28h-237v28q45 3 64.5 16.5t23.5 48.5q6 62 6 171v220q0 53 -3 67.5t-17 33.5q-16 19 -34.5 26.5t-54.5 10.5v28h147l418 -501h3v245
q0 117 -7 166q-4 33 -24.5 46t-73.5 16v28h236zM385 -13h1q29 0 51 -22.5t22 -56.5q0 -80 -106 -106l-9 28q60 24 60 56q0 29 -45 40q-15 6 -15 24q0 17 12.5 27t28.5 10z" />
    <glyph glyph-name="ncommaaccent" unicode="&#x146;" horiz-adv-x="547" 
d="M524 0h-209v26q44 5 55 18t11 65v166q0 114 -91 114q-50 0 -109 -51v-234q0 -50 10 -61.5t55 -16.5v-26h-217v26q51 5 62 17t11 61v206q0 47 -9 58t-51 19v23q83 16 139 41v-80q21 15 67 47q47 30 83 30q60 0 94.5 -39.5t34.5 -111.5v-193q0 -50 10 -61.5t54 -16.5v-26z
M283 -43h1q29 0 51 -22.5t22 -56.5q0 -80 -106 -106l-9 28q60 24 60 56q0 29 -45 40q-15 6 -15 24q0 17 12.5 27t28.5 10z" />
    <glyph glyph-name="Ncaron" unicode="&#x147;" horiz-adv-x="743" 
d="M719 650v-28q-43 -2 -62 -15t-22 -44q-6 -47 -6 -169v-403h-31l-426 524h-2v-251q0 -111 6 -169q4 -37 24 -50.5t72 -16.5v-28h-237v28q45 3 64.5 16.5t23.5 48.5q6 62 6 171v220q0 53 -3 67.5t-17 33.5q-16 19 -34.5 26.5t-54.5 10.5v28h147l418 -501h3v245
q0 117 -7 166q-4 33 -24.5 46t-73.5 16v28h236zM496 806l15 -25q-86 -66 -125 -108h-22q-40 42 -126 108l16 25q68 -29 121 -62q68 40 121 62z" />
    <glyph glyph-name="ncaron" unicode="&#x148;" horiz-adv-x="547" 
d="M524 0h-209v26q44 5 55 18t11 65v166q0 114 -91 114q-50 0 -109 -51v-234q0 -50 10 -61.5t55 -16.5v-26h-217v26q51 5 62 17t11 61v206q0 47 -9 58t-51 19v23q83 16 139 41v-80q21 15 67 47q47 30 83 30q60 0 94.5 -39.5t34.5 -111.5v-193q0 -50 10 -61.5t54 -16.5v-26z
M361 670l25 -17q-53 -73 -101 -163h-25q-44 84 -99 163l25 17q45 -43 87 -97q46 56 88 97z" />
    <glyph glyph-name="napostrophe" unicode="&#x149;" horiz-adv-x="543" 
d="M51 710h1q33 0 60.5 -25.5t27.5 -67.5q0 -45 -36 -75t-86 -41l-8 22q69 30 69 76q0 23 -16 37.5t-40 19.5q-13 2 -13 18q0 17 13.5 26.5t27.5 9.5zM521 0h-208v23q44 5 55 18.5t11 67.5v165q0 115 -90 115q-51 0 -111 -54v-233q0 -49 10.5 -61.5t54.5 -17.5v-23h-217v23
q47 5 60 18t13 62v208q0 48 -9.5 59t-52.5 19v21q75 12 141 41v-81q25 19 68 48q47 30 83 30q60 0 94.5 -39.5t34.5 -111.5v-195q0 -49 10.5 -61.5t52.5 -17.5v-23z" />
    <glyph glyph-name="Eng" unicode="&#x14a;" horiz-adv-x="736" 
d="M712 650v-28q-43 -2 -61.5 -14.5t-22.5 -44.5q-6 -62 -6 -174v-287q2 -184 -36 -249q-36 -64 -93 -64q-17 0 -31 15.5t-14 36.5q0 19 14 19q4 0 16.5 -2.5t23.5 -2.5q30 0 52.5 35t23.5 119l-405 503h-2v-243q0 -116 6 -174q4 -38 24 -51t72 -16v-28h-238v28
q44 2 63.5 15.5t23.5 49.5q7 54 7 176v210q0 54 -3 71t-17 35q-16 19 -34.5 26.5t-54.5 10.5v28h147l410 -499h3v238q0 106 -7 171q-4 34 -24.5 46.5t-73.5 15.5v28h237z" />
    <glyph glyph-name="eng" unicode="&#x14b;" horiz-adv-x="541" 
d="M180 451v-81q25 19 68 48q47 30 82 30q60 0 94.5 -40t34.5 -111v-177q0 -87 -16 -144q-15 -58 -54 -106q-47 -61 -90 -61q-14 0 -27 15.5t-13 33.5q0 20 13 20q5 0 22.5 -5t27.5 -5q25 0 38 19q20 33 20 145v240q0 115 -90 115q-51 0 -110 -51v-231q0 -50 10.5 -62.5
t56.5 -16.5v-26h-219v26q51 5 62 17t11 62v203q0 48 -9 59.5t-52 19.5v23q85 16 140 41z" />
    <glyph glyph-name="Omacron" unicode="&#x14c;" horiz-adv-x="747" 
d="M380 665h1q131 0 226.5 -93t95.5 -239q0 -158 -96 -253t-238 -95q-137 0 -231 95t-94 238q0 142 92.5 244.5t243.5 102.5zM360 629h-1q-89 0 -151 -74.5t-62 -208.5q0 -141 69 -233t175 -92q90 0 150.5 74t60.5 211q0 152 -69 237.5t-172 85.5zM487 717h-223v52h223v-52z
" />
    <glyph glyph-name="omacron" unicode="&#x14d;" horiz-adv-x="510" 
d="M256 448h1q92 0 154 -65t62 -158q0 -112 -67 -174.5t-150 -62.5q-98 0 -158.5 66t-60.5 154q0 59 21 106.5t54.5 75.5t70.5 43t73 15zM245 415h-1q-48 0 -81 -47t-33 -128q0 -96 37.5 -157.5t99.5 -61.5q113 0 113 183q0 91 -35.5 151t-99.5 60zM365 532h-220v54h220v-54
z" />
    <glyph glyph-name="Obreve" unicode="&#x14e;" horiz-adv-x="747" 
d="M380 665h1q131 0 226.5 -93t95.5 -239q0 -158 -96 -253t-238 -95q-137 0 -231 95t-94 238q0 142 92.5 244.5t243.5 102.5zM360 629h-1q-89 0 -151 -74.5t-62 -208.5q0 -141 69 -233t175 -92q90 0 150.5 74t60.5 211q0 152 -69 237.5t-172 85.5zM455 819h30
q-1 -58 -32.5 -88t-84.5 -30t-84.5 30t-32.5 88h30q16 -61 87 -61t87 61z" />
    <glyph glyph-name="obreve" unicode="&#x14f;" horiz-adv-x="510" 
d="M256 448h1q92 0 154 -65t62 -158q0 -112 -67 -174.5t-150 -62.5q-98 0 -158.5 66t-60.5 154q0 59 21 106.5t54.5 75.5t70.5 43t73 15zM245 415h-1q-48 0 -81 -47t-33 -128q0 -96 37.5 -157.5t99.5 -61.5q113 0 113 183q0 91 -35.5 151t-99.5 60zM330 636h30
q0 -73 -31 -105t-80 -32h-1q-49 0 -79.5 32t-30.5 105h30q11 -79 80 -79q71 0 82 79z" />
    <glyph glyph-name="Ohungarumlaut" unicode="&#x150;" horiz-adv-x="747" 
d="M380 665h1q131 0 226.5 -93t95.5 -239q0 -158 -96 -253t-238 -95q-137 0 -231 95t-94 238q0 142 92.5 244.5t243.5 102.5zM360 629h-1q-89 0 -151 -74.5t-62 -208.5q0 -141 69 -233t175 -92q90 0 150.5 74t60.5 211q0 152 -69 237.5t-172 85.5zM550 797l-98 -112l-25 14
q18 43 50 123q14 1 38 -3.5t34 -9.5zM408 797l-98 -112l-25 14q10 25 28 67.5t23 55.5q14 1 38 -4t33 -10z" />
    <glyph glyph-name="ohungarumlaut" unicode="&#x151;" horiz-adv-x="510" 
d="M256 448h1q92 0 154 -65t62 -158q0 -112 -67 -174.5t-150 -62.5q-98 0 -158.5 66t-60.5 154q0 59 21 106.5t54.5 75.5t70.5 43t73 15zM245 415h-1q-48 0 -81 -47t-33 -128q0 -96 37.5 -157.5t99.5 -61.5q113 0 113 183q0 91 -35.5 151t-99.5 60zM281 657l-97 -173l-28 9
q43 151 45 161q9 3 38.5 8t38.5 4zM419 657l-97 -173l-28 9q45 160 45 161q9 3 38.5 8t38.5 4z" />
    <glyph glyph-name="OE" unicode="&#x152;" horiz-adv-x="973" 
d="M920 161l30 -4q-17 -92 -35 -157h-306q-57 0 -102 -4q-75 -7 -101 -7q-89 0 -159.5 27t-113.5 73.5t-65.5 104.5t-22.5 123q0 154 109 249t273 95q27 0 95 -6q57 -5 93 -5h276q2 -59 9 -142l-30 -3q-14 61 -30 83q-11 15 -35 21t-78 6h-77q-22 0 -27 -4.5t-5 -25.5v-228
h99q62 0 77 12t24 61h30v-190h-30q-10 53 -24.5 65t-76.5 12h-99v-184q0 -69 24 -85q20 -13 103 -13q58 0 84 6.5t43 25.5q24 26 48 94zM533 110v436q0 49 -18 59q-35 21 -99 21q-126 0 -197.5 -79.5t-71.5 -216.5q0 -61 15 -114t45.5 -97t84.5 -69.5t125 -25.5q51 0 81 14
q20 10 27.5 25t7.5 47z" />
    <glyph glyph-name="oe" unicode="&#x153;" horiz-adv-x="770" 
d="M252 448h1q54 0 98.5 -27t69.5 -73q28 43 75 71.5t94 28.5q63 0 108.5 -45.5t45.5 -104.5q0 -18 -4.5 -24.5t-17.5 -9.5q-50 -10 -269 -17q-1 -96 44.5 -144t111.5 -48q55 0 113 51l15 -22q-38 -52 -83 -74t-78 -22q-109 0 -162 87q-31 -42 -74.5 -64.5t-88.5 -22.5
q-96 0 -155 67t-59 153q0 59 21.5 106.5t54.5 75.5t69 43t70 15zM565 411h-1q-36 0 -67 -33.5t-38 -91.5q20 0 55.5 0.5t66 1t57.5 1.5q20 0 20 23q0 43 -26 71t-67 28zM244 414h-1q-47 0 -79.5 -46.5t-32.5 -126.5q0 -98 36.5 -158.5t98.5 -60.5q47 0 78.5 45t31.5 140
q0 92 -34.5 149.5t-97.5 57.5z" />
    <glyph glyph-name="Racute" unicode="&#x154;" horiz-adv-x="621" 
d="M631 18l-4 -26q-24 0 -35 1q-57 3 -92.5 23t-69.5 68q-21 30 -101 160q-13 22 -30.5 31t-54.5 9h-32v-159q0 -62 14 -77t74 -20v-28h-262v28q62 5 76 19.5t14 77.5v401q0 63 -13 77t-73 19v28h248q109 0 159 -34q67 -42 67 -131q0 -115 -127 -172q27 -52 89 -144
q49 -71 81 -104q31 -36 72 -47zM212 316h48q73 0 108 29q55 42 55 124q0 76 -42 112t-104 36q-41 0 -54 -10q-11 -7 -11 -44v-247zM433 756l-2 -8l-185 -64l-13 25q17 11 157 102q9 -1 25 -22.5t18 -32.5z" />
    <glyph glyph-name="racute" unicode="&#x155;" horiz-adv-x="371" 
d="M181 342h2q64 106 121 106q24 0 41 -16t17 -34q0 -34 -32 -49q-17 -7 -26 2q-21 20 -43 20q-20 0 -42 -22t-38 -63v-182q0 -50 12.5 -62t69.5 -16v-26h-230v26q47 5 58 17t11 60v207q0 49 -9 60.5t-53 16.5v23q74 12 141 40v-108zM324 657l-123 -172l-26 13q26 58 67 157
q7 3 38.5 7.5t40.5 3.5z" />
    <glyph glyph-name="Rcommaaccent" unicode="&#x156;" horiz-adv-x="621" 
d="M631 18l-4 -26q-24 0 -35 1q-57 3 -92.5 23t-69.5 68q-21 30 -101 160q-13 22 -30.5 31t-54.5 9h-32v-159q0 -62 14 -77t74 -20v-28h-262v28q62 5 76 19.5t14 77.5v401q0 63 -13 77t-73 19v28h248q109 0 159 -34q67 -42 67 -131q0 -115 -127 -172q27 -52 89 -144
q49 -71 81 -104q31 -36 72 -47zM212 316h48q73 0 108 29q55 42 55 124q0 76 -42 112t-104 36q-41 0 -54 -10q-11 -7 -11 -44v-247zM342 -21h1q29 0 51 -22.5t22 -56.5q0 -80 -106 -106l-9 28q60 24 60 56q0 29 -45 40q-15 6 -15 24q0 17 12.5 27t28.5 10z" />
    <glyph glyph-name="rcommaaccent" unicode="&#x157;" horiz-adv-x="371" 
d="M181 342h2q64 106 121 106q24 0 41 -16t17 -34q0 -34 -32 -49q-17 -7 -26 2q-21 20 -43 20q-20 0 -42 -22t-38 -63v-182q0 -50 12.5 -62t69.5 -16v-26h-230v26q47 5 58 17t11 60v207q0 49 -9 60.5t-53 16.5v23q74 12 141 40v-108zM140 -37h1q29 0 51 -22.5t22 -56.5
q0 -80 -106 -106l-9 28q60 24 60 56q0 29 -45 40q-15 6 -15 24q0 17 12.5 27t28.5 10z" />
    <glyph glyph-name="Rcaron" unicode="&#x158;" horiz-adv-x="621" 
d="M631 18l-4 -26q-24 0 -35 1q-57 3 -92.5 23t-69.5 68q-21 30 -101 160q-13 22 -30.5 31t-54.5 9h-32v-159q0 -62 14 -77t74 -20v-28h-262v28q62 5 76 19.5t14 77.5v401q0 63 -13 77t-73 19v28h248q109 0 159 -34q67 -42 67 -131q0 -115 -127 -172q27 -52 89 -144
q49 -71 81 -104q31 -36 72 -47zM212 316h48q73 0 108 29q55 42 55 124q0 76 -42 112t-104 36q-41 0 -54 -10q-11 -7 -11 -44v-247zM406 821l15 -25q-86 -66 -125 -108h-22q-40 42 -126 108l16 25q68 -29 121 -62q68 40 121 62z" />
    <glyph glyph-name="rcaron" unicode="&#x159;" horiz-adv-x="371" 
d="M181 342h2q64 106 121 106q24 0 41 -16t17 -34q0 -34 -32 -49q-17 -7 -26 2q-21 20 -43 20q-20 0 -42 -22t-38 -63v-182q0 -50 12.5 -62t69.5 -16v-26h-230v26q47 5 58 17t11 60v207q0 49 -9 60.5t-53 16.5v23q74 12 141 40v-108zM296 664l25 -17q-53 -73 -101 -163h-25
q-44 84 -99 163l25 17q45 -43 87 -97q46 56 88 97z" />
    <glyph glyph-name="Sacute" unicode="&#x15a;" horiz-adv-x="474" 
d="M409 504l-29 -5q-16 60 -44.5 96t-86.5 36q-54 0 -82.5 -32t-28.5 -77q0 -51 30.5 -82.5t96.5 -65.5q26 -13 35.5 -18t33 -19.5t33.5 -23.5t27 -25.5t24.5 -32t13.5 -36.5t6 -45q0 -80 -62 -134.5t-160 -54.5q-47 0 -98 15q-29 10 -50 21q-8 23 -27 155l30 7
q7 -27 18 -52t30 -51.5t49 -42.5t67 -16q56 0 88 32.5t32 87.5q0 51 -31.5 82t-98.5 67q-80 44 -110 73q-55 53 -55 124q0 75 56 126.5t150 51.5q53 0 126 -23q4 -33 17 -138zM382 764l-2 -8l-185 -64l-13 25q17 11 157 102q9 -1 25 -22.5t18 -32.5z" />
    <glyph glyph-name="sacute" unicode="&#x15b;" horiz-adv-x="367" 
d="M319 324l-25 -7q-33 99 -103 99q-29 0 -47 -19.5t-18 -49.5t22 -49.5t62 -36.5q63 -26 95 -56.5t32 -78.5q0 -64 -50 -101t-115 -37q-35 0 -67.5 10.5t-46.5 23.5q-5 11 -11 51t-6 67l27 4q14 -52 46.5 -87.5t75.5 -35.5q29 0 50 19.5t21 50.5t-19 51t-60 39
q-29 13 -46 23t-38 26.5t-31 38.5t-10 49q0 54 42.5 92t109.5 38q48 0 88 -18q17 -41 22 -106zM302 657l-123 -172l-26 13q26 58 67 157q7 3 38.5 7.5t40.5 3.5z" />
    <glyph glyph-name="Scircumflex" unicode="&#x15c;" horiz-adv-x="474" 
d="M409 504l-29 -5q-16 60 -44.5 96t-86.5 36q-54 0 -82.5 -32t-28.5 -77q0 -51 30.5 -82.5t96.5 -65.5q26 -13 35.5 -18t33 -19.5t33.5 -23.5t27 -25.5t24.5 -32t13.5 -36.5t6 -45q0 -80 -62 -134.5t-160 -54.5q-47 0 -98 15q-29 10 -50 21q-8 23 -27 155l30 7
q7 -27 18 -52t30 -51.5t49 -42.5t67 -16q56 0 88 32.5t32 87.5q0 51 -31.5 82t-98.5 67q-80 44 -110 73q-55 53 -55 124q0 75 56 126.5t150 51.5q53 0 126 -23q4 -33 17 -138zM386 715l-16 -25q-51 21 -121 62q-79 -45 -120 -62l-16 25q93 71 126 107h22q36 -38 125 -107z
" />
    <glyph glyph-name="scircumflex" unicode="&#x15d;" horiz-adv-x="367" 
d="M319 324l-25 -7q-33 99 -103 99q-29 0 -47 -19.5t-18 -49.5t22 -49.5t62 -36.5q63 -26 95 -56.5t32 -78.5q0 -64 -50 -101t-115 -37q-35 0 -67.5 10.5t-46.5 23.5q-5 11 -11 51t-6 67l27 4q14 -52 46.5 -87.5t75.5 -35.5q29 0 50 19.5t21 50.5t-19 51t-60 39
q-29 13 -46 23t-38 26.5t-31 38.5t-10 49q0 54 42.5 92t109.5 38q48 0 88 -18q17 -41 22 -106zM301 504l-25 -17q-40 38 -87 97q-51 -63 -89 -97l-24 17q49 68 101 163h25q47 -89 99 -163z" />
    <glyph glyph-name="uni015E" unicode="&#x15e;" horiz-adv-x="477" 
d="M411 503l-29 -4q-16 61 -44.5 97t-86.5 36q-52 0 -81 -31.5t-29 -75.5q0 -52 30.5 -84.5t96.5 -64.5q38 -18 61 -31.5t52 -38t43.5 -57t14.5 -73.5q0 -68 -43.5 -117.5t-116.5 -64.5l-14 -23q-8 -13 -7 -20.5t14 -19.5q38 -38 38 -68q0 -31 -30.5 -57.5t-82.5 -42.5
l-13 26q62 27 62 59q0 14 -24 38q-19 19 -22 31t10 33l28 36q-6 -1 -18 -1q-52 1 -101 15q-30 10 -52 21q-13 33 -27 156l28 6q8 -27 19 -51.5t31 -51.5t51 -43t70 -16q54 0 85.5 32.5t31.5 87.5q0 37 -19.5 66.5t-42.5 45.5t-66 39q-29 15 -42.5 22.5t-41.5 27.5t-42.5 38
t-27 47t-12.5 62q0 74 56.5 125t149.5 51q52 0 125 -23q2 -19 8.5 -66t9.5 -73z" />
    <glyph glyph-name="uni015F" unicode="&#x15f;" horiz-adv-x="366" 
d="M320 324l-26 -7q-15 46 -41.5 72.5t-61.5 26.5q-29 0 -47 -18.5t-18 -47.5q0 -51 85 -87q62 -27 94 -58t32 -79q0 -51 -31 -84.5t-80 -44.5l-17 -25q-9 -13 -7.5 -20.5t14.5 -20.5q35 -34 35 -66q0 -30 -29.5 -56.5t-79.5 -42.5l-10 27q58 26 58 58q0 16 -23 37
q-20 18 -22.5 30.5t10.5 30.5l31 40q-5 -1 -16 -1q-35 0 -68 11.5t-47 25.5q-5 12 -10 51.5t-6 66.5l27 4q14 -53 47.5 -89.5t76.5 -36.5q29 0 50 18.5t21 50.5t-19.5 53t-60.5 41q-56 24 -90 54.5t-34 80.5q0 54 42 91.5t110 37.5q48 0 88 -18q18 -47 23 -106z" />
    <glyph glyph-name="Scaron" unicode="&#x160;" horiz-adv-x="474" 
d="M409 504l-29 -5q-16 60 -44.5 96t-86.5 36q-54 0 -82.5 -32t-28.5 -77q0 -51 30.5 -82.5t96.5 -65.5q26 -13 35.5 -18t33 -19.5t33.5 -23.5t27 -25.5t24.5 -32t13.5 -36.5t6 -45q0 -80 -62 -134.5t-160 -54.5q-47 0 -98 15q-29 10 -50 21q-8 23 -27 155l30 7
q7 -27 18 -52t30 -51.5t49 -42.5t67 -16q56 0 88 32.5t32 87.5q0 51 -31.5 82t-98.5 67q-80 44 -110 73q-55 53 -55 124q0 75 56 126.5t150 51.5q53 0 126 -23q4 -33 17 -138zM369 830l15 -25q-86 -66 -125 -108h-22q-40 42 -126 108l16 25q68 -29 121 -62q68 40 121 62z
" />
    <glyph glyph-name="scaron" unicode="&#x161;" horiz-adv-x="367" 
d="M319 324l-25 -7q-33 99 -103 99q-29 0 -47 -19.5t-18 -49.5t22 -49.5t62 -36.5q63 -26 95 -56.5t32 -78.5q0 -64 -50 -101t-115 -37q-35 0 -67.5 10.5t-46.5 23.5q-5 11 -11 51t-6 67l27 4q14 -52 46.5 -87.5t75.5 -35.5q29 0 50 19.5t21 50.5t-19 51t-60 39
q-29 13 -46 23t-38 26.5t-31 38.5t-10 49q0 54 42.5 92t109.5 38q48 0 88 -18q17 -41 22 -106zM277 665l25 -17q-53 -73 -101 -163h-25q-44 84 -99 163l25 17q45 -43 87 -97q46 56 88 97z" />
    <glyph glyph-name="Tcommaaccent" unicode="&#x162;" horiz-adv-x="617" 
d="M592 498l-30 -3q-13 62 -31 90q-13 18 -33.5 24.5t-75.5 6.5h-70v-493q0 -59 16 -75t86 -20v-28h-286v28q68 4 83.5 19.5t15.5 75.5v493h-62q-60 0 -83 -6.5t-33 -24.5q-12 -17 -32 -90h-29q10 119 12 180h20q10 -16 21 -20.5t34 -4.5h395q19 0 28.5 5t21.5 20h21
q2 -90 11 -177zM301 -36h1q29 0 51 -22.5t22 -56.5q0 -80 -106 -106l-9 28q60 24 60 56q0 29 -45 40q-15 6 -15 24q0 17 12.5 27t28.5 10z" />
    <glyph glyph-name="tcommaaccent" unicode="&#x163;" horiz-adv-x="305" 
d="M298 36l-68 -35q-25 -13 -42 -13q-98 0 -98 118v290h-69l-4 11l28 29h45v72l65 67l14 -2v-137h113q8 -8 6 -21t-12 -19h-107v-256q0 -95 59 -95q31 0 61 16zM167 -46h1q29 0 51 -22.5t22 -56.5q0 -80 -106 -106l-9 28q60 24 60 56q0 29 -45 40q-15 6 -15 24q0 17 12.5 27
t28.5 10z" />
    <glyph glyph-name="Tcaron" unicode="&#x164;" horiz-adv-x="617" 
d="M592 498l-30 -3q-13 62 -31 90q-13 18 -33.5 24.5t-75.5 6.5h-70v-493q0 -59 16 -75t86 -20v-28h-286v28q68 4 83.5 19.5t15.5 75.5v493h-62q-60 0 -83 -6.5t-33 -24.5q-12 -17 -32 -90h-29q10 119 12 180h20q10 -16 21 -20.5t34 -4.5h395q19 0 28.5 5t21.5 20h21
q2 -90 11 -177zM431 821l15 -25q-86 -66 -125 -108h-22q-40 42 -126 108l16 25q68 -29 121 -62q68 40 121 62z" />
    <glyph glyph-name="tcaron" unicode="&#x165;" horiz-adv-x="305" 
d="M298 36l-68 -35q-25 -13 -42 -13q-98 0 -98 118v290h-69l-4 11l28 29h45v72l65 67l14 -2v-137h113q8 -8 6 -21t-12 -19h-107v-256q0 -95 59 -95q31 0 61 16zM272 695h1q25 0 42.5 -22.5t17.5 -57.5q0 -79 -86 -105l-10 27q45 23 45 57q0 29 -32 39q-13 4 -13 25
q0 17 10.5 27t24.5 10z" />
    <glyph glyph-name="Tbar" unicode="&#x166;" horiz-adv-x="613" 
d="M588 499l-30 -3q-14 66 -29 88q-13 18 -36 24.5t-79 6.5h-64v-265h149v-39h-149v-186q0 -62 16 -78t86 -20v-27h-286v27q68 4 83.5 20.5t15.5 77.5v186h-146v39h146v265h-50q-68 0 -92 -6.5t-34 -24.5q-13 -21 -31 -88h-30q10 117 12 179h21q10 -16 19.5 -20.5t31.5 -4.5
h397q19 0 27 4.5t20 20.5h22q0 -79 10 -176z" />
    <glyph glyph-name="tbar" unicode="&#x167;" horiz-adv-x="303" 
d="M299 37l-71 -37q-23 -12 -40 -12q-98 0 -98 119v118h-67v36h67v135h-69l-4 11l28 29h45v72l65 67l14 -2v-137h113q8 -8 6 -21t-12 -19h-107v-135h101v-36h-101v-84q0 -96 59 -96q29 0 61 17z" />
    <glyph glyph-name="Utilde" unicode="&#x168;" horiz-adv-x="736" 
d="M716 650v-28q-46 -3 -65 -15.5t-22 -43.5q-6 -54 -6 -163v-81q0 -185 -75 -264q-68 -69 -180 -69q-97 0 -160 47q-88 67 -88 239v249q0 66 -13.5 81t-73.5 20v28h258v-28q-59 -4 -72.5 -19t-13.5 -82v-227q0 -123 48 -188.5t140 -65.5q189 0 189 286v75q0 111 -7 165
q-4 29 -24 40.5t-73 15.5v28h238zM338 788h1q22 0 61 -19q35 -16 55 -16q27 0 46 43l25 -14q-28 -85 -82 -85q-24 0 -70 22q-28 14 -44 14q-24 0 -48 -44l-24 17q33 82 80 82z" />
    <glyph glyph-name="utilde" unicode="&#x169;" horiz-adv-x="531" 
d="M518 50v-26q-32 -4 -77 -16t-70 -20l-6 6v72q-49 -38 -74 -53q-43 -25 -77 -25q-55 0 -89.5 36.5t-34.5 112.5v196q0 38 -6.5 49t-26.5 15l-28 6v24q18 1 72 5q59 9 71 11q-3 -31 -3 -144v-135q0 -113 88 -113q59 0 108 48v234q0 38 -8 49t-34 15l-36 6v24q6 0 90 6
q37 4 67 10v-333q0 -37 8.5 -47t38.5 -12zM216 612h1q19 0 58 -20q36 -19 53 -19q23 0 43 45l25 -14q-28 -90 -79 -90q-23 0 -66 24q-26 15 -45 15q-25 0 -44 -48l-26 17q29 90 80 90z" />
    <glyph glyph-name="Umacron" unicode="&#x16a;" horiz-adv-x="736" 
d="M716 650v-28q-46 -3 -65 -15.5t-22 -43.5q-6 -54 -6 -163v-81q0 -185 -75 -264q-68 -69 -180 -69q-97 0 -160 47q-88 67 -88 239v249q0 66 -13.5 81t-73.5 20v28h258v-28q-59 -4 -72.5 -19t-13.5 -82v-227q0 -123 48 -188.5t140 -65.5q189 0 189 286v75q0 111 -7 165
q-4 29 -24 40.5t-73 15.5v28h238zM494 717h-223v52h223v-52z" />
    <glyph glyph-name="umacron" unicode="&#x16b;" horiz-adv-x="531" 
d="M518 50v-26q-32 -4 -77 -16t-70 -20l-6 6v72q-49 -38 -74 -53q-43 -25 -77 -25q-55 0 -89.5 36.5t-34.5 112.5v196q0 38 -6.5 49t-26.5 15l-28 6v24q18 1 72 5q59 9 71 11q-3 -31 -3 -144v-135q0 -113 88 -113q59 0 108 48v234q0 38 -8 49t-34 15l-36 6v24q6 0 90 6
q37 4 67 10v-333q0 -37 8.5 -47t38.5 -12zM376 532h-220v54h220v-54z" />
    <glyph glyph-name="Ubreve" unicode="&#x16c;" horiz-adv-x="736" 
d="M716 650v-28q-46 -3 -65 -15.5t-22 -43.5q-6 -54 -6 -163v-81q0 -185 -75 -264q-68 -69 -180 -69q-97 0 -160 47q-88 67 -88 239v249q0 66 -13.5 81t-73.5 20v28h258v-28q-59 -4 -72.5 -19t-13.5 -82v-227q0 -123 48 -188.5t140 -65.5q189 0 189 286v75q0 111 -7 165
q-4 29 -24 40.5t-73 15.5v28h238zM474 804h30q-1 -58 -32.5 -88t-84.5 -30t-84.5 30t-32.5 88h30q16 -61 87 -61t87 61z" />
    <glyph glyph-name="ubreve" unicode="&#x16d;" horiz-adv-x="531" 
d="M518 50v-26q-32 -4 -77 -16t-70 -20l-6 6v72q-49 -38 -74 -53q-43 -25 -77 -25q-55 0 -89.5 36.5t-34.5 112.5v196q0 38 -6.5 49t-26.5 15l-28 6v24q18 1 72 5q59 9 71 11q-3 -31 -3 -144v-135q0 -113 88 -113q59 0 108 48v234q0 38 -8 49t-34 15l-36 6v24q6 0 90 6
q37 4 67 10v-333q0 -37 8.5 -47t38.5 -12zM342 636h30q0 -73 -31 -105t-80 -32h-1q-49 0 -79.5 32t-30.5 105h30q11 -79 80 -79q71 0 82 79z" />
    <glyph glyph-name="Uring" unicode="&#x16e;" horiz-adv-x="736" 
d="M716 650v-28q-46 -3 -65 -15.5t-22 -43.5q-6 -54 -6 -163v-81q0 -185 -75 -264q-68 -69 -180 -69q-97 0 -160 47q-88 67 -88 239v249q0 66 -13.5 81t-73.5 20v28h258v-28q-59 -4 -72.5 -19t-13.5 -82v-227q0 -123 48 -188.5t140 -65.5q189 0 189 286v75q0 111 -7 165
q-4 29 -24 40.5t-73 15.5v28h238zM387 843h1q35 0 61.5 -23t26.5 -60q0 -38 -26.5 -62t-62.5 -24q-35 0 -61.5 24t-26.5 62q0 37 26.5 60t61.5 23zM387 812h-1q-19 0 -31 -14.5t-12 -37.5q0 -24 12.5 -39.5t31.5 -15.5q20 0 32 15.5t12 39.5q0 23 -12 37.5t-32 14.5z" />
    <glyph glyph-name="uring" unicode="&#x16f;" horiz-adv-x="531" 
d="M518 50v-26q-32 -4 -77 -16t-70 -20l-6 6v72q-49 -38 -74 -53q-43 -25 -77 -25q-55 0 -89.5 36.5t-34.5 112.5v196q0 38 -6.5 49t-26.5 15l-28 6v24q18 1 72 5q59 9 71 11q-3 -31 -3 -144v-135q0 -113 88 -113q59 0 108 48v234q0 38 -8 49t-34 15l-36 6v24q6 0 90 6
q37 4 67 10v-333q0 -37 8.5 -47t38.5 -12zM266 657h1q34 0 60.5 -23t26.5 -61t-26.5 -61.5t-61.5 -23.5q-36 0 -62.5 23.5t-26.5 61.5t26.5 61t62.5 23zM267 626h-1q-19 0 -31.5 -15t-12.5 -38q0 -24 12.5 -39.5t32.5 -15.5t32 15.5t12 39.5t-12 38.5t-32 14.5z" />
    <glyph glyph-name="Uhungarumlaut" unicode="&#x170;" horiz-adv-x="736" 
d="M716 650v-28q-46 -3 -65 -15.5t-22 -43.5q-6 -54 -6 -163v-81q0 -185 -75 -264q-68 -69 -180 -69q-97 0 -160 47q-88 67 -88 239v249q0 66 -13.5 81t-73.5 20v28h258v-28q-59 -4 -72.5 -19t-13.5 -82v-227q0 -123 48 -188.5t140 -65.5q189 0 189 286v75q0 111 -7 165
q-4 29 -24 40.5t-73 15.5v28h238zM550 796l-98 -112l-25 14q18 43 50 123q14 1 38 -3.5t34 -9.5zM408 796l-98 -112l-25 14q10 25 28 67.5t23 55.5q14 1 38 -4t33 -10z" />
    <glyph glyph-name="uhungarumlaut" unicode="&#x171;" horiz-adv-x="531" 
d="M518 50v-26q-32 -4 -77 -16t-70 -20l-6 6v72q-49 -38 -74 -53q-43 -25 -77 -25q-55 0 -89.5 36.5t-34.5 112.5v196q0 38 -6.5 49t-26.5 15l-28 6v24q18 1 72 5q59 9 71 11q-3 -31 -3 -144v-135q0 -113 88 -113q59 0 108 48v234q0 38 -8 49t-34 15l-36 6v24q6 0 90 6
q37 4 67 10v-333q0 -37 8.5 -47t38.5 -12zM292 657l-97 -173l-28 9q43 151 45 161q9 3 38.5 8t38.5 4zM430 657l-97 -173l-28 9q45 160 45 161q9 3 38.5 8t38.5 4z" />
    <glyph glyph-name="Uogonek" unicode="&#x172;" horiz-adv-x="733" 
d="M713 650v-27q-45 -3 -64 -15.5t-22 -43.5q-7 -49 -7 -165v-79q0 -184 -75 -264q-43 -45 -109 -60q-27 -27 -44 -63.5t-17 -62.5q0 -27 15 -39.5t38 -12.5q20 0 48 12l7 -25l-57 -34q-17 -10 -36 -10q-41 0 -62 22.5t-21 53.5q0 66 88 152q-117 -9 -187 46q-88 67 -88 238
v246q0 68 -13.5 83.5t-73.5 20.5v27h259v-27q-60 -4 -73.5 -20t-13.5 -84v-224q0 -122 46.5 -187.5t139.5 -65.5q101 0 144 74t43 211v73q0 113 -7 167q-5 29 -25 40.5t-71 15.5v27h238z" />
    <glyph glyph-name="uogonek" unicode="&#x173;" horiz-adv-x="531" 
d="M518 49v-26q-10 -2 -22 -4l-18 -3q-41 -29 -71 -71t-30 -78q0 -22 14 -34t36 -12q24 0 46 11l8 -24l-56 -33q-18 -11 -36 -11q-38 0 -59 21.5t-21 53.5q0 67 111 164q-9 -2 -27 -7.5t-23 -6.5q-2 4 -5 7v69q-60 -44 -73 -52q-43 -25 -78 -25q-55 0 -89.5 36.5
t-34.5 112.5v195q0 38 -7 49.5t-27 15.5l-28 6v24q21 1 73 5q59 9 71 11q-3 -31 -3 -143v-136q0 -113 88 -113q59 0 108 48v233q0 38 -8 49.5t-34 15.5l-34 6v24q2 0 88 6q37 4 67 10v-334q0 -37 8.5 -47t38.5 -12z" />
    <glyph glyph-name="Wcircumflex" unicode="&#x174;" horiz-adv-x="971" 
d="M956 650v-28q-52 -7 -69 -22.5t-39 -77.5q-60 -175 -165 -533h-31q-17 50 -175 499h-2q-28 -88 -82.5 -253t-80.5 -246h-31q-24 81 -164 535q-18 60 -36 76.5t-65 21.5v28h243v-28q-53 -7 -63 -18.5t3 -49.5q78 -270 122 -412h2q25 78 80 245t82 254h29q33 -98 175 -500
h2q87 277 113 401q12 45 0.5 59t-68.5 21v28h220zM636 704l-16 -25q-51 21 -121 62q-79 -45 -120 -62l-16 25q93 71 126 107h22q36 -38 125 -107z" />
    <glyph glyph-name="wcircumflex" unicode="&#x175;" horiz-adv-x="685" 
d="M696 436v-26q-37 -6 -50.5 -19t-28.5 -55q-35 -93 -120 -347h-29q-23 63 -67.5 174t-54.5 136q-10 -27 -53 -136.5t-66 -173.5h-28q-68 220 -116 356q-13 39 -25.5 49.5t-48.5 15.5v26h207v-26q-45 -7 -53.5 -17t2.5 -44q47 -149 74 -232h2q38 99 116 314h26
q43 -121 120 -317h2q51 160 69 230q10 38 0 48.5t-58 17.5v26h180zM477 501l-25 -17q-40 38 -87 97q-51 -63 -89 -97l-24 17q49 68 101 163h25q47 -89 99 -163z" />
    <glyph glyph-name="Ycircumflex" unicode="&#x176;" horiz-adv-x="634" 
d="M620 650v-28q-51 -6 -70.5 -19t-48.5 -60q-68 -110 -126 -219q-17 -32 -17 -63v-136q0 -63 15.5 -77.5t84.5 -19.5v-28h-283v28q68 5 83 19.5t15 77.5v133q0 22 -21 60q-111 193 -126 219q-31 53 -49 67t-62 18v28h239v-28q-51 -6 -59.5 -18t8.5 -36q33 -62 136 -237
q93 170 118 225q18 37 9 48.5t-67 17.5v28h221zM460 709l-16 -25q-51 21 -121 62q-79 -45 -120 -62l-16 25q93 71 126 107h22q36 -38 125 -107z" />
    <glyph glyph-name="ycircumflex" unicode="&#x177;" horiz-adv-x="459" 
d="M478 436v-26q-39 -6 -53 -17.5t-35 -54.5q-12 -24 -26.5 -59.5t-44 -107.5t-55.5 -134q-86 -203 -103 -269q-6 -25 -32 -25q-21 0 -38.5 15t-17.5 33q0 20 25 36q41 26 75 89q21 40 31 69q7 20 -2 44q-67 191 -114 306q-17 43 -31.5 56.5t-54.5 18.5v26h202l1 -26
q-35 -5 -42 -16t4 -39l90 -250q55 135 92 248q10 28 0.5 39.5t-52.5 17.5v26h181zM357 504l-25 -17q-40 38 -87 97q-51 -63 -89 -97l-24 17q49 68 101 163h25q47 -89 99 -163z" />
    <glyph glyph-name="Ydieresis" unicode="&#x178;" horiz-adv-x="634" 
d="M620 650v-28q-51 -6 -70.5 -19t-48.5 -60q-68 -110 -126 -219q-17 -32 -17 -63v-136q0 -63 15.5 -77.5t84.5 -19.5v-28h-283v28q68 5 83 19.5t15 77.5v133q0 22 -21 60q-111 193 -126 219q-31 53 -49 67t-62 18v28h239v-28q-51 -6 -59.5 -18t8.5 -36q33 -62 136 -237
q93 170 118 225q18 37 9 48.5t-67 17.5v28h221zM422 795h1q20 0 33.5 -14.5t13.5 -35.5q0 -20 -14 -34t-34 -14q-19 0 -33 14.5t-14 33.5q0 21 14 35.5t33 14.5zM231 795h1q20 0 33.5 -14.5t13.5 -35.5q0 -20 -14 -34t-34 -14q-19 0 -33 14.5t-14 33.5q0 21 14 35.5t33 14.5
z" />
    <glyph glyph-name="Zacute" unicode="&#x179;" horiz-adv-x="603" 
d="M561 176l29 -6q-25 -130 -36 -170h-517l-8 15q312 441 420 599h-173q-77 0 -102 -7t-39 -29q-19 -29 -35 -87l-29 1q9 111 12 183h24q9 -16 19 -20.5t34 -4.5h399l7 -14q-279 -395 -413 -594q48 -6 163 -6q94 0 131.5 7.5t58.5 29.5q28 29 55 103zM474 756l-2 -8
l-185 -64l-13 25q17 11 157 102q9 -1 25 -22.5t18 -32.5z" />
    <glyph glyph-name="zacute" unicode="&#x17a;" horiz-adv-x="420" 
d="M387 138l26 -13q-20 -55 -46 -125h-329l-7 15q108 158 249 387h-89q-52 0 -71.5 -13.5t-41.5 -57.5l-14 -27l-25 9q20 70 34 144h21q8 -21 55 -21h230l6 -14q-133 -208 -244 -389h99q54 0 79 16t55 65zM337 657l-123 -172l-26 13q26 58 67 157q7 3 38.5 7.5t40.5 3.5z
" />
    <glyph glyph-name="Zdotaccent" unicode="&#x17b;" horiz-adv-x="603" 
d="M561 176l29 -6q-25 -130 -36 -170h-517l-8 15q312 441 420 599h-173q-77 0 -102 -7t-39 -29q-19 -29 -35 -87l-29 1q9 111 12 183h24q9 -16 19 -20.5t34 -4.5h399l7 -14q-279 -395 -413 -594q48 -6 163 -6q94 0 131.5 7.5t58.5 29.5q28 29 55 103zM319 807h1
q21 0 35.5 -15.5t14.5 -37.5q0 -21 -14.5 -36t-36.5 -15t-36.5 15t-14.5 36q0 23 14.5 38t36.5 15z" />
    <glyph glyph-name="zdotaccent" unicode="&#x17c;" horiz-adv-x="420" 
d="M387 138l26 -13q-20 -55 -46 -125h-329l-7 15q108 158 249 387h-89q-52 0 -71.5 -13.5t-41.5 -57.5l-14 -27l-25 9q20 70 34 144h21q8 -21 55 -21h230l6 -14q-133 -208 -244 -389h99q54 0 79 16t55 65zM221 623h1q21 0 35.5 -15t14.5 -37q0 -21 -15 -36t-36 -15
q-20 0 -35 15.5t-15 35.5q0 21 15 36.5t35 15.5z" />
    <glyph glyph-name="Zcaron" unicode="&#x17d;" horiz-adv-x="603" 
d="M561 176l29 -6q-25 -130 -36 -170h-517l-8 15q312 441 420 599h-173q-77 0 -102 -7t-39 -29q-19 -29 -35 -87l-29 1q9 111 12 183h24q9 -16 19 -20.5t34 -4.5h399l7 -14q-279 -395 -413 -594q48 -6 163 -6q94 0 131.5 7.5t58.5 29.5q28 29 55 103zM440 821l15 -25
q-86 -66 -125 -108h-22q-40 42 -126 108l16 25q68 -29 121 -62q68 40 121 62z" />
    <glyph glyph-name="zcaron" unicode="&#x17e;" horiz-adv-x="420" 
d="M387 138l26 -13q-20 -55 -46 -125h-329l-7 15q108 158 249 387h-89q-52 0 -71.5 -13.5t-41.5 -57.5l-14 -27l-25 9q20 70 34 144h21q8 -21 55 -21h230l6 -14q-133 -208 -244 -389h99q54 0 79 16t55 65zM305 664l25 -17q-53 -73 -101 -163h-25q-44 84 -99 163l25 17
q45 -43 87 -97q46 56 88 97z" />
    <glyph glyph-name="longs" unicode="&#x17f;" horiz-adv-x="267" 
d="M54 436h47v22q0 47 11 82q20 70 76 119q54 46 111 53q53 -2 79 -33q13 -16 7 -34q-5 -14 -23 -27q-13 -8 -26 4q-38 40 -80 40q-35 0 -55 -36q-21 -37 -21 -199v-315q0 -55 10.5 -68t59.5 -18v-26h-215v26q45 5 55.5 17t10.5 60v293h-70l-4 11z" />
    <glyph glyph-name="florin" unicode="&#x192;" horiz-adv-x="480" 
d="M187 370l9 45q21 118 95 182q63 55 112 55q19 0 39 -14t19 -30q0 -13 -13.5 -30t-24.5 -11q-3 2 -14 9t-18.5 11.5t-18.5 8.5t-21 4q-25 0 -39 -31q-20 -38 -40 -199h113l-1 -37h-118l-30 -205q-14 -93 -43 -144t-73 -84q-50 -38 -88 -38q-19 0 -36.5 12.5t-17.5 25.5
q0 12 13.5 30t21.5 18q3 0 27 -15.5t42 -15.5q31 0 42 35q13 42 32 189l25 192h-88v37h94z" />
    <glyph glyph-name="AEacute" unicode="&#x1fc;" horiz-adv-x="869" 
d="M819 165l29 -7q-20 -102 -36 -158h-473v28q64 4 79 21t15 85v162h-177q-59 -110 -96 -194q-19 -39 -9 -53.5t67 -21.5v-27h-229v27q49 7 69.5 21.5t48.5 63.5q48 84 240 449q17 31 11.5 41.5t-42.5 15.5l-41 5v27h513q3 -70 10 -142l-30 -4q-15 62 -32 83q-12 16 -33 22
t-72 6h-83q-22 0 -27 -4.5t-5 -26.5v-249h89q67 0 83.5 12.5t26.5 64.5h30v-195h-30q-8 39 -16 53t-27.5 20t-66.5 6h-89v-166q0 -68 24 -83q20 -12 102 -12q55 0 83 7t45 27q25 30 49 96zM433 335v275q-12 0 -28 -19q-65 -122 -131 -256h159zM676 756l-2 -8l-185 -64
l-13 25q17 11 157 102q9 -1 25 -22.5t18 -32.5z" />
    <glyph glyph-name="aeacute" unicode="&#x1fd;" horiz-adv-x="671" 
d="M284 274v24q0 46 -25.5 75.5t-62.5 29.5q-30 0 -47 -22q-15 -19 -27 -63q-8 -24 -28 -24q-13 0 -29.5 13t-16.5 28q0 21 31 43q80 54 151 70q46 0 74 -22q26 -19 40 -54q68 76 148 76q63 0 108 -46t46 -104q0 -18 -4.5 -25t-18.5 -10q-51 -10 -266 -17q-1 -93 45 -142
t111 -49q58 0 111 50l17 -21q-38 -52 -84.5 -74t-78.5 -22q-108 0 -161 88l-35 -27q-82 -61 -121 -61q-53 0 -87 36.5t-34 83.5q0 38 19 61.5t60 37.5q138 48 165 67zM469 410h-1q-37 0 -67.5 -32.5t-37.5 -91.5q19 0 54.5 0.5t65.5 1t56 1.5q11 0 16 4.5t5 17.5
q0 40 -24.5 69.5t-66.5 29.5zM198 51h1q61 0 104 56q-20 41 -20 133q-15 -8 -98 -42q-32 -14 -46 -29.5t-14 -41.5q0 -35 22 -55.5t51 -20.5zM459 657l-123 -172l-26 13q26 58 67 157q7 3 38.5 7.5t40.5 3.5z" />
    <glyph glyph-name="Oslashacute" unicode="&#x1fe;" horiz-adv-x="749" 
d="M633 674l-49 -74q57 -47 91.5 -115.5t34.5 -149.5q0 -158 -96.5 -254t-239.5 -96q-95 0 -173 50l-56 -80l-27 23l53 78q-55 46 -88 114.5t-33 148.5q0 141 94.5 243.5t245.5 102.5q93 0 163 -46l50 75zM217 123l300 443q-59 63 -150 63t-154 -75t-63 -210q0 -132 67 -221
zM541 537l-301 -445q56 -71 151 -71q108 0 163.5 80t55.5 204q0 137 -69 232zM505 761l-2 -8l-185 -64l-13 25q17 11 157 102q9 -1 25 -22.5t18 -32.5z" />
    <glyph glyph-name="oslashacute" unicode="&#x1ff;" horiz-adv-x="513" 
d="M432 453l-35 -52q79 -66 79 -174q0 -111 -66 -175t-150 -64q-64 0 -117 31l-39 -55l-25 22l37 52q-37 32 -58 77.5t-21 93.5q0 58 21.5 105.5t55.5 75.5t72 43t74 15q58 0 109 -30l37 54zM157 100l181 271q-32 44 -89 44q-52 0 -87.5 -48.5t-35.5 -133.5q0 -80 31 -133z
M358 340l-180 -270q32 -49 91 -49q51 0 85 47.5t34 144.5q0 73 -30 127zM368 657l-123 -172l-26 13q26 58 67 157q7 3 38.5 7.5t40.5 3.5z" />
    <glyph glyph-name="uni0218" unicode="&#x218;" horiz-adv-x="474" 
d="M409 504l-29 -5q-16 60 -44.5 96t-86.5 36q-54 0 -82.5 -32t-28.5 -77q0 -51 30.5 -82.5t96.5 -65.5q26 -13 35.5 -18t33 -19.5t33.5 -23.5t27 -25.5t24.5 -32t13.5 -36.5t6 -45q0 -80 -62 -134.5t-160 -54.5q-47 0 -98 15q-29 10 -50 21q-8 23 -27 155l30 7
q7 -27 18 -52t30 -51.5t49 -42.5t67 -16q56 0 88 32.5t32 87.5q0 51 -31.5 82t-98.5 67q-80 44 -110 73q-55 53 -55 124q0 75 56 126.5t150 51.5q53 0 126 -23q4 -33 17 -138zM235 -52h1q29 0 51 -22.5t22 -56.5q0 -80 -106 -106l-9 28q60 24 60 56q0 29 -45 40
q-15 6 -15 24q0 17 12.5 27t28.5 10z" />
    <glyph glyph-name="uni0219" unicode="&#x219;" horiz-adv-x="367" 
d="M319 324l-25 -7q-33 99 -103 99q-29 0 -47 -19.5t-18 -49.5t22 -49.5t62 -36.5q63 -26 95 -56.5t32 -78.5q0 -64 -50 -101t-115 -37q-35 0 -67.5 10.5t-46.5 23.5q-5 11 -11 51t-6 67l27 4q14 -52 46.5 -87.5t75.5 -35.5q29 0 50 19.5t21 50.5t-19 51t-60 39
q-29 13 -46 23t-38 26.5t-31 38.5t-10 49q0 54 42.5 92t109.5 38q48 0 88 -18q17 -41 22 -106zM184 -43h1q29 0 51 -22.5t22 -56.5q0 -80 -106 -106l-9 28q60 24 60 56q0 29 -45 40q-15 6 -15 24q0 17 12.5 27t28.5 10z" />
    <glyph glyph-name="uni021A" unicode="&#x21a;" horiz-adv-x="617" 
d="M592 498l-30 -3q-13 62 -31 90q-13 18 -33.5 24.5t-75.5 6.5h-70v-493q0 -59 16 -75t86 -20v-28h-286v28q68 4 83.5 19.5t15.5 75.5v493h-62q-60 0 -83 -6.5t-33 -24.5q-12 -17 -32 -90h-29q10 119 12 180h20q10 -16 21 -20.5t34 -4.5h395q19 0 28.5 5t21.5 20h21
q2 -90 11 -177zM301 -36h1q29 0 51 -22.5t22 -56.5q0 -80 -106 -106l-9 28q60 24 60 56q0 29 -45 40q-15 6 -15 24q0 17 12.5 27t28.5 10z" />
    <glyph glyph-name="uni021B" unicode="&#x21b;" horiz-adv-x="305" 
d="M298 36l-68 -35q-25 -13 -42 -13q-98 0 -98 118v290h-69l-4 11l28 29h45v72l65 67l14 -2v-137h113q8 -8 6 -21t-12 -19h-107v-256q0 -95 59 -95q31 0 61 16zM167 -46h1q29 0 51 -22.5t22 -56.5q0 -80 -106 -106l-9 28q60 24 60 56q0 29 -45 40q-15 6 -15 24q0 17 12.5 27
t28.5 10z" />
    <glyph glyph-name="circumflex" unicode="&#x2c6;" horiz-adv-x="400" 
d="M313 501l-25 -17q-40 38 -87 97q-51 -63 -89 -97l-24 17q49 68 101 163h25q47 -89 99 -163z" />
    <glyph glyph-name="caron" unicode="&#x2c7;" horiz-adv-x="400" 
d="M287 664l25 -17q-53 -73 -101 -163h-25q-44 84 -99 163l25 17q45 -43 87 -97q46 56 88 97z" />
    <glyph glyph-name="uni02C9" unicode="&#x2c9;" horiz-adv-x="400" 
d="M310 532h-220v54h220v-54z" />
    <glyph glyph-name="breve" unicode="&#x2d8;" horiz-adv-x="400" 
d="M281 636h30q0 -73 -31 -105t-80 -32h-1q-49 0 -79.5 32t-30.5 105h30q11 -79 80 -79q71 0 82 79z" />
    <glyph glyph-name="dotaccent" unicode="&#x2d9;" horiz-adv-x="400" 
d="M200 623h1q21 0 35.5 -15t14.5 -37q0 -21 -15 -36t-36 -15q-20 0 -35 15.5t-15 35.5q0 21 15 36.5t35 15.5z" />
    <glyph glyph-name="ring" unicode="&#x2da;" horiz-adv-x="400" 
d="M200 657h1q34 0 60.5 -23t26.5 -61t-26.5 -61.5t-61.5 -23.5q-36 0 -62.5 23.5t-26.5 61.5t26.5 61t62.5 23zM201 626h-1q-19 0 -31.5 -15t-12.5 -38q0 -24 12.5 -39.5t32.5 -15.5t32 15.5t12 39.5t-12 38.5t-32 14.5z" />
    <glyph glyph-name="ogonek" unicode="&#x2db;" horiz-adv-x="400" 
d="M296 -176l-51 -28q-15 -9 -32 -9q-40 0 -61 22.5t-21 51.5q0 9 1.5 18.5t3.5 17t6.5 18.5t7 17t9 18.5t9 17t10.5 18t10 16.5h37q-30 -63 -30 -110q0 -25 14 -38.5t37 -13.5q21 0 42 9z" />
    <glyph glyph-name="tilde" unicode="&#x2dc;" horiz-adv-x="400" 
d="M150 612h1q19 0 58 -20q36 -19 53 -19q23 0 43 45l25 -14q-28 -90 -79 -90q-23 0 -66 24q-25 15 -45 15q-25 0 -44 -48l-26 17q29 90 80 90z" />
    <glyph glyph-name="hungarumlaut" unicode="&#x2dd;" horiz-adv-x="400" 
d="M232 657l-97 -173l-28 9q43 151 45 161q9 3 38.5 8t38.5 4zM370 657l-97 -173l-28 9q45 160 45 161q9 3 38.5 8t38.5 4z" />
    <glyph glyph-name="uni0374" unicode="&#x374;" horiz-adv-x="230" 
d="M202 644l2 -14q-62 -121 -119 -225l-26 5q30 109 52 240q11 8 45.5 4.5t45.5 -10.5z" />
    <glyph glyph-name="uni0375" unicode="&#x375;" horiz-adv-x="230" 
d="M167 120l2 -14q-95 -180 -120 -225l-26 5q24 87 53 240q10 8 45 4.5t46 -10.5z" />
    <glyph glyph-name="uni037E" unicode="&#x37e;" horiz-adv-x="230" 
d="M118 265h-1q-27 0 -44.5 18.5t-17.5 48.5q0 28 18 47t45 19q28 0 46 -19t18 -47q0 -30 -18 -48.5t-46 -18.5zM41 -121l-26 7q15 57 53 240q11 7 45 4t46 -10l2 -14q-99 -190 -120 -227z" />
    <glyph glyph-name="tonos" unicode="&#x384;" horiz-adv-x="353" 
d="M260 657l-67 -170l-28 1q1 17 8 81.5t8 82.5q6 6 35.5 11t39.5 3z" />
    <glyph glyph-name="dieresistonos" unicode="&#x385;" horiz-adv-x="400" 
d="M310 514h-1q-21 0 -33.5 12.5t-12.5 32.5q0 19 13 32.5t34 13.5q18 0 30.5 -13.5t12.5 -32.5q0 -20 -12.5 -32.5t-30.5 -12.5zM274 660l-94 -173l-28 6q8 32 22.5 87.5t20.5 76.5q9 4 39 8t37 3zM93 514h-1q-19 0 -31.5 12.5t-12.5 32.5q0 19 13 32.5t32 13.5t31.5 -13.5
t12.5 -32.5q0 -20 -12.5 -32.5t-31.5 -12.5z" />
    <glyph glyph-name="Alphatonos" unicode="&#x386;" horiz-adv-x="691" 
d="M673 0h-245v28q47 6 58 16t1 39q-7 20 -55 154h-213q-32 -89 -44 -128q-16 -48 -5 -61.5t68 -19.5v-28h-218v28q50 7 68.5 23.5t43.5 80.5l207 524l31 9q18 -49 87 -242t106 -293q23 -63 41.5 -80t68.5 -22v-28zM418 280l-88 255h-2q-16 -42 -47 -127.5t-47 -127.5h184z
M208 687l-67 -170l-28 1q1 17 8 81.5t8 82.5q6 6 35.5 11t39.5 3z" />
    <glyph glyph-name="anoteleia" unicode="&#x387;" horiz-adv-x="230" 
d="M115 199h-1q-27 0 -45.5 18.5t-18.5 48.5q0 28 18.5 47t46.5 19t46.5 -19t18.5 -47q0 -30 -18.5 -48.5t-46.5 -18.5z" />
    <glyph glyph-name="Epsilontonos" unicode="&#x388;" horiz-adv-x="568" 
d="M517 162l29 -4q-18 -100 -35 -158h-482v28q68 5 83.5 20t15.5 77v398q0 66 -13 80.5t-73 19.5v27h446q0 -5 8 -144l-29 -4q-11 51 -32 85q-11 17 -35 23t-78 6h-76q-23 0 -28 -5t-5 -27v-228h94q67 0 83 12t25 63h29v-191h-29q-10 54 -26 65.5t-81 11.5h-95v-189
q0 -65 24 -81q19 -13 104 -13q57 0 83 7t43 27q29 34 50 94zM4 687l-67 -170l-28 1q1 17 8 81.5t8 82.5q6 6 35.5 11t39.5 3z" />
    <glyph glyph-name="Etatonos" unicode="&#x389;" horiz-adv-x="766" 
d="M729 650v-28q-62 -5 -76 -19.5t-14 -75.5v-404q0 -62 13.5 -76t75.5 -19v-28h-268v28q65 5 79.5 19t14.5 76v199h-341v-199q0 -62 14 -76t76 -19v-28h-263v28q61 5 74.5 19t13.5 76v404q0 62 -14 76t-76 19v28h259v-28q-58 -5 -71 -19t-13 -76v-162h341v162
q0 61 -13.5 75.5t-72.5 19.5v28h261zM-3 687l-67 -170l-28 1q1 17 8 81.5t8 82.5q6 6 35.5 11t39.5 3z" />
    <glyph glyph-name="Iotatonos" unicode="&#x38a;" 
d="M303 0h-265v28q62 5 76 19.5t14 77.5v400q0 63 -14 77.5t-76 19.5v28h265v-28q-62 -5 -76 -19.5t-14 -77.5v-400q0 -64 14 -78t76 -19v-28zM-3 687l-67 -170l-28 1q1 17 8 81.5t8 82.5q6 6 35.5 11t39.5 3z" />
    <glyph glyph-name="Omicrontonos" unicode="&#x38c;" horiz-adv-x="747" 
d="M380 665h1q131 0 226.5 -93t95.5 -239q0 -158 -96 -253t-238 -95q-137 0 -231 95t-94 238q0 142 92.5 244.5t243.5 102.5zM360 629h-1q-89 0 -151 -74.5t-62 -208.5q0 -141 69 -233t175 -92q90 0 150.5 74t60.5 211q0 152 -69 237.5t-172 85.5zM70 677l-67 -170l-28 1
q1 17 8 81.5t8 82.5q6 6 35.5 11t39.5 3z" />
    <glyph glyph-name="Upsilontonos" unicode="&#x38e;" horiz-adv-x="655" 
d="M648 625l-6 -15q-6 1 -13 1q-41 0 -86 -30.5t-82 -88.5q-93 -143 -93 -298v-72q0 -60 15.5 -75.5t84.5 -19.5v-27h-284v27q67 4 83 19.5t16 75.5v78q0 163 -53 273q-64 136 -186 136q-25 0 -38 -3l-5 26q62 33 122 33q114 0 173 -150q33 -79 44 -206h5q21 106 59 180
q33 76 84.5 126t108.5 50q30 0 51 -40zM-34 687l-67 -170l-28 1q1 17 8 81.5t8 82.5q6 6 35.5 11t39.5 3z" />
    <glyph glyph-name="Omegatonos" unicode="&#x38f;" horiz-adv-x="757" 
d="M719 146l-18 -146h-243l-5 18q2 3 20.5 30.5t29.5 45t29 53t28.5 65.5t19 70.5t8.5 80.5q0 121 -55.5 194.5t-149.5 73.5q-95 0 -150 -72t-55 -199q0 -54 19 -114.5t36 -93.5t48.5 -82.5t32.5 -50.5l-7 -19h-244l-17 146l27 1q18 -48 32 -61.5t45 -13.5h89l-21 21
t-26 26.5t-26 29t-28 35.5t-23 37.5t-20.5 43t-12 45.5t-5.5 51q0 133 88 218.5t219 85.5q132 0 218 -83t86 -218q0 -40 -11.5 -78t-33 -71.5t-39 -56t-44 -51t-32.5 -35.5h84q35 0 48 12t31 63zM80 677l-67 -170l-28 1q1 17 8 81.5t8 82.5q6 6 35.5 11t39.5 3z" />
    <glyph glyph-name="iotadieresistonos" unicode="&#x390;" horiz-adv-x="245" 
d="M230 57l7 -26q-60 -43 -97 -43q-27 0 -48 22.5t-21 74.5v345l79 19v-333q0 -67 39 -67q20 0 41 8zM224 522h-1q-21 0 -33.5 12.5t-12.5 32.5q0 19 13 32.5t34 13.5q18 0 30.5 -13.5t12.5 -32.5q0 -20 -12.5 -32.5t-30.5 -12.5zM188 668l-94 -173l-28 6q8 32 22.5 87.5
t20.5 76.5q9 4 39 8t37 3zM7 522h-1q-19 0 -31.5 12.5t-12.5 32.5q0 19 13 32.5t32 13.5t31.5 -13.5t12.5 -32.5q0 -20 -12.5 -32.5t-31.5 -12.5z" />
    <glyph glyph-name="Alpha" unicode="&#x391;" horiz-adv-x="691" 
d="M673 0h-245v28q47 6 58 16t1 39q-7 20 -55 154h-213q-32 -89 -44 -128q-16 -48 -5 -61.5t68 -19.5v-28h-218v28q50 7 68.5 23.5t43.5 80.5l207 524l31 9q18 -49 87 -242t106 -293q23 -63 41.5 -80t68.5 -22v-28zM418 280l-88 255h-2q-16 -42 -47 -127.5t-47 -127.5h184z
" />
    <glyph glyph-name="Beta" unicode="&#x392;" horiz-adv-x="588" 
d="M372 352v-2q176 -27 176 -159q0 -99 -95 -151q-73 -40 -196 -40h-221v28q65 5 78.5 19t13.5 76v404q0 63 -12 77t-72 18v28h257q102 0 150 -34q26 -18 41 -48.5t15 -65.5q0 -111 -135 -150zM213 362h47q80 0 117.5 32t37.5 96q0 56 -33 92t-100 36q-41 0 -56 -10
q-13 -8 -13 -50v-196zM213 328v-203q0 -54 17 -73t66 -18q66 0 110 36.5t44 110.5q0 147 -192 147h-45z" />
    <glyph glyph-name="Gamma" unicode="&#x393;" horiz-adv-x="507" 
d="M485 501l-30 -4q-15 66 -35 90q-12 16 -33.5 22t-68.5 6h-74q-21 0 -26.5 -5t-5.5 -26v-458q0 -62 15.5 -78t83.5 -20v-28h-270v28q58 4 72 20t14 78v399q0 61 -13.5 77t-71.5 20v28h433q0 -51 10 -149z" />
    <glyph glyph-name="uni0394" unicode="&#x394;" horiz-adv-x="641" 
d="M600 0h-557v24l268 633l28 8l261 -641v-24zM497 50l-194 489l-196 -489h390z" />
    <glyph glyph-name="Epsilon" unicode="&#x395;" horiz-adv-x="568" 
d="M517 162l29 -4q-18 -100 -35 -158h-482v28q68 5 83.5 20t15.5 77v398q0 66 -13 80.5t-73 19.5v27h446q0 -5 8 -144l-29 -4q-11 51 -32 85q-11 17 -35 23t-78 6h-76q-23 0 -28 -5t-5 -27v-228h94q67 0 83 12t25 63h29v-191h-29q-10 54 -26 65.5t-81 11.5h-95v-189
q0 -65 24 -81q19 -13 104 -13q57 0 83 7t43 27q29 34 50 94z" />
    <glyph glyph-name="Zeta" unicode="&#x396;" horiz-adv-x="603" 
d="M561 176l29 -6q-25 -130 -36 -170h-517l-8 15q312 441 420 599h-173q-77 0 -102 -7t-39 -29q-19 -29 -35 -87l-29 1q9 111 12 183h24q9 -16 19 -20.5t34 -4.5h399l7 -14q-279 -395 -413 -594q48 -6 163 -6q94 0 131.5 7.5t58.5 29.5q28 29 55 103z" />
    <glyph glyph-name="Eta" unicode="&#x397;" horiz-adv-x="766" 
d="M729 650v-28q-62 -5 -76 -19.5t-14 -75.5v-404q0 -62 13.5 -76t75.5 -19v-28h-268v28q65 5 79.5 19t14.5 76v199h-341v-199q0 -62 14 -76t76 -19v-28h-263v28q61 5 74.5 19t13.5 76v404q0 62 -14 76t-76 19v28h259v-28q-58 -5 -71 -19t-13 -76v-162h341v162
q0 61 -13.5 75.5t-72.5 19.5v28h261z" />
    <glyph glyph-name="Theta" unicode="&#x398;" horiz-adv-x="739" 
d="M376 665h1q131 0 224.5 -93t93.5 -240q0 -157 -95 -252t-237 -95q-136 0 -227.5 94.5t-91.5 236.5q0 90 38 168.5t115.5 129.5t178.5 51zM356 630h-1q-88 0 -148.5 -75.5t-60.5 -210.5q0 -141 67 -231.5t172 -90.5q89 0 148.5 72.5t59.5 208.5q0 155 -66 241t-171 86z
M502 224h-31q-5 50 -14.5 62t-45.5 12h-85q-36 0 -45.5 -12t-14.5 -62h-31v217h31q5 -51 14.5 -62t45.5 -10h85q36 0 45.5 11.5t14.5 60.5h31v-217z" />
    <glyph glyph-name="Iota" unicode="&#x399;" 
d="M303 0h-265v28q62 5 76 19.5t14 77.5v400q0 63 -14 77.5t-76 19.5v28h265v-28q-62 -5 -76 -19.5t-14 -77.5v-400q0 -64 14 -78t76 -19v-28z" />
    <glyph glyph-name="Kappa" unicode="&#x39a;" horiz-adv-x="673" 
d="M667 0h-153q-58 64 -248 291q-28 32 -54 27v-189q0 -65 14.5 -80.5t77.5 -20.5v-28h-260v28q58 5 71 20.5t13 80.5v391q0 48 -6 66.5t-22 25.5t-59 10v28h258v-28q-59 -5 -73 -20.5t-14 -81.5v-175q29 6 70 45q101 97 167 178q23 27 20 37t-36 14l-23 3v28h240v-28
q-57 -5 -86 -18.5t-76 -56.5q-40 -35 -177 -175q98 -124 235 -272q39 -41 61.5 -54t59.5 -18v-28z" />
    <glyph glyph-name="Lambda" unicode="&#x39b;" horiz-adv-x="686" 
d="M671 0h-247v28q49 7 60 18.5t0 45.5q-82 230 -155 438h-2q-21 -61 -74 -204.5t-75 -210.5q-15 -51 -4.5 -65t67.5 -22v-28h-221v28q50 9 69 26.5t45 84.5q152 385 202 517l32 9q133 -373 194 -535q23 -61 42 -78.5t67 -23.5v-28z" />
    <glyph glyph-name="Mu" unicode="&#x39c;" horiz-adv-x="891" 
d="M861 0h-264v27q61 6 73 23t12 97l-4 408h-3l-244 -549h-21l-224 535h-2l-14 -285q-5 -98 -3 -166q1 -34 19.5 -45t72.5 -17v-28h-233v28q45 5 62.5 17t22.5 43q11 65 19 183l14 208q3 36 3.5 55t-2.5 37.5t-6.5 25t-16.5 13t-25.5 8t-39.5 4.5v28h164l227 -501l232 501
h170v-28q-16 -1 -24 -2t-19.5 -3t-16 -3.5t-11.5 -5t-9.5 -7t-6 -10.5t-4 -13.5t-1.5 -18t-0.5 -22.5t0.5 -28l10 -362q2 -80 15 -97t78 -23v-27z" />
    <glyph glyph-name="Nu" unicode="&#x39d;" horiz-adv-x="743" 
d="M719 650v-28q-43 -2 -62 -15t-22 -44q-6 -47 -6 -169v-403h-31l-426 524h-2v-251q0 -111 6 -169q4 -37 24 -50.5t72 -16.5v-28h-237v28q45 3 64.5 16.5t23.5 48.5q6 62 6 171v220q0 53 -3 67.5t-17 33.5q-16 19 -34.5 26.5t-54.5 10.5v28h147l418 -501h3v245
q0 117 -7 166q-4 33 -24.5 46t-73.5 16v28h236z" />
    <glyph glyph-name="Xi" unicode="&#x39e;" horiz-adv-x="607" 
d="M534 494h-29q-14 59 -26 73.5t-56 14.5h-234q-44 0 -56.5 -15.5t-25.5 -72.5h-30l8 156h441zM472 234h-29q-8 47 -19 59t-50 12h-137q-39 0 -50 -11.5t-19 -59.5h-29v209h30q8 -47 18 -58.5t44 -10.5h143q39 0 50 11t19 58h29v-209zM560 171l-10 -171h-488l-11 171h29
q21 -64 39 -81.5t76 -17.5h222q58 0 76 17.5t39 81.5h28z" />
    <glyph glyph-name="Omicron" unicode="&#x39f;" horiz-adv-x="747" 
d="M380 665h1q131 0 226.5 -93t95.5 -239q0 -158 -96 -253t-238 -95q-137 0 -231 95t-94 238q0 142 92.5 244.5t243.5 102.5zM360 629h-1q-89 0 -151 -74.5t-62 -208.5q0 -141 69 -233t175 -92q90 0 150.5 74t60.5 211q0 152 -69 237.5t-172 85.5z" />
    <glyph glyph-name="Pi" unicode="&#x3a0;" horiz-adv-x="738" 
d="M703 650v-28q-62 -5 -76.5 -20.5t-14.5 -75.5v-402q0 -60 14 -76t74 -20v-28h-266v28q63 4 78 20.5t15 75.5v459q0 20 -6 25t-27 5h-249q-23 0 -28.5 -5.5t-5.5 -26.5v-457q0 -60 14 -76t72 -20v-28h-257v28q58 5 72 21t14 75v402q0 61 -14 76t-76 20v28h667z" />
    <glyph glyph-name="Rho" unicode="&#x3a1;" horiz-adv-x="563" 
d="M46 650h247q112 0 169 -41q64 -49 64 -141q0 -91 -56.5 -143t-138.5 -62q-23 -3 -45 -1l-74 19v-157q0 -63 15.5 -77t83.5 -19v-28h-271v28q60 5 74 20t14 77v400q0 65 -12.5 79t-69.5 18v28zM212 559v-245q31 -12 73 -12q59 0 102 38t43 124q0 77 -42.5 115.5
t-108.5 38.5q-44 0 -56 -12q-11 -8 -11 -47z" />
    <glyph glyph-name="Sigma" unicode="&#x3a3;" horiz-adv-x="598" 
d="M570 168l-39 -168h-498v22l262 302l-248 304v22h471q4 -71 11 -146l-29 -4q-17 65 -37 88q-12 15 -36 20.5t-79 5.5h-181l211 -256l-243 -287h280q51 0 77 20.5t49 83.5z" />
    <glyph glyph-name="Tau" unicode="&#x3a4;" horiz-adv-x="617" 
d="M592 498l-30 -3q-13 62 -31 90q-13 18 -33.5 24.5t-75.5 6.5h-70v-493q0 -59 16 -75t86 -20v-28h-286v28q68 4 83.5 19.5t15.5 75.5v493h-62q-60 0 -83 -6.5t-33 -24.5q-12 -17 -32 -90h-29q10 119 12 180h20q10 -16 21 -20.5t34 -4.5h395q19 0 28.5 5t21.5 20h21
q2 -90 11 -177z" />
    <glyph glyph-name="Upsilon" unicode="&#x3a5;" horiz-adv-x="655" 
d="M648 625l-6 -15q-6 1 -13 1q-41 0 -86 -30.5t-82 -88.5q-93 -143 -93 -298v-72q0 -60 15.5 -75.5t84.5 -19.5v-27h-284v27q67 4 83 19.5t16 75.5v78q0 163 -53 273q-64 136 -186 136q-25 0 -38 -3l-5 26q62 33 122 33q114 0 173 -150q33 -79 44 -206h5q21 106 59 180
q33 76 84.5 126t108.5 50q30 0 51 -40z" />
    <glyph glyph-name="Phi" unicode="&#x3a6;" horiz-adv-x="754" 
d="M488 658v-28q-47 -4 -58.5 -12.5t-11.5 -38.5q49 -2 97 -15t93.5 -39.5t73.5 -75t28 -112.5q0 -53 -19.5 -96.5t-50 -71t-70 -47t-77.5 -27.5t-75 -9q0 -36 11.5 -45.5t58.5 -12.5v-28h-223v28q47 3 58.5 12.5t11.5 45.5q-47 1 -94.5 14t-93 39.5t-74.5 76t-29 114.5
q0 51 19 93.5t49 70t69.5 47t77.5 28t76 10.5q0 30 -11 39t-54 12v28h218zM335 118v429q-34 -2 -67 -13.5t-63.5 -35t-49.5 -65.5t-19 -96q0 -56 18.5 -99t49 -67.5t63.5 -37.5t68 -15zM418 547v-429q35 2 67.5 14t63.5 35.5t50 66.5t19 99t-19 99t-50 66.5t-64 35t-67 13.5
z" />
    <glyph glyph-name="Chi" unicode="&#x3a7;" horiz-adv-x="654" 
d="M655 0h-263v28q46 5 55.5 14.5t-5.5 34.5q-90 148 -132 214q-69 -104 -122 -202q-19 -32 -10.5 -43.5t58.5 -17.5v-28h-229v28q44 5 70 17t47 40q47 59 164 239q-27 42 -134 214q-33 50 -54 64t-74 20v28h246v-28q-44 -5 -52 -14t5 -28q32 -55 114 -182q66 102 99 162
q19 33 10.5 44.5t-57.5 17.5v28h228v-28q-56 -6 -80 -19.5t-58 -57.5q-45 -62 -121 -179q78 -124 157 -246q35 -53 60.5 -70t77.5 -22v-28z" />
    <glyph glyph-name="Psi" unicode="&#x3a8;" horiz-adv-x="725" 
d="M699 659l10 -27q-31 -17 -42 -39t-21 -74l-14 -69q-10 -53 -26 -82t-47 -53q-58 -45 -156 -48v-145q0 -58 14.5 -74t71.5 -20v-28h-256v28q57 4 71 20t14 74v145q-104 3 -163 49q-29 23 -45 54t-25 82l-12 72q-11 62 -20 77q-11 19 -38 31l10 27q74 -11 106 -50
q20 -26 30 -78l11 -60q16 -92 48.5 -128t97.5 -41v227q0 57 -13.5 73t-66.5 20v28h245v-28q-53 -4 -66.5 -20t-13.5 -73v-227q75 4 103.5 37.5t45.5 132.5l10 58q8 51 33 80q35 38 104 49z" />
    <glyph glyph-name="uni03A9" unicode="&#x3a9;" horiz-adv-x="757" 
d="M719 146l-18 -146h-243l-5 18q2 3 20.5 30.5t29.5 45t29 53t28.5 65.5t19 70.5t8.5 80.5q0 121 -55.5 194.5t-149.5 73.5q-95 0 -150 -72t-55 -199q0 -54 19 -114.5t36 -93.5t48.5 -82.5t32.5 -50.5l-7 -19h-244l-17 146l27 1q18 -48 32 -61.5t45 -13.5h89l-21 21
t-26 26.5t-26 29t-28 35.5t-23 37.5t-20.5 43t-12 45.5t-5.5 51q0 133 88 218.5t219 85.5q132 0 218 -83t86 -218q0 -40 -11.5 -78t-33 -71.5t-39 -56t-44 -51t-32.5 -35.5h84q35 0 48 12t31 63z" />
    <glyph glyph-name="Iotadieresis" unicode="&#x3aa;" 
d="M303 0h-265v28q62 5 76 19.5t14 77.5v400q0 63 -14 77.5t-76 19.5v28h265v-28q-62 -5 -76 -19.5t-14 -77.5v-400q0 -64 14 -78t76 -19v-28zM266 795h1q20 0 33.5 -14.5t13.5 -35.5q0 -20 -14 -34t-34 -14q-19 0 -33 14.5t-14 33.5q0 21 14 35.5t33 14.5zM75 795h1
q20 0 33.5 -14.5t13.5 -35.5q0 -20 -14 -34t-34 -14q-19 0 -33 14.5t-14 33.5q0 21 14 35.5t33 14.5z" />
    <glyph glyph-name="Upsilondieresis" unicode="&#x3ab;" horiz-adv-x="655" 
d="M648 625l-6 -15q-6 1 -13 1q-41 0 -86 -30.5t-82 -88.5q-93 -143 -93 -298v-72q0 -60 15.5 -75.5t84.5 -19.5v-27h-284v27q67 4 83 19.5t16 75.5v78q0 163 -53 273q-64 136 -186 136q-25 0 -38 -3l-5 26q62 33 122 33q114 0 173 -150q33 -79 44 -206h5q21 106 59 180
q33 76 84.5 126t108.5 50q30 0 51 -40zM439 795h1q20 0 33.5 -14.5t13.5 -35.5q0 -20 -14 -34t-34 -14q-19 0 -33 14.5t-14 33.5q0 21 14 35.5t33 14.5zM248 795h1q20 0 33.5 -14.5t13.5 -35.5q0 -20 -14 -34t-34 -14q-19 0 -33 14.5t-14 33.5q0 21 14 35.5t33 14.5z" />
    <glyph glyph-name="alphatonos" unicode="&#x3ac;" horiz-adv-x="523" 
d="M506 73l11 -23q-33 -62 -88 -62q-68 0 -81 122l-2 -1q-28 -56 -70 -88.5t-79 -32.5q-63 0 -112 60t-49 144q0 63 29.5 117.5t76.5 90.5q63 50 107 50q30 0 59.5 -27t46.5 -76h3q5 33 12 58q26 25 63 43l15 -8q-9 -25 -20 -97t-12 -142q0 -72 15 -107.5t36 -35.5
q19 0 39 15zM219 396h-1q-44 0 -71.5 -50.5t-27.5 -119.5q0 -73 33.5 -122.5t72.5 -49.5q45 0 80.5 50t35.5 110v26q0 61 -35.5 108.5t-86.5 47.5zM327 665l-67 -170l-28 1q1 17 8 81.5t8 82.5q6 6 35.5 11t39.5 3z" />
    <glyph glyph-name="epsilontonos" unicode="&#x3ad;" horiz-adv-x="403" 
d="M371 117l20 -21q-62 -108 -183 -108q-72 0 -120.5 36.5t-48.5 98.5q0 24 9.5 42.5t28.5 31.5t33.5 20t38.5 16v2q-43 8 -67.5 32.5t-24.5 61.5q0 52 49 85.5t123 33.5q66 0 100 -23.5t34 -52.5q0 -15 -12 -27t-29 -12q-18 0 -22 15q-20 68 -79 68q-35 0 -57.5 -22.5
t-22.5 -56.5q0 -31 24 -51.5t65 -20.5q38 0 64 3l4 -8l-26 -49q-36 3 -49 3q-48 0 -72 -19t-24 -50q0 -43 32 -69t79 -26q75 0 133 67zM283 665l-67 -170l-28 1q1 17 8 81.5t8 82.5q6 6 35.5 11t39.5 3z" />
    <glyph glyph-name="etatonos" unicode="&#x3ae;" horiz-adv-x="509" 
d="M440 -250l-6 -8q-17 1 -42 12.5t-38 21.5q1 55 2.5 155t2.5 182t1 155q0 119 -87 119q-52 0 -107 -52v-335q-27 -3 -83 -11q4 61 4 149v177q0 45 -9 55t-51 18v23q10 7 53.5 20.5t68.5 16.5q17 -20 17 -77q6 4 28 20t37 26q47 31 80 31q123 0 125 -161v-129
q0 -196 4 -408zM325 666l-67 -170l-28 1q1 17 8 81.5t8 82.5q6 6 35.5 11t39.5 3z" />
    <glyph glyph-name="iotatonos" unicode="&#x3af;" horiz-adv-x="245" 
d="M230 57l7 -26q-60 -43 -97 -43q-27 0 -48 22.5t-21 74.5v345l79 19v-333q0 -67 39 -67q20 0 41 8zM185 665l-67 -170l-28 1q1 17 8 81.5t8 82.5q6 6 35.5 11t39.5 3z" />
    <glyph glyph-name="upsilondieresistonos" unicode="&#x3b0;" horiz-adv-x="481" 
d="M293 423v8q4 5 22 11t31 6q30 0 62.5 -48t32.5 -128q0 -116 -65 -200t-147 -84q-61 0 -99.5 37.5t-38.5 111.5q0 27 0.5 88t0.5 91q0 70 -37 70q-20 0 -39 -7l-9 26q67 43 105 43q28 0 44 -26.5t16 -77.5q0 -33 -0.5 -100t-0.5 -92q0 -49 26 -76.5t63 -27.5q55 0 83.5 44
t28.5 149q0 70 -23.5 116.5t-55.5 65.5zM342 522h-1q-21 0 -33.5 12.5t-12.5 32.5q0 19 13 32.5t34 13.5q18 0 30.5 -13.5t12.5 -32.5q0 -20 -12.5 -32.5t-30.5 -12.5zM306 668l-94 -173l-28 6q8 32 22.5 87.5t20.5 76.5q9 4 39 8t37 3zM125 522h-1q-19 0 -31.5 12.5
t-12.5 32.5q0 19 13 32.5t32 13.5t31.5 -13.5t12.5 -32.5q0 -20 -12.5 -32.5t-31.5 -12.5z" />
    <glyph glyph-name="alpha" unicode="&#x3b1;" horiz-adv-x="523" 
d="M506 73l11 -23q-33 -62 -88 -62q-68 0 -81 122l-2 -1q-28 -56 -70 -88.5t-79 -32.5q-63 0 -112 60t-49 144q0 63 29.5 117.5t76.5 90.5q63 50 107 50q30 0 59.5 -27t46.5 -76h3q5 33 12 58q26 25 63 43l15 -8q-9 -25 -20 -97t-12 -142q0 -72 15 -107.5t36 -35.5
q19 0 39 15zM219 396h-1q-44 0 -71.5 -50.5t-27.5 -119.5q0 -73 33.5 -122.5t72.5 -49.5q45 0 80.5 50t35.5 110v26q0 61 -35.5 108.5t-86.5 47.5z" />
    <glyph glyph-name="beta" unicode="&#x3b2;" horiz-adv-x="510" 
d="M71 -219v588q0 104 16 167t52 105q61 71 137 71q65 0 105 -43t40 -111q0 -38 -19 -71t-37 -48.5t-49 -37.5q60 -12 102 -46q55 -48 55 -131q0 -70 -45.5 -127.5t-99.5 -84.5t-94 -27q-37 0 -85 46q1 -63 11 -282l-9 -8q-19 0 -45 13t-35 27zM213 353l16 50q44 2 65 17
q51 38 51 113q0 58 -29.5 95.5t-75.5 37.5q-17 0 -31 -5.5t-23.5 -18.5t-16.5 -25.5t-11.5 -36.5t-7 -39.5t-3.5 -47.5t-1 -47.5v-51.5q0 -218 4 -316q53 -36 109 -36q67 0 99 35t32 114q0 74 -44.5 118.5t-109.5 44.5q-15 0 -23 -1z" />
    <glyph glyph-name="gamma" unicode="&#x3b3;" horiz-adv-x="495" 
d="M288 56h3q37 72 69 157t32 140q0 31 -13 57q-2 7 4 14q27 27 50 27q30 0 30 -60q0 -48 -26 -112t-90 -182q-37 -68 -51 -111q1 -19 6 -97.5t5 -104.5q-11 -12 -39.5 -25.5t-48.5 -16.5l-15 11q2 26 16.5 120t16.5 110q-3 68 -31.5 173t-74.5 176q-23 36 -43.5 45.5
t-64.5 0.5l-6 25q23 16 59 30.5t58 14.5q47 0 91 -116q42 -107 63 -276z" />
    <glyph glyph-name="delta" unicode="&#x3b4;" horiz-adv-x="497" 
d="M448 586l-11 -21q-103 93 -199 93q-50 0 -50 -27q0 -32 113 -139q86 -78 122.5 -137t36.5 -138q0 -104 -65 -166.5t-149 -62.5q-95 0 -152 67t-57 155q0 170 196 233q-54 57 -76.5 90t-22.5 60q0 44 43 81t96 38q68 1 114.5 -39.5t60.5 -86.5zM375 197v1q0 114 -119 223
q-126 -39 -126 -199q0 -85 38 -142.5t91 -57.5q51 0 83.5 43.5t32.5 131.5z" />
    <glyph glyph-name="epsilon" unicode="&#x3b5;" horiz-adv-x="403" 
d="M371 117l20 -21q-62 -108 -183 -108q-72 0 -120.5 36.5t-48.5 98.5q0 24 9.5 42.5t28.5 31.5t33.5 20t38.5 16v2q-43 8 -67.5 32.5t-24.5 61.5q0 52 49 85.5t123 33.5q66 0 100 -23.5t34 -52.5q0 -15 -12 -27t-29 -12q-18 0 -22 15q-20 68 -79 68q-35 0 -57.5 -22.5
t-22.5 -56.5q0 -31 24 -51.5t65 -20.5q38 0 64 3l4 -8l-26 -49q-36 3 -49 3q-48 0 -72 -19t-24 -50q0 -43 32 -69t79 -26q75 0 133 67z" />
    <glyph glyph-name="zeta" unicode="&#x3b6;" horiz-adv-x="381" 
d="M131 736l15 -4q-1 -41 27 -70t65 -31q74 66 117 66q18 0 18 -13q0 -46 -41 -68q-40 -19 -79 -22q-58 -60 -95.5 -149t-37.5 -193q0 -72 22 -112.5t71 -54.5q11 -3 50 -13q45 -12 71 -35t26 -66q0 -66 -70 -142l-25 17q25 52 25 84q0 27 -15.5 43.5t-52.5 25.5
q-8 2 -27 7.5t-30 8.5q-127 35 -127 207q0 104 47.5 202t123.5 172q-49 4 -85 26t-37 51q0 15 11.5 32.5t32.5 30.5z" />
    <glyph glyph-name="eta" unicode="&#x3b7;" horiz-adv-x="509" 
d="M440 -250l-6 -8q-17 1 -42 12.5t-38 21.5q1 55 2.5 155t2.5 182t1 155q0 119 -87 119q-52 0 -107 -52v-335q-27 -3 -83 -11q4 61 4 149v177q0 45 -9 55t-51 18v23q10 7 53.5 20.5t68.5 16.5q17 -20 17 -77q6 4 28 20t37 26q47 31 80 31q123 0 125 -161v-129
q0 -196 4 -408z" />
    <glyph glyph-name="theta" unicode="&#x3b8;" horiz-adv-x="490" 
d="M452 359v-1q0 -162 -54 -266t-159 -104q-65 0 -111.5 50.5t-68.5 130.5t-22 180q0 153 57 258t154 105q67 0 114 -50.5t68.5 -128.5t21.5 -174zM124 390h240q-2 119 -33 203.5t-86 84.5q-52 0 -85.5 -85.5t-35.5 -202.5zM365 341h-242q2 -136 36.5 -227.5t89.5 -91.5
q57 0 86 88.5t30 230.5z" />
    <glyph glyph-name="iota" unicode="&#x3b9;" horiz-adv-x="245" 
d="M230 57l7 -26q-60 -43 -97 -43q-27 0 -48 22.5t-21 74.5v345l79 19v-333q0 -67 39 -67q20 0 41 8z" />
    <glyph glyph-name="kappa" unicode="&#x3ba;" horiz-adv-x="493" 
d="M480 58l5 -28q-34 -42 -87 -42q-45 0 -94 68q-30 40 -100 156q-26 -29 -39 -48v-164q-17 -2 -83 -11q4 57 4 152v190q0 34 -8.5 42.5t-51.5 15.5v22q11 6 56.5 20t69.5 16q13 -13 13 -91v-147q16 23 64.5 82t75.5 87q69 70 106 70q20 0 32 -13t12 -29q0 -25 -18 -41
q-7 -5 -15 0q-18 9 -35 9q-45 0 -128 -99q32 -66 109 -170q42 -57 75 -57q19 0 37 10z" />
    <glyph glyph-name="lambda" unicode="&#x3bb;" horiz-adv-x="493" 
d="M474 53l9 -23q-37 -42 -93 -42q-31 0 -52 28.5t-44 99.5q-44 138 -75 247q-25 -87 -64.5 -196t-62.5 -158l-70 -21l-7 12q114 211 186 428q-31 103 -32 106q-24 70 -45.5 97t-50.5 26q-20 0 -40 -9l-8 23q48 42 96 42q40 0 74 -47.5t70 -179.5q58 -209 114 -363
q16 -45 30.5 -61t31.5 -16q18 0 33 7z" />
    <glyph glyph-name="uni03BC" unicode="&#x3bc;" horiz-adv-x="512" 
d="M498 54l10 -26q-13 -16 -37 -28t-48 -12q-31 0 -52 21.5t-26 56.5h-2q-69 -78 -134 -78q-52 0 -81 42h-4v-16q-1 -56 12 -141.5t25 -117.5l-13 -12q-16 1 -39.5 14t-35.5 25q-2 7 -2 259v293q0 60 -3 96l81 18q2 -23 2 -105v-171q0 -65 27.5 -93.5t63.5 -28.5
q56 0 100 53v327l80 18v-334q0 -70 41 -70q17 0 35 10z" />
    <glyph glyph-name="nu" unicode="&#x3bd;" horiz-adv-x="476" 
d="M25 377l-7 26q68 45 108 45q19 0 35.5 -20.5t36.5 -74.5q15 -42 85 -258q94 169 94 244q0 37 -18 62q-6 8 1 20q14 27 42 27q18 0 30.5 -21t12.5 -47q0 -12 -3 -27.5t-7 -28.5t-12.5 -33.5t-14.5 -33t-19.5 -38.5t-20 -38t-23.5 -42.5t-24 -42.5l-59 -108h-25
q-57 185 -108 317q-17 44 -32 60.5t-33 16.5q-22 0 -39 -5z" />
    <glyph glyph-name="xi" unicode="&#x3be;" horiz-adv-x="404" 
d="M349 396l-37 -54q-30 4 -57 4q-59 0 -98 -36.5t-39 -101.5q0 -100 114 -127q4 -1 13.5 -3t19.5 -4.5t19 -4.5q101 -24 101 -102q0 -31 -16.5 -64t-29.5 -48.5t-23 -24.5l-26 15q26 48 26 84q0 50 -65 67q-48 12 -62 14q-78 17 -114.5 57t-36.5 107q0 110 128 184
q-38 10 -62 41t-24 70q0 86 91 145q-40 4 -70.5 23.5t-31.5 41.5q0 34 35 59l15 -3q1 -34 27.5 -60t61.5 -29q79 47 137 47q19 0 19 -16q-9 -43 -43 -57q-50 -15 -107 -11q-61 -38 -61 -109q0 -38 28.5 -67.5t87.5 -29.5q27 0 74 5z" />
    <glyph glyph-name="omicron" unicode="&#x3bf;" horiz-adv-x="510" 
d="M256 448h1q92 0 154 -65t62 -158q0 -112 -67 -174.5t-150 -62.5q-98 0 -158.5 66t-60.5 154q0 59 21 106.5t54.5 75.5t70.5 43t73 15zM245 415h-1q-48 0 -81 -47t-33 -128q0 -96 37.5 -157.5t99.5 -61.5q113 0 113 183q0 91 -35.5 151t-99.5 60z" />
    <glyph glyph-name="pi" unicode="&#x3c0;" horiz-adv-x="531" 
d="M485 466l28 -8q-9 -55 -24 -84q-15 -4 -76 -4q-6 -84 -4 -224q0 -92 40 -92q20 0 42 10l11 -20q-16 -25 -41 -40.5t-50 -15.5q-73 0 -73 125q0 89 8 259q-55 1 -139 1v-20q0 -109 -12 -192.5t-22.5 -113.5t-18.5 -41q-37 -16 -64 -18l-8 18q41 60 60 166t19 202
q-82 1 -128 -36l-16 24q64 78 175 76q33 0 118 -1t125 -1q22 0 31 5.5t19 24.5z" />
    <glyph glyph-name="rho" unicode="&#x3c1;" horiz-adv-x="501" 
d="M75 -257l-7 10q7 27 5 140q-2 259 -2 294q0 70 19.5 121.5t73.5 92.5q60 47 120 47q84 0 132 -59.5t48 -141.5q0 -74 -41 -135.5t-94 -92t-99 -31.5q-45 0 -79 37q0 -20 2.5 -118.5t1.5 -121.5q-6 -14 -32.5 -27t-47.5 -15zM382 213v1q0 76 -38 130t-101 54
q-54 0 -74 -45t-20 -132q0 -100 2 -139q46 -42 101 -42q57 0 93.5 40t36.5 133z" />
    <glyph glyph-name="uni03C2" unicode="&#x3c2;" horiz-adv-x="403" 
d="M302 -160l-25 19q29 39 29 79q0 25 -19.5 40t-66.5 25q-9 2 -26.5 6t-19.5 4q-137 38 -137 186q0 113 98 192q72 57 147 57q50 0 81 -21q18 -12 18 -33q-1 -15 -14 -30t-24 -15q-7 0 -21 10q-43 34 -92 34q-56 0 -87 -41.5t-31 -112.5q0 -128 111 -155q7 -2 49 -12
q49 -11 76.5 -33.5t27.5 -67.5q0 -39 -23.5 -74t-50.5 -57z" />
    <glyph glyph-name="sigma" unicode="&#x3c3;" horiz-adv-x="515" 
d="M280 446h1q33 0 85 -2t69 -2q37 0 57 26l25 -15q-17 -64 -37 -76q-27 0 -122 10l-2 -2q48 -27 71 -71.5t23 -94.5q0 -106 -61 -168.5t-142 -62.5q-98 0 -154 65t-56 158q0 106 68.5 171t174.5 64zM258 394h-1q-56 0 -93 -46t-37 -133q0 -81 36 -137t91 -56q51 0 82.5 45
t31.5 143q0 84 -35 139q-28 45 -75 45z" />
    <glyph glyph-name="tau" unicode="&#x3c4;" horiz-adv-x="446" 
d="M402 465l28 -4q-8 -58 -23 -87q-13 -4 -75 -4q-46 2 -69 2q-6 -90 -4 -224q0 -93 49 -93q24 0 45 9l11 -24q-17 -21 -44 -36.5t-54 -15.5q-38 0 -58.5 27t-20.5 94q0 111 9 266q-112 2 -166 -36l-15 23q58 76 165 76q27 0 81.5 -1t85.5 -1q23 -1 34.5 4.5t20.5 24.5z" />
    <glyph glyph-name="upsilon" unicode="&#x3c5;" horiz-adv-x="481" 
d="M293 423v8q4 5 22 11t31 6q30 0 62.5 -48t32.5 -128q0 -116 -65 -200t-147 -84q-61 0 -99.5 37.5t-38.5 111.5q0 27 0.5 88t0.5 91q0 70 -37 70q-20 0 -39 -7l-9 26q67 43 105 43q28 0 44 -26.5t16 -77.5q0 -33 -0.5 -100t-0.5 -92q0 -49 26 -76.5t63 -27.5q55 0 83.5 44
t28.5 149q0 70 -23.5 116.5t-55.5 65.5z" />
    <glyph glyph-name="phi" unicode="&#x3c6;" horiz-adv-x="587" 
d="M232 458l14 -28q-55 -31 -88.5 -74t-33.5 -119q0 -82 40 -133t95 -64q-2 87 -2 227q1 91 41.5 136t93.5 45q61 0 109.5 -56.5t48.5 -147.5q0 -102 -62.5 -168.5t-154.5 -80.5q0 -24 1 -89t2 -121q-7 -15 -31 -28t-44 -14l-6 5q3 42 3 242q-101 5 -161.5 67.5t-60.5 158.5
q0 162 196 242zM372 405h-1q-23 0 -32 -21t-8 -82q0 -200 2 -266q58 3 100 52.5t42 138.5q0 82 -33 130t-70 48z" />
    <glyph glyph-name="chi" unicode="&#x3c7;" horiz-adv-x="467" 
d="M486 -195l8 -29q-43 -34 -85 -34q-29 0 -51.5 21t-45.5 77q-23 53 -81 219q-83 -181 -145 -329l-11 -2q-35 14 -40 51q19 36 84.5 158.5t92.5 174.5q-49 137 -76 199q-17 42 -31.5 57.5t-33.5 15.5q-23 0 -46 -10l-8 25q56 49 101 49q46 0 81 -83q6 -14 64 -169
q27 56 65 137t44 92l71 23l7 -11q-53 -78 -167 -293q66 -185 101 -264q22 -51 44.5 -68t57.5 -7z" />
    <glyph glyph-name="psi" unicode="&#x3c8;" horiz-adv-x="605" 
d="M581 448l11 -27q-23 -19 -33.5 -40t-18.5 -59q-3 -14 -15 -71t-21 -95q-23 -94 -88 -137q-35 -22 -69 -25l-4 -245l-9 -6q-13 2 -20.5 8.5t-14.5 33t-8 73.5l-1 131q-77 2 -123.5 41.5t-60.5 129.5q-5 33 -11.5 81.5t-8.5 65.5q-7 43 -17.5 58.5t-25.5 15.5q-16 0 -28 -4
l-8 28q49 43 92 43q58 0 70 -110q2 -21 6 -64t6 -66q14 -160 112 -174l-7 455l57 33l11 -5l-6 -485q46 6 68 37t31 82q4 25 10.5 82t8.5 73q6 67 20 82q40 45 95 60z" />
    <glyph glyph-name="omega" unicode="&#x3c9;" horiz-adv-x="645" 
d="M447 418l1 14q4 4 20 10t29 6q33 0 71 -52.5t38 -132.5q0 -61 -20.5 -115t-51.5 -88t-64.5 -53t-61.5 -19q-71 0 -105 75q-22 -30 -53 -52.5t-60 -22.5q-61 0 -106 60.5t-45 153.5q0 159 148 252l18 -24q-81 -78 -81 -196q0 -79 31 -130.5t71 -51.5q37 0 55 31t17 73
q-1 62 -12 180l83 19l7 -6q-1 -24 -6.5 -91.5t-6.5 -100.5q-1 -44 19.5 -75.5t59.5 -31.5q94 0 94 175q0 77 -26.5 125.5t-62.5 67.5z" />
    <glyph glyph-name="iotadieresis" unicode="&#x3ca;" horiz-adv-x="245" 
d="M230 57l7 -26q-60 -43 -97 -43q-27 0 -48 22.5t-21 74.5v345l79 19v-333q0 -67 39 -67q20 0 41 8zM31 620h1q20 0 33.5 -14.5t13.5 -35.5q0 -20 -14 -34t-34 -14q-19 0 -33 14.5t-14 33.5q0 21 14 35.5t33 14.5zM200 620h1q20 0 33.5 -14.5t13.5 -35.5q0 -20 -14 -34
t-34 -14q-19 0 -33 14.5t-14 33.5q0 21 14 35.5t33 14.5z" />
    <glyph glyph-name="upsilondieresis" unicode="&#x3cb;" horiz-adv-x="481" 
d="M293 423v8q4 5 22 11t31 6q30 0 62.5 -48t32.5 -128q0 -116 -65 -200t-147 -84q-61 0 -99.5 37.5t-38.5 111.5q0 27 0.5 88t0.5 91q0 70 -37 70q-20 0 -39 -7l-9 26q67 43 105 43q28 0 44 -26.5t16 -77.5q0 -33 -0.5 -100t-0.5 -92q0 -49 26 -76.5t63 -27.5q55 0 83.5 44
t28.5 149q0 70 -23.5 116.5t-55.5 65.5zM154 620h1q20 0 33.5 -14.5t13.5 -35.5q0 -20 -14 -34t-34 -14q-19 0 -33 14.5t-14 33.5q0 21 14 35.5t33 14.5zM323 620h1q20 0 33.5 -14.5t13.5 -35.5q0 -20 -14 -34t-34 -14q-19 0 -33 14.5t-14 33.5q0 21 14 35.5t33 14.5z" />
    <glyph glyph-name="omicrontonos" unicode="&#x3cc;" horiz-adv-x="510" 
d="M256 448h1q92 0 154 -65t62 -158q0 -112 -67 -174.5t-150 -62.5q-98 0 -158.5 66t-60.5 154q0 59 21 106.5t54.5 75.5t70.5 43t73 15zM245 415h-1q-48 0 -81 -47t-33 -128q0 -96 37.5 -157.5t99.5 -61.5q113 0 113 183q0 91 -35.5 151t-99.5 60zM326 665l-67 -170l-28 1
q1 17 8 81.5t8 82.5q6 6 35.5 11t39.5 3z" />
    <glyph glyph-name="upsilontonos" unicode="&#x3cd;" horiz-adv-x="481" 
d="M293 423v8q4 5 22 11t31 6q30 0 62.5 -48t32.5 -128q0 -116 -65 -200t-147 -84q-61 0 -99.5 37.5t-38.5 111.5q0 27 0.5 88t0.5 91q0 70 -37 70q-20 0 -39 -7l-9 26q67 43 105 43q28 0 44 -26.5t16 -77.5q0 -33 -0.5 -100t-0.5 -92q0 -49 26 -76.5t63 -27.5q55 0 83.5 44
t28.5 149q0 70 -23.5 116.5t-55.5 65.5zM311 663l-67 -170l-28 1q1 17 8 81.5t8 82.5q6 6 35.5 11t39.5 3z" />
    <glyph glyph-name="omegatonos" unicode="&#x3ce;" horiz-adv-x="645" 
d="M447 418l1 14q4 4 20 10t29 6q33 0 71 -52.5t38 -132.5q0 -61 -20.5 -115t-51.5 -88t-64.5 -53t-61.5 -19q-71 0 -105 75q-22 -30 -53 -52.5t-60 -22.5q-61 0 -106 60.5t-45 153.5q0 159 148 252l18 -24q-81 -78 -81 -196q0 -79 31 -130.5t71 -51.5q37 0 55 31t17 73
q-1 62 -12 180l83 19l7 -6q-1 -24 -6.5 -91.5t-6.5 -100.5q-1 -44 19.5 -75.5t59.5 -31.5q94 0 94 175q0 77 -26.5 125.5t-62.5 67.5zM412 663l-67 -170l-28 1q1 17 8 81.5t8 82.5q6 6 35.5 11t39.5 3z" />
    <glyph glyph-name="uni03D0" unicode="&#x3d0;" horiz-adv-x="497" 
d="M460 221v-1q0 -107 -64.5 -169.5t-140.5 -62.5q-61 0 -105 27t-67 73.5t-33.5 98.5t-10.5 112q0 118 33 203.5t82 136.5q67 73 145 73q55 0 90.5 -33t34.5 -93q-1 -55 -35.5 -90t-102.5 -71q174 -21 174 -204zM348 572q1 40 -20.5 68.5t-57.5 28.5q-41 0 -70.5 -32
t-44 -82.5t-21.5 -93.5t-8 -84q15 8 52.5 26.5t58.5 30.5q110 59 111 138zM371 200v1q0 86 -37.5 134.5t-95.5 48.5q-52 0 -113 -46q-1 -86 14 -156t47 -114t76 -44q51 0 80 47t29 129z" />
    <glyph glyph-name="uni03D1" unicode="&#x3d1;" horiz-adv-x="496" 
d="M23 232l-6 23q13 13 39.5 26t50.5 13q32 0 46.5 -26t20.5 -73q2 -19 8 -51q7 -47 28.5 -74t54.5 -27q56 0 87.5 64.5t32.5 198.5q0 36 -2 78q-78 -56 -137 -56q-87 0 -135.5 52.5t-48.5 127.5q0 90 59.5 147.5t134.5 57.5q84 0 144 -82.5t61 -254.5q2 -239 -119 -343
q-50 -45 -105 -45q-109 0 -133 127q-8 36 -11 56q-4 44 -18.5 55.5t-51.5 5.5zM223 671h-1q-41 0 -65 -33.5t-24 -92.5q0 -66 40 -113.5t102 -47.5q58 0 106 33q-11 112 -52.5 183t-105.5 71z" />
    <glyph glyph-name="uni03D5" unicode="&#x3d5;" horiz-adv-x="582" 
d="M336 651l-4 -201q93 -11 153 -70.5t60 -156.5q0 -98 -65 -156.5t-154 -72.5l-4 -249l-5 -3q-14 2 -22.5 8.5t-16.5 35t-9 79.5l-1 125q-105 4 -168 64.5t-63 154.5q0 106 78 171q46 38 99 56l12 -29q-101 -49 -101 -176q0 -84 41.5 -134.5t101.5 -60.5v413l-1 168l58 37z
M330 407l-2 -372q142 14 142 184q0 73 -40.5 123t-99.5 65z" />
    <glyph glyph-name="uni03D6" unicode="&#x3d6;" horiz-adv-x="665" 
d="M145 489l-9 28q95 58 203 58q134 0 211.5 -81t77.5 -221q0 -125 -69 -205t-135 -80q-41 0 -70.5 23.5t-43.5 54.5q-20 -29 -55.5 -53.5t-62.5 -24.5q-62 0 -108 60.5t-46 152.5q0 160 147 251l18 -24q-80 -73 -80 -193q0 -79 31.5 -129.5t71.5 -50.5q36 0 59.5 31
t22.5 69q-1 59 -12 180l82 19l8 -6q-1 -26 -6.5 -94t-6.5 -97q-1 -42 23 -73t66 -31t70.5 43.5t28.5 135.5q0 142 -77 216.5t-191 74.5q-78 0 -148 -34z" />
    <glyph glyph-name="uni03DA" unicode="&#x3da;" horiz-adv-x="404" 
d="M367 466l26 -12q-7 -46 -23 -66.5t-32 -20.5q-21 0 -48 9q-43 13 -70 13q-48 0 -78.5 -40.5t-30.5 -116.5q0 -121 107 -146q35 -9 54 -13q52 -12 77.5 -35t25.5 -67q0 -53 -43.5 -94t-83.5 -41q-15 0 -25.5 9.5t-10.5 23.5q0 19 18 36q5 7 14 3q18 -9 41 -9q17 0 28 10
t11 29q0 46 -100 65q-18 3 -63 15q-123 34 -123 179q0 60 27.5 111.5t68.5 84.5q71 55 130 55q30 0 62 -7q26 -6 41 25z" />
    <glyph glyph-name="uni03DE" unicode="&#x3de;" horiz-adv-x="508" 
d="M256 448h1q91 0 153 -65t62 -158q0 -97 -51.5 -157t-123.5 -75v-87q0 -46 -7 -63q-15 -38 -65 -60l-10 6q2 36 2 135v68q-83 13 -132 75.5t-49 140.5q0 59 21 106.5t54.5 75.5t71 43t73.5 15zM245 413h-1q-50 0 -82.5 -46t-32.5 -127q0 -95 37.5 -155.5t99.5 -60.5
q113 0 113 180q0 90 -35.5 149.5t-98.5 59.5z" />
    <glyph glyph-name="uni03E0" unicode="&#x3e0;" horiz-adv-x="669" 
d="M75 619l-5 24l43 14q35 10 67 10q112 0 200 -39t140.5 -104t79.5 -143.5t27 -164.5q0 -218 -134 -382l-25 17q86 155 86 346q0 42 -6 72q-42 -23 -68.5 -38t-80 -55.5t-96.5 -86.5q-49 -51 -43 -90v-9q-8 -4 -19 -4q-19 0 -32.5 18t-5.5 52.5t48 72.5q39 38 95.5 76
t92.5 58t101 54q-26 107 -76 161q-75 -52 -186 -109t-150 -68q-27 -8 -51.5 1t-33.5 23l2 9q231 68 392 176q-53 54 -130.5 84.5t-165.5 30.5q-30 0 -66 -6z" />
    <glyph glyph-name="uni03F0" unicode="&#x3f0;" horiz-adv-x="544" 
d="M518 86l15 -24q-50 -74 -110 -74q-38 0 -61 32t-23 86q0 70 31 165l-4 3q-34 -35 -127 -135.5t-146 -150.5h-14q-23 8 -36 30t-9 37q26 12 73 52q36 56 36 149q0 58 -17.5 91t-50.5 33q-25 0 -50 -20l-10 24q53 65 111 65q37 0 57.5 -31.5t20.5 -82.5q0 -77 -41 -183
l4 -2q108 111 211 227q3 4 9.5 12.5t10 13t9.5 12t10 12t9 9.5t9.5 8t8.5 4q30 2 50 -32q6 -13 3 -26q-11 -10 -42 -37.5t-39 -35.5q-22 -47 -22 -133q0 -54 19 -88t52 -34q29 0 53 24z" />
    <glyph glyph-name="afii10023" unicode="&#x401;" horiz-adv-x="568" 
d="M517 162l29 -4q-18 -100 -35 -158h-482v28q68 5 83.5 20t15.5 77v398q0 66 -13 80.5t-73 19.5v27h446q0 -5 8 -144l-29 -4q-11 51 -32 85q-11 17 -35 23t-78 6h-76q-23 0 -28 -5t-5 -27v-228h94q67 0 83 12t25 63h29v-191h-29q-10 54 -26 65.5t-81 11.5h-95v-189
q0 -65 24 -81q19 -13 104 -13q57 0 83 7t43 27q29 34 50 94zM386 795h1q20 0 33.5 -14.5t13.5 -35.5q0 -20 -14 -34t-34 -14q-19 0 -33 14.5t-14 33.5q0 21 14 35.5t33 14.5zM195 795h1q20 0 33.5 -14.5t13.5 -35.5q0 -20 -14 -34t-34 -14q-19 0 -33 14.5t-14 33.5
q0 21 14 35.5t33 14.5z" />
    <glyph glyph-name="afii10051" unicode="&#x402;" horiz-adv-x="722" 
d="M348 616v-253q82 30 124 30q95 0 150.5 -68.5t55.5 -167.5q0 -64 -21.5 -119.5t-57.5 -94.5t-76 -66.5t-84 -44.5l-13 29q157 96 157 288q0 91 -41.5 144t-107.5 53q-47 0 -86 -14v-207q0 -63 16 -78t86 -19v-28h-287v28q69 4 84.5 19t15.5 78v491h-58q-58 0 -80 -7
t-35 -26q-14 -20 -33 -92l-30 2q9 110 12 182h22q9 -16 21 -20.5t35 -4.5h400q23 0 34 5t22 20h24q-1 -51 10 -182l-31 -3q-13 64 -34 94q-12 19 -35 25.5t-78 6.5h-81z" />
    <glyph glyph-name="afii10052" unicode="&#x403;" horiz-adv-x="512" 
d="M487 509l-30 -5q-15 60 -33 86q-20 26 -108 26h-64q-29 0 -35 -5.5t-6 -31.5v-454q0 -64 15 -78.5t82 -19.5v-27h-266v27q58 5 71 19.5t13 78.5v400q0 64 -12.5 78t-68.5 19v28h431q5 -89 11 -141zM408 756l-2 -8l-185 -64l-13 25q17 11 157 102q9 -1 25 -22.5t18 -32.5z
" />
    <glyph glyph-name="afii10053" unicode="&#x404;" horiz-adv-x="643" 
d="M520 310l-376 8q4 -137 71 -216t171 -79q62 0 97 24.5t62 68.5q28 43 47 43q23 0 23 -31q0 -38 -56 -84q-33 -26 -83 -42.5t-102 -16.5q-82 0 -147 28t-104 75.5t-59.5 105.5t-20.5 122q0 156 100 252.5t263 96.5q75 0 172 -31q5 -32 11.5 -81t8.5 -63l-28 -6
q-22 81 -66 113.5t-118 32.5q-111 0 -174 -73.5t-68 -197.5l376 8v-57z" />
    <glyph glyph-name="afii10054" unicode="&#x405;" horiz-adv-x="474" 
d="M409 504l-29 -5q-16 60 -44.5 96t-86.5 36q-54 0 -82.5 -32t-28.5 -77q0 -51 30.5 -82.5t96.5 -65.5q26 -13 35.5 -18t33 -19.5t33.5 -23.5t27 -25.5t24.5 -32t13.5 -36.5t6 -45q0 -80 -62 -134.5t-160 -54.5q-47 0 -98 15q-29 10 -50 21q-8 23 -27 155l30 7
q7 -27 18 -52t30 -51.5t49 -42.5t67 -16q56 0 88 32.5t32 87.5q0 51 -31.5 82t-98.5 67q-80 44 -110 73q-55 53 -55 124q0 75 56 126.5t150 51.5q53 0 126 -23q4 -33 17 -138z" />
    <glyph glyph-name="afii10055" unicode="&#x406;" 
d="M303 0h-265v28q62 5 76 19.5t14 77.5v400q0 63 -14 77.5t-76 19.5v28h265v-28q-62 -5 -76 -19.5t-14 -77.5v-400q0 -64 14 -78t76 -19v-28z" />
    <glyph glyph-name="afii10056" unicode="&#x407;" 
d="M303 0h-265v28q62 5 76 19.5t14 77.5v400q0 63 -14 77.5t-76 19.5v28h265v-28q-62 -5 -76 -19.5t-14 -77.5v-400q0 -64 14 -78t76 -19v-28zM266 795h1q20 0 33.5 -14.5t13.5 -35.5q0 -20 -14 -34t-34 -14q-19 0 -33 14.5t-14 33.5q0 21 14 35.5t33 14.5zM75 795h1
q20 0 33.5 -14.5t13.5 -35.5q0 -20 -14 -34t-34 -14q-19 0 -33 14.5t-14 33.5q0 21 14 35.5t33 14.5z" />
    <glyph glyph-name="afii10057" unicode="&#x408;" horiz-adv-x="329" 
d="M303 650v-28q-58 -5 -71.5 -19.5t-13.5 -77.5v-374q0 -98 -18.5 -155.5t-67.5 -102.5q-49 -44 -93 -58l-12 28q78 39 96 131q10 60 10 190v341q0 63 -14 77.5t-75 19.5v28h259z" />
    <glyph glyph-name="afii10058" unicode="&#x409;" horiz-adv-x="889" 
d="M509 533v-153q58 6 95 6q121 0 182.5 -48.5t61.5 -134.5q0 -111 -91 -164q-68 -39 -198 -39h-224v28q63 5 76.5 19t13.5 80v435q0 38 -5 45.5t-33 7.5h-101q-28 0 -34 -5t-6 -25q0 -401 -113 -551q-38 -50 -74 -50q-16 0 -49 10v19q58 35 103 110q36 60 60 173t24 257
q0 42 -16.5 54t-77.5 16v27h498v-27q-63 -4 -77.5 -19t-14.5 -71zM509 347v-208q0 -64 16.5 -84.5t70.5 -20.5q69 0 111.5 39.5t42.5 122.5q0 80 -46 118t-125 38q-30 0 -70 -5z" />
    <glyph glyph-name="afii10059" unicode="&#x40a;" horiz-adv-x="959" 
d="M579 374h93q122 0 185.5 -45.5t63.5 -129.5q0 -106 -91 -160q-68 -39 -197 -39h-221v28q58 5 70.5 19t12.5 79v209h-284v-211q0 -63 13.5 -77.5t72.5 -18.5v-28h-255v28q57 4 71 18.5t14 77.5v406q0 60 -13.5 74t-72.5 18v28h255v-28q-58 -4 -71.5 -18.5t-13.5 -73.5
v-156h284v149q0 65 -12.5 79.5t-68.5 19.5v28h252v-28q-60 -5 -73.5 -19.5t-13.5 -79.5v-149zM579 335v-214q0 -55 15.5 -70.5t70.5 -15.5q69 1 114 36.5t45 117.5q0 76 -44.5 111t-133.5 35h-67z" />
    <glyph glyph-name="afii10060" unicode="&#x40b;" horiz-adv-x="776" 
d="M751 0h-241v27q50 5 62 19t12 73v106q0 120 -122 120q-56 0 -113 -23v-198q0 -62 14.5 -77.5t77.5 -19.5v-27h-272v27q65 4 80 19.5t15 77.5v491h-63q-59 0 -81.5 -7.5t-34.5 -28.5q-13 -26 -30 -82h-29q10 117 12 178h21q14 -25 52 -25h416q33 0 51 25h24q0 -73 10 -175
l-30 -3q-16 60 -29 84q-12 20 -37 27t-84 7h-83v-261q104 40 153 40q89 0 132 -48q35 -36 35 -119v-108q0 -60 12.5 -73.5t69.5 -18.5v-27z" />
    <glyph glyph-name="afii10061" unicode="&#x40c;" horiz-adv-x="650" 
d="M635 0h-84q-45 0 -70.5 21.5t-49.5 70.5q-43 88 -72 143q-29 59 -60.5 76t-87.5 16v-202q0 -63 13.5 -77.5t71.5 -19.5v-28h-254v28q58 5 71 19.5t13 77.5v407q0 58 -13 71.5t-71 18.5v28h254v-28q-58 -5 -71.5 -18.5t-13.5 -71.5v-172q51 1 77.5 9t50.5 31
q15 14 30 38.5t24.5 46t33.5 75.5q48 103 118 105q25 0 39.5 -11.5t14.5 -28.5q0 -12 -12.5 -20.5t-28.5 -8.5h-22q-31 0 -52 -27.5t-61 -108.5q-17 -35 -39.5 -61t-31.5 -32.5t-25 -16.5v-3q38 -11 66 -32t51 -61q10 -17 37 -67.5t42 -76.5q25 -46 48.5 -62t63.5 -20v-28z
M472 756l-2 -8l-185 -64l-13 25q17 11 157 102q9 -1 25 -22.5t18 -32.5z" />
    <glyph glyph-name="afii10062" unicode="&#x40e;" horiz-adv-x="653" 
d="M639 650v-29q-49 -6 -66 -22.5t-48 -82.5q-16 -35 -86 -195.5t-92 -208.5q-40 -82 -79.5 -111.5t-81.5 -29.5q-23 0 -42.5 10t-26.5 25q-14 27 9 48q22 20 41 4q24 -21 59 -21q33 0 59.5 42t26.5 64q0 20 -17 55q-31 69 -175 356q-18 37 -35.5 48.5t-66.5 18.5v29h236
v-29l-29 -5q-15 -3 -21 -8.5t-4 -16t12 -30.5l154 -316q92 214 119 295q13 43 7 57.5t-35 18.5l-35 5v29h217zM338 698h-1q-56 0 -89 22t-33 58q0 16 10 28.5t26 12.5q18 0 26.5 -13t7.5 -29q0 -41 53 -41q27 0 40 11t12 30q-1 17 8.5 29.5t27.5 12.5q16 0 26 -12t10 -28
q0 -37 -34 -59t-90 -22z" />
    <glyph glyph-name="afii10145" unicode="&#x40f;" horiz-adv-x="741" 
d="M704 0h-229q-37 0 -50.5 -11.5t-19.5 -41.5q-9 -42 -19 -141h-32q-7 93 -17 141q-7 30 -22 41.5t-56 11.5h-223v29q62 4 76.5 19.5t14.5 80.5v393q0 65 -14 80.5t-75 19.5v28h260v-28q-59 -4 -72.5 -19t-13.5 -81v-413q0 -48 13.5 -61t60.5 -13h158q57 0 71.5 11.5
t14.5 62.5v413q0 66 -13.5 81t-75.5 19v28h263v-28q-62 -4 -75.5 -19.5t-13.5 -79.5v-393q0 -64 13.5 -80.5t75.5 -20.5v-29z" />
    <glyph glyph-name="afii10017" unicode="&#x410;" horiz-adv-x="691" 
d="M673 0h-245v28q47 6 58 16t1 39q-7 20 -55 154h-213q-32 -89 -44 -128q-16 -48 -5 -61.5t68 -19.5v-28h-218v28q50 7 68.5 23.5t43.5 80.5l207 524l31 9q18 -49 87 -242t106 -293q23 -63 41.5 -80t68.5 -22v-28zM418 280l-88 255h-2q-16 -42 -47 -127.5t-47 -127.5h184z
" />
    <glyph glyph-name="afii10018" unicode="&#x411;" horiz-adv-x="580" 
d="M210 580l1 -203q48 3 96 3q117 0 175.5 -47t58.5 -130q0 -108 -91 -162q-71 -41 -199 -41h-211v27q43 3 58.5 9.5t21.5 24.5t6 64v408q0 59 -12.5 72t-67.5 18v27h424q4 -76 11 -141l-30 -5q-15 65 -33 87q-21 25 -99 25h-73q-24 0 -30 -5.5t-6 -30.5zM293 36h1
q64 0 107 37.5t43 119.5q0 151 -172 151q-24 0 -62 -2v-207q0 -62 15.5 -80.5t67.5 -18.5z" />
    <glyph glyph-name="afii10019" unicode="&#x412;" horiz-adv-x="588" 
d="M372 352v-2q176 -27 176 -159q0 -99 -95 -151q-73 -40 -196 -40h-221v28q65 5 78.5 19t13.5 76v404q0 63 -12 77t-72 18v28h257q102 0 150 -34q26 -18 41 -48.5t15 -65.5q0 -111 -135 -150zM213 362h47q80 0 117.5 32t37.5 96q0 56 -33 92t-100 36q-41 0 -56 -10
q-13 -8 -13 -50v-196zM213 328v-203q0 -54 17 -73t66 -18q66 0 110 36.5t44 110.5q0 147 -192 147h-45z" />
    <glyph glyph-name="afii10020" unicode="&#x413;" horiz-adv-x="512" 
d="M487 509l-30 -5q-15 60 -33 86q-20 26 -108 26h-64q-29 0 -35 -5.5t-6 -31.5v-454q0 -64 15 -78.5t82 -19.5v-27h-266v27q58 5 71 19.5t13 78.5v400q0 64 -12.5 78t-68.5 19v28h431q5 -89 11 -141z" />
    <glyph glyph-name="afii10021" unicode="&#x414;" horiz-adv-x="649" 
d="M613 36l-24 -204h-29l-12 89q-6 49 -20 64t-52 15h-314q-42 0 -57 -15.5t-29 -67.5l-23 -85h-29l5 204h41q23 0 33 20q44 83 66 219t22 282q0 33 -10.5 43t-45.5 16l-40 6v28h509v-28q-58 -5 -71 -20t-13 -82v-433q0 -34 6 -42.5t28 -8.5h59zM435 110v436q0 49 -5.5 59
t-33.5 10h-116q-29 0 -35.5 -5t-6.5 -26q0 -320 -71 -518q-7 -16 -3.5 -23t22.5 -7h187q39 0 50.5 13.5t11.5 60.5z" />
    <glyph glyph-name="afii10022" unicode="&#x415;" horiz-adv-x="568" 
d="M517 162l29 -4q-18 -100 -35 -158h-482v28q68 5 83.5 20t15.5 77v398q0 66 -13 80.5t-73 19.5v27h446q0 -5 8 -144l-29 -4q-11 51 -32 85q-11 17 -35 23t-78 6h-76q-23 0 -28 -5t-5 -27v-228h94q67 0 83 12t25 63h29v-191h-29q-10 54 -26 65.5t-81 11.5h-95v-189
q0 -65 24 -81q19 -13 104 -13q57 0 83 7t43 27q29 34 50 94z" />
    <glyph glyph-name="afii10024" unicode="&#x416;" horiz-adv-x="954" 
d="M937 0h-84q-44 0 -70 22t-50 70q-36 75 -72 144q-28 59 -59 76.5t-83 16.5v-202q0 -63 13.5 -78.5t71.5 -20.5v-28h-254v28q58 5 71.5 20t13.5 79v202q-53 1 -86 -17t-62 -76q-16 -32 -40.5 -84t-27.5 -59q-23 -48 -49 -70.5t-70 -22.5h-84v28q40 4 63.5 20t49.5 62
q12 22 29.5 54.5t29.5 54t20 35.5q41 72 112 94v3q-15 9 -25.5 17t-33.5 37t-43 71q-34 73 -54 96.5t-52 23.5h-20q-16 0 -27.5 8.5t-11.5 21.5q0 17 14.5 28.5t38.5 10.5q72 -2 118 -105q24 -53 34.5 -74.5t25.5 -46t30 -38.5q23 -22 48 -30t73 -9v170q0 58 -13.5 71.5
t-71.5 18.5v28h254v-28q-58 -5 -71.5 -18.5t-13.5 -71.5v-170q48 1 73.5 9t49.5 30q15 14 29.5 39t24 45t33.5 75q47 103 120 105q24 1 37.5 -11t13.5 -29q0 -13 -11.5 -21t-28.5 -8h-21q-31 0 -50.5 -24.5t-52.5 -92.5q-7 -15 -14.5 -28.5t-15 -24.5t-13.5 -19.5t-13 -16.5
t-11.5 -12.5t-11 -9.5t-9 -7t-8.5 -6l-6 -4v-3q37 -11 62.5 -31.5t50.5 -62.5q10 -17 36.5 -67t41.5 -77q26 -46 49.5 -62t62.5 -20v-28z" />
    <glyph glyph-name="afii10025" unicode="&#x417;" horiz-adv-x="518" 
d="M311 359v-3q76 -12 122.5 -53.5t46.5 -118.5q0 -65 -38.5 -111.5t-93 -67t-115.5 -20.5q-97 0 -158 45q-48 36 -48 78q0 19 10.5 29.5t24.5 10.5q22 0 38 -36q39 -91 137 -93q24 0 47 7.5t45.5 24.5t36 50.5t13.5 77.5q0 67 -37.5 110.5t-83.5 43.5q-12 0 -37.5 -5
t-42.5 -5q-19 0 -31 8.5t-12 23.5q0 13 12.5 22t31.5 9q15 0 40.5 -5t38.5 -5q37 1 68 33.5t31 88.5q0 65 -33.5 99t-85.5 34q-61 0 -94.5 -40t-54.5 -104l-29 3q8 39 18 136q65 21 74 23q51 16 102 16q88 0 141 -43.5t53 -111.5q0 -70 -53 -108q-39 -29 -84 -43z" />
    <glyph glyph-name="afii10026" unicode="&#x418;" horiz-adv-x="752" 
d="M711 0h-254v28q59 5 72.5 19.5t13.5 77.5v261q0 90 4 186h-3l-317 -522q-9 -15 -9 -39v-11h-176v29q58 5 71 20.5t13 82.5v399q0 59 -13 72.5t-71 18.5v28h252v-28q-58 -5 -71.5 -18.5t-13.5 -71.5v-244q0 -98 -4 -197h2l314 516q11 17 11 34v9h179v-28q-58 -5 -71.5 -21
t-13.5 -82v-394q0 -45 6.5 -63t21.5 -24.5t57 -9.5v-28z" />
    <glyph glyph-name="afii10027" unicode="&#x419;" horiz-adv-x="752" 
d="M711 0h-254v28q59 5 72.5 19.5t13.5 77.5v261q0 90 4 186h-3l-317 -522q-9 -15 -9 -39v-11h-176v29q58 5 71 20.5t13 82.5v399q0 59 -13 72.5t-71 18.5v28h252v-28q-58 -5 -71.5 -18.5t-13.5 -71.5v-244q0 -98 -4 -197h2l314 516q11 17 11 34v9h179v-28q-58 -5 -71.5 -21
t-13.5 -82v-394q0 -45 6.5 -63t21.5 -24.5t57 -9.5v-28zM386 699h-1q-56 0 -89 22t-33 58q0 16 10 28.5t26 12.5q18 0 26.5 -13t7.5 -29q0 -41 53 -41q27 0 40 11t12 30q-1 17 8.5 29.5t27.5 12.5q16 0 26 -12t10 -28q0 -37 -34 -59t-90 -22z" />
    <glyph glyph-name="afii10028" unicode="&#x41a;" horiz-adv-x="650" 
d="M635 0h-84q-45 0 -70.5 21.5t-49.5 70.5q-43 88 -72 143q-29 59 -60.5 76t-87.5 16v-202q0 -63 13.5 -77.5t71.5 -19.5v-28h-254v28q58 5 71 19.5t13 77.5v407q0 58 -13 71.5t-71 18.5v28h254v-28q-58 -5 -71.5 -18.5t-13.5 -71.5v-172q51 1 77.5 9t50.5 31
q15 14 30 38.5t24.5 46t33.5 75.5q48 103 118 105q25 0 39.5 -11.5t14.5 -28.5q0 -12 -12.5 -20.5t-28.5 -8.5h-22q-31 0 -52 -27.5t-61 -108.5q-17 -35 -39.5 -61t-31.5 -32.5t-25 -16.5v-3q38 -11 66 -32t51 -61q10 -17 37 -67.5t42 -76.5q25 -46 48.5 -62t63.5 -20v-28z
" />
    <glyph glyph-name="afii10029" unicode="&#x41b;" horiz-adv-x="645" 
d="M602 0h-252v28q41 3 56 9.5t21 24.5t6 64v441q0 33 -5.5 40t-33.5 7h-103q-29 0 -35.5 -5t-6.5 -24q0 -402 -112 -551q-39 -50 -72 -50q-29 0 -52 10v19q64 40 104 109q84 147 84 434q0 39 -18 50.5t-79 15.5v28h498v-28q-57 -5 -70.5 -19t-13.5 -69v-408q0 -64 13 -78.5
t71 -19.5v-28z" />
    <glyph glyph-name="afii10030" unicode="&#x41c;" horiz-adv-x="891" 
d="M861 0h-264v27q61 6 73 23t12 97l-4 408h-3l-244 -549h-21l-224 535h-2l-14 -285q-5 -98 -3 -166q1 -34 19.5 -45t72.5 -17v-28h-233v28q45 5 62.5 17t22.5 43q11 65 19 183l14 208q3 36 3.5 55t-2.5 37.5t-6.5 25t-16.5 13t-25.5 8t-39.5 4.5v28h164l227 -501l232 501
h170v-28q-16 -1 -24 -2t-19.5 -3t-16 -3.5t-11.5 -5t-9.5 -7t-6 -10.5t-4 -13.5t-1.5 -18t-0.5 -22.5t0.5 -28l10 -362q2 -80 15 -97t78 -23v-27z" />
    <glyph glyph-name="afii10031" unicode="&#x41d;" horiz-adv-x="766" 
d="M729 650v-28q-62 -5 -76 -19.5t-14 -75.5v-404q0 -62 13.5 -76t75.5 -19v-28h-268v28q65 5 79.5 19t14.5 76v199h-341v-199q0 -62 14 -76t76 -19v-28h-263v28q61 5 74.5 19t13.5 76v404q0 62 -14 76t-76 19v28h259v-28q-58 -5 -71 -19t-13 -76v-162h341v162
q0 61 -13.5 75.5t-72.5 19.5v28h261z" />
    <glyph glyph-name="afii10032" unicode="&#x41e;" horiz-adv-x="747" 
d="M380 665h1q131 0 226.5 -93t95.5 -239q0 -158 -96 -253t-238 -95q-137 0 -231 95t-94 238q0 142 92.5 244.5t243.5 102.5zM360 629h-1q-89 0 -151 -74.5t-62 -208.5q0 -141 69 -233t175 -92q90 0 150.5 74t60.5 211q0 152 -69 237.5t-172 85.5z" />
    <glyph glyph-name="afii10033" unicode="&#x41f;" horiz-adv-x="735" 
d="M695 0h-261v28q61 5 74.5 19t13.5 79v424q0 44 -9.5 54.5t-51.5 10.5h-189q-42 0 -51.5 -11.5t-9.5 -58.5v-419q0 -64 13.5 -78.5t74.5 -19.5v-28h-261v28q43 3 59 9.5t22.5 24.5t6.5 64v398q0 65 -13.5 79t-73.5 19v28h654v-28q-59 -5 -72.5 -19.5t-13.5 -78.5v-398
q0 -64 13.5 -78.5t74.5 -19.5v-28z" />
    <glyph glyph-name="afii10034" unicode="&#x420;" horiz-adv-x="563" 
d="M46 650h247q112 0 169 -41q64 -49 64 -141q0 -91 -56.5 -143t-138.5 -62q-23 -3 -45 -1l-74 19v-157q0 -63 15.5 -77t83.5 -19v-28h-271v28q60 5 74 20t14 77v400q0 65 -12.5 79t-69.5 18v28zM212 559v-245q31 -12 73 -12q59 0 102 38t43 124q0 77 -42.5 115.5
t-108.5 38.5q-44 0 -56 -12q-11 -8 -11 -47z" />
    <glyph glyph-name="afii10035" unicode="&#x421;" horiz-adv-x="665" 
d="M614 175l29 -10q-33 -109 -57 -154q-121 -26 -184 -26q-90 0 -160.5 29t-112.5 77t-63.5 105.5t-21.5 119.5q0 157 108 253t277 96q36 0 71.5 -5t69 -13.5t36.5 -8.5q14 -102 20 -151l-29 -7q-20 79 -66.5 114t-128.5 35q-119 0 -187.5 -86t-68.5 -207
q0 -140 73.5 -227.5t188.5 -87.5q73 0 119.5 37.5t86.5 116.5z" />
    <glyph glyph-name="afii10036" unicode="&#x422;" horiz-adv-x="617" 
d="M592 498l-30 -3q-13 62 -31 90q-13 18 -33.5 24.5t-75.5 6.5h-70v-493q0 -59 16 -75t86 -20v-28h-286v28q68 4 83.5 19.5t15.5 75.5v493h-62q-60 0 -83 -6.5t-33 -24.5q-12 -17 -32 -90h-29q10 119 12 180h20q10 -16 21 -20.5t34 -4.5h395q19 0 28.5 5t21.5 20h21
q2 -90 11 -177z" />
    <glyph glyph-name="afii10037" unicode="&#x423;" horiz-adv-x="653" 
d="M639 650v-29q-49 -6 -66 -22.5t-48 -82.5q-16 -35 -86 -195.5t-92 -208.5q-40 -82 -79.5 -111.5t-81.5 -29.5q-23 0 -42.5 10t-26.5 25q-14 27 9 48q22 20 41 4q24 -21 59 -21q33 0 59.5 42t26.5 64q0 20 -17 55q-31 69 -175 356q-18 37 -35.5 48.5t-66.5 18.5v29h236
v-29l-29 -5q-15 -3 -21 -8.5t-4 -16t12 -30.5l154 -316q92 214 119 295q13 43 7 57.5t-35 18.5l-35 5v29h217z" />
    <glyph glyph-name="afii10038" unicode="&#x424;" horiz-adv-x="767" 
d="M495 658v-27q-49 -3 -61.5 -12.5t-12.5 -46.5q55 -1 104.5 -13t96.5 -37t75 -73.5t28 -114.5q0 -64 -27.5 -112t-73.5 -73.5t-96 -38t-106 -13.5q0 -46 11.5 -56.5t62.5 -13.5v-27h-234v27q52 4 63.5 14.5t11.5 55.5q-54 1 -102 12.5t-93.5 36.5t-72.5 73.5t-27 114.5
q0 53 18.5 94.5t48 67.5t69.5 43.5t78.5 24.5t79.5 8q0 38 -12 47t-61 12v27h232zM338 159v331q0 32 -1 49q-88 -3 -145 -50.5t-57 -154.5q0 -56 17.5 -96.5t47.5 -63t63.5 -33t73.5 -11.5q1 5 1 29zM420 493v-337q0 -22 1 -26q92 2 151.5 50t59.5 154q0 57 -18 98
t-49.5 63.5t-67 32.5t-77.5 11v-46z" />
    <glyph glyph-name="afii10039" unicode="&#x425;" horiz-adv-x="654" 
d="M655 0h-263v28q46 5 55.5 14.5t-5.5 34.5q-90 148 -132 214q-69 -104 -122 -202q-19 -32 -10.5 -43.5t58.5 -17.5v-28h-229v28q44 5 70 17t47 40q47 59 164 239q-27 42 -134 214q-33 50 -54 64t-74 20v28h246v-28q-44 -5 -52 -14t5 -28q32 -55 114 -182q66 102 99 162
q19 33 10.5 44.5t-57.5 17.5v28h228v-28q-56 -6 -80 -19.5t-58 -57.5q-45 -62 -121 -179q78 -124 157 -246q35 -53 60.5 -70t77.5 -22v-28z" />
    <glyph glyph-name="afii10040" unicode="&#x426;" horiz-adv-x="741" 
d="M701 37l-24 -205h-30l-12 89q-6 49 -20.5 64t-51.5 15h-525v28q60 4 74 18.5t14 79.5v402q0 61 -14 75.5t-73 19.5v27h260v-27q-60 -5 -74 -19.5t-14 -75.5v-414q0 -52 12.5 -65t61.5 -13h164q50 0 62 11.5t12 61.5v416q0 63 -14 78t-74 20v27h259v-27
q-59 -5 -72.5 -19.5t-13.5 -78.5v-438q0 -34 6 -42t28 -8h59z" />
    <glyph glyph-name="afii10041" unicode="&#x427;" horiz-adv-x="666" 
d="M624 650v-28q-58 -5 -71 -18.5t-13 -72.5v-405q0 -64 13 -78.5t71 -19.5v-28h-259v28q62 5 76 20t14 78v189l-98 -35q-35 -13 -74 -13q-110 0 -156 61q-31 44 -31 118v89q0 56 -12 69t-65 18v28h244v-28q-56 -5 -69 -18.5t-13 -69.5v-77q0 -71 36 -104t117 -33
q59 0 121 30v180q0 59 -13.5 73t-69.5 19v28h252z" />
    <glyph glyph-name="afii10042" unicode="&#x428;" horiz-adv-x="958" 
d="M924 0h-881v27q57 5 70 20t13 80v399q0 63 -13 77t-69 19v28h240v-28q-36 -3 -49 -9t-18.5 -23.5t-5.5 -62.5v-411q0 -57 9 -68t52 -11l104 -1q42 0 51.5 12t9.5 69v410q0 61 -11.5 75.5t-61.5 19.5v28h231v-28q-53 -4 -63 -18t-10 -77v-410q0 -58 9 -69.5t52 -11.5h105
q42 0 51 12t9 68v411q0 63 -12.5 76.5t-68.5 18.5v28h248v-28q-57 -5 -69.5 -19t-12.5 -76v-402q0 -63 14 -77.5t77 -19.5v-28z" />
    <glyph glyph-name="afii10043" unicode="&#x429;" horiz-adv-x="960" 
d="M926 36l-24 -204h-30l-12 89q-6 49 -20 64t-52 15h-747v27q58 5 71.5 20t13.5 79v399q0 64 -13 78t-71 19v28h242v-28q-50 -5 -61.5 -19t-11.5 -77v-409q0 -58 9 -69.5t52 -11.5h104q43 0 52 11.5t9 69.5v409q0 63 -11.5 77t-61.5 19v28h231v-28q-51 -5 -62 -19t-11 -77
v-409q0 -58 9 -69.5t52 -11.5h105q42 0 51 12t9 69v409q0 63 -12.5 77t-68.5 19v28h250v-28q-42 -3 -57 -9t-21 -23.5t-6 -63.5v-438q0 -35 6 -43.5t28 -8.5h59z" />
    <glyph glyph-name="afii10044" unicode="&#x42a;" horiz-adv-x="720" 
d="M348 525v-144q54 6 103 6q114 0 172 -48t58 -133q0 -113 -93 -166q-70 -40 -193 -40h-216v28q59 5 72.5 19t13.5 74v454q0 31 -5 35.5t-36 4.5h-49q-70 0 -89 -27q-20 -26 -34 -91l-29 4q8 75 12 149h409v-28q-66 -6 -81 -20t-15 -77zM348 346v-214q0 -59 18 -77.5
t69 -18.5q149 2 149 161q0 154 -168 154q-30 0 -68 -5z" />
    <glyph glyph-name="afii10045" unicode="&#x42b;" horiz-adv-x="840" 
d="M210 525v-140q45 5 101 5q114 0 171.5 -48.5t57.5 -131.5q0 -114 -91 -167q-72 -43 -196 -43h-211v28q58 5 71 19.5t13 78.5v399q0 63 -13 77.5t-69 19.5v28h255v-28q-44 -3 -60 -9.5t-22.5 -24t-6.5 -63.5zM799 0h-253v28q57 4 70.5 20t13.5 77v402q0 59 -13.5 75
t-70.5 20v28h254v-28q-58 -4 -71.5 -20t-13.5 -75v-403q0 -61 13.5 -76t70.5 -20v-28zM296 36h1q61 0 103.5 40t42.5 122q0 156 -167 156q-38 0 -66 -4v-228q0 -50 16 -68t70 -18z" />
    <glyph glyph-name="afii10046" unicode="&#x42c;" horiz-adv-x="581" 
d="M210 525v-141q54 6 103 6q114 0 172.5 -48t58.5 -132q0 -114 -92 -168q-71 -42 -198 -42h-212v28q58 5 71 19.5t13 77.5v400q0 64 -13 78t-71 19v28h256v-28q-43 -3 -59 -9.5t-22.5 -24.5t-6.5 -63zM299 37h1q62 0 104.5 40t42.5 121q0 155 -168 155q-34 0 -69 -5v-227
q0 -50 17 -67t72 -17z" />
    <glyph glyph-name="afii10047" unicode="&#x42d;" horiz-adv-x="644" 
d="M81 465l-29 6q15 109 21 146q8 3 35 12t42.5 13.5t40 10.5t47.5 9t45 3q86 0 150.5 -30.5t99.5 -80t51.5 -102.5t16.5 -107q0 -86 -24 -153t-59.5 -105t-82.5 -62t-86.5 -32t-77.5 -8q-129 0 -198 69q-45 41 -45 80q0 16 9.5 27t22.5 11q21 0 38 -35q56 -116 179 -116
q96 0 160.5 80.5t65.5 217.5l-348 -8v55l347 -8q-6 139 -68.5 205.5t-158.5 66.5q-47 0 -81.5 -13.5t-56 -41t-32.5 -50t-24 -60.5z" />
    <glyph glyph-name="afii10048" unicode="&#x42e;" horiz-adv-x="956" 
d="M210 365h124q10 128 87 214t204 86q115 0 201 -94.5t86 -242.5q0 -160 -82 -251.5t-205 -91.5q-126 0 -209 94t-85 243h-121v-197q0 -63 13.5 -77.5t72.5 -19.5v-28h-256v28q59 5 72.5 19t13.5 78v401q0 63 -13.5 77t-72.5 19v28h256v-28q-59 -5 -72.5 -19t-13.5 -77
v-161zM609 630h-1q-76 0 -127 -76t-51 -213q0 -143 56.5 -232t146.5 -89q79 0 129 73.5t50 213.5q0 153 -57.5 238t-145.5 85z" />
    <glyph glyph-name="afii10049" unicode="&#x42f;" horiz-adv-x="636" 
d="M594 650v-28q-41 -3 -56.5 -10t-21.5 -25t-6 -62v-399q0 -64 13 -78.5t71 -19.5v-28h-250v28q56 5 69 19.5t13 78.5v160h-39q-38 0 -59.5 -13.5t-42.5 -49.5q-9 -15 -72 -138q-29 -54 -56.5 -69.5t-75.5 -16.5l-65 -1v27q53 7 80 40q11 13 85 141q51 83 106 93v2
q-15 2 -33 7.5t-42 18.5t-43 30.5t-32.5 46.5t-14.5 64q-1 76 54 129t177 53h241zM426 320v251q0 28 -11 37t-47 8q-47 0 -80 -15.5t-48.5 -40.5t-21.5 -48t-6 -46q2 -75 47.5 -110.5t123.5 -35.5h43z" />
    <glyph glyph-name="afii10065" unicode="&#x430;" horiz-adv-x="439" 
d="M433 39l-85 -51q-26 0 -47 19q-16 16 -24 45q-5 -3 -24 -16.5t-27 -18.5t-23 -13.5t-25 -12t-19 -3.5q-52 0 -86 36.5t-34 85.5q0 70 81 98q127 42 155 65v17q0 54 -22.5 83.5t-61.5 29.5q-28 0 -44 -19q-15 -15 -30 -65q-7 -23 -29 -23q-14 0 -28.5 13t-14.5 29
q0 17 31 40q74 53 149 70q49 0 82 -27q45 -39 45 -123v-185q0 -60 35 -60q16 0 36 12zM275 84v155q-12 -6 -49 -23t-41 -19q-32 -15 -46.5 -31t-14.5 -42q0 -36 22 -56t49 -20q19 0 42 10.5t38 25.5z" />
    <glyph glyph-name="afii10066" unicode="&#x431;" horiz-adv-x="501" 
d="M125 377l2 -2q66 73 144 73h1q82 0 137 -62t54 -154q-1 -115 -65 -179.5t-147 -64.5q-100 0 -157 75.5t-56 198.5q2 157 87 269q48 64 103 96q40 26 99 44q62 18 90 40q16 12 16 -3q0 -24 -13 -51.5t-42 -43.5q-31 -17 -118 -34q-72 -13 -104 -70q-28 -53 -31 -132z
M249 411h-1q-45 0 -84 -45q-32 -36 -33 -113q-1 -103 35.5 -167.5t91.5 -64.5q47 0 78.5 42t32.5 138q1 93 -33 151.5t-87 58.5z" />
    <glyph glyph-name="afii10067" unicode="&#x432;" horiz-adv-x="486" 
d="M321 240v-2q127 -16 127 -108q0 -37 -19 -63.5t-52.5 -40.5t-70.5 -20t-80 -6h-196v26q49 4 60 16t11 59v238q0 46 -10.5 58t-55.5 15v24h235q148 0 148 -97q0 -73 -97 -99zM178 251h51q105 0 105 77t-100 77q-38 0 -47 -5.5t-9 -24.5v-124zM178 219v-118
q0 -42 14.5 -55.5t50.5 -13.5q49 0 82 25t33 71q0 91 -125 91h-55z" />
    <glyph glyph-name="afii10068" unicode="&#x433;" horiz-adv-x="389" 
d="M371 307l-28 -3q-12 53 -26 76q-15 23 -64 23h-45q-20 -1 -24.5 -6t-4.5 -27v-270q0 -45 12 -57.5t65 -16.5v-26h-223v26q46 5 56.5 16.5t10.5 57.5v245q0 40 -10.5 50.5t-59.5 14.5v26h335q0 -6 1 -32t2.5 -53.5t2.5 -43.5z" />
    <glyph glyph-name="afii10069" unicode="&#x434;" horiz-adv-x="490" 
d="M461 436v-26q-49 -4 -60 -14.5t-11 -50.5v-261q0 -31 6 -40t28 -9h40l-20 -185h-29l-13 87q-5 39 -14.5 51t-36.5 12h-222q-26 0 -36 -14t-21 -60l-18 -76h-29l1 185h36q16 0 24 15q17 36 32 107q22 94 22 205q0 23 -9 31t-38 13l-29 4v26h397zM311 85v277q0 29 -6 35
t-32 6h-56q-20 0 -25.5 -8t-6.5 -33q-5 -186 -43 -310q-6 -18 10 -18h107q37 0 44.5 8t7.5 43z" />
    <glyph glyph-name="afii10070" unicode="&#x435;" horiz-adv-x="425" 
d="M380 106l15 -22q-42 -52 -87 -74t-76 -22q-89 0 -142 62t-53 151q0 103 66 174q67 73 146 73h1q61 0 105.5 -46t44.5 -105q0 -16 -4.5 -22.5t-18.5 -9.5q-54 -10 -262 -17q1 -95 46 -143.5t104 -48.5q61 0 115 50zM226 411h-1q-35 0 -64.5 -32t-40.5 -90q83 0 170 3
q24 0 24 19q1 41 -23.5 70.5t-64.5 29.5z" />
    <glyph glyph-name="afii10072" unicode="&#x436;" horiz-adv-x="726" 
d="M710 0h-62q-35 0 -58.5 11.5t-44.5 46.5q-17 29 -59 110q-26 51 -85 51v-123q0 -43 10 -54.5t55 -15.5v-26h-208v26q46 4 56 15.5t10 54.5v123q-35 0 -56.5 -11.5t-37.5 -41.5l-25 -50t-29 -57q-19 -37 -41.5 -48t-57.5 -11h-62v27q32 2 52 17.5t46 58.5q46 77 58 94
q27 37 64 50v3q-28 20 -58 64q-16 23 -25.5 35t-25.5 22.5t-33 10.5h-16q-37 0 -37 31q0 15 12.5 25t32.5 10q48 0 94 -71q53 -82 71 -98q21 -18 35.5 -23.5t38.5 -6.5v99q0 41 -9.5 51t-52.5 14v25h199v-25q-41 -4 -50.5 -14.5t-9.5 -50.5v-99q45 1 77 30q17 16 68 94
q14 21 23.5 34t29.5 27t42 14q20 0 32 -10.5t12 -25.5q0 -30 -37 -30h-14q-26 0 -44.5 -17.5t-44.5 -55.5q-27 -38 -55 -59v-3q37 -10 64 -50q19 -27 59 -94q26 -43 46 -58.5t51 -17.5v-27z" />
    <glyph glyph-name="afii10073" unicode="&#x437;" horiz-adv-x="408" 
d="M253 242v-2q52 -8 85 -36t33 -77q0 -64 -55.5 -101.5t-131.5 -37.5q-93 0 -137 51q-20 26 -20 49q0 14 8.5 22.5t19.5 8.5q19 0 33 -28q33 -71 98 -71q42 0 66.5 28t24.5 77q0 38 -19 65t-56 27q-10 0 -29.5 -3t-30.5 -3q-15 0 -24.5 7t-9.5 18q0 10 10 17.5t26 7.5
q12 0 31.5 -2.5t28.5 -2.5q26 0 41.5 19t15.5 51q0 45 -22 68t-57 23q-70 0 -106 -109l-27 7l13 93q68 40 135 40q69 0 110.5 -30.5t41.5 -80.5q0 -38 -28 -60q-19 -16 -68 -35z" />
    <glyph glyph-name="afii10074" unicode="&#x438;" horiz-adv-x="555" 
d="M521 436v-24q-47 -4 -58 -14t-11 -47v-257q0 -42 10.5 -53t57.5 -15v-26h-203v26q40 4 49.5 15t9.5 52v142q0 63 4 137h-2l-181 -334q-9 -17 -9 -31v-7h-154v26q46 4 56 16.5t10 58.5v240q0 44 -10 55.5t-56 15.5v24h206v-24q-45 -4 -54.5 -15t-9.5 -55v-114
q0 -83 -4 -160h2l185 339q8 13 8 22v7h154z" />
    <glyph glyph-name="afii10075" unicode="&#x439;" horiz-adv-x="555" 
d="M521 436v-24q-47 -4 -58 -14t-11 -47v-257q0 -42 10.5 -53t57.5 -15v-26h-203v26q40 4 49.5 15t9.5 52v142q0 63 4 137h-2l-181 -334q-9 -17 -9 -31v-7h-154v26q46 4 56 16.5t10 58.5v240q0 44 -10 55.5t-56 15.5v24h206v-24q-45 -4 -54.5 -15t-9.5 -55v-114
q0 -83 -4 -160h2l185 339q8 13 8 22v7h154zM280 539h1q27 0 40 10.5t10 23.5q0 3 -3 18q-5 16 4 29.5t27 13.5q16 0 27 -13.5t11 -32.5q0 -37 -32 -60.5t-85 -23.5q-55 0 -85.5 23t-30.5 61q0 18 11 32t27 14q19 0 27 -14t4 -29q-2 -5 -4 -19t11 -23.5t40 -9.5z" />
    </font>
</defs>
</svg>
