<?xml version="1.0" standalone="no"?>
<!DOCTYPE svg PUBLIC "-//W3C//DTD SVG 1.1//EN" "http://www.w3.org/Graphics/SVG/1.1/DTD/svg11.dtd" >
<svg xmlns="http://www.w3.org/2000/svg" xmlns:xlink="http://www.w3.org/1999/xlink" version="1.1">
<metadata>
Created by FontForge 20170731 at Tue Oct 22 21:34:23 2002
 By ,,,
(c) 2000, 2002 Adobe Systems Incorporated. All Rights Reserved. U.S. Patents Des. 338,907 and 371,799. Other patents pending.
</metadata>
<defs>
<font id="MinionPro-It" horiz-adv-x="400" >
  <font-face 
    font-family="Minion Pro"
    font-weight="400"
    font-style="italic"
    font-stretch="normal"
    units-per-em="1000"
    panose-1="2 4 5 3 5 2 1 9 2 3"
    ascent="727"
    descent="-273"
    x-height="448"
    cap-height="649"
    bbox="-201 -360 1684 919"
    underline-thickness="50"
    underline-position="-200"
    slope="-12"
    unicode-range="U+0020-FB06"
  />
<missing-glyph horiz-adv-x="500" 
d="M0 0v700h500v-700h-500zM250 395l170 255h-340zM280 350l170 -255v510zM80 50h340l-170 255zM50 605v-510l170 255z" />
    <glyph glyph-name="T_h" unicode="Th" horiz-adv-x="1033" 
d="M987 107l11 -24q-38 -43 -79.5 -69t-64.5 -26q-39 0 -16 95l53 235q16 68 -8 68q-31 0 -101.5 -66t-107.5 -128q-24 -95 -39 -185q-32 -6 -71 -18l-8 7q66 290 128 610q-101 9 -174 9h-67l-101 -485q-8 -36 -9 -53.5t9 -29t27 -14.5t55 -6l-6 -27h-277l6 27q64 5 80.5 20
t31.5 83l106 485h-72q-61 0 -87 -7t-41 -24q-23 -27 -50 -89h-30q33 107 47 179h21q7 -16 16 -20.5t30 -4.5h387q66 0 85.5 3.5t25.5 14.5l4 21q50 26 70 26q12 0 4 -34q-17 -77 -47 -217.5t-43 -200.5h2q48 62 99 104t90 61q39 21 63 21q55 0 30 -110l-55 -240
q-9 -36 2 -36q21 0 71 45z" />
    <glyph glyph-name="T_h.caron" unicode="&#x164;h" horiz-adv-x="1033" 
d="M987 107l11 -24q-38 -43 -79.5 -69t-64.5 -26q-39 0 -16 95l53 235q16 68 -8 68q-31 0 -101.5 -66t-107.5 -128q-24 -95 -39 -185q-32 -6 -71 -18l-8 7q66 290 128 610q-101 9 -174 9h-67l-101 -485q-8 -36 -9 -53.5t9 -29t27 -14.5t55 -6l-6 -27h-277l6 27q64 5 80.5 20
t31.5 83l106 485h-72q-61 0 -87 -7t-41 -24q-23 -27 -50 -89h-30q33 107 47 179h21q7 -16 16 -20.5t30 -4.5h387q66 0 85.5 3.5t25.5 14.5l4 21q50 26 70 26q12 0 4 -34q-17 -77 -47 -217.5t-43 -200.5h2q48 62 99 104t90 61q39 21 63 21q55 0 30 -110l-55 -240
q-9 -36 2 -36q21 0 71 45zM551 813l14 -22q-81 -54 -136 -104h-25q-41 51 -103 104l19 22q50 -22 106 -58q73 39 125 58z" />
    <glyph glyph-name="T_h.caronswash" unicode="&#xe0c4;h" horiz-adv-x="1097" 
d="M1048 108l13 -24q-38 -43 -80 -69.5t-65 -26.5q-38 0 -15 96l53 233q16 69 -8 69q-31 0 -98 -64t-105 -128q-27 -115 -39 -187q-45 -9 -72 -18l-7 8q91 408 131 617q-39 -10 -79 -10q-33 0 -161 7l-99 -468q-6 -28 -9 -44.5t-1 -30.5t5.5 -19.5t17 -11t26 -7t40.5 -3.5
l-5 -27h-282l5 27q69 6 86 22t35 95l104 472q-55 5 -113 5q-91 0 -136.5 -45t-43.5 -129q0 -51 16 -90q5 -15 -6 -15q-21 0 -48.5 27.5t-27.5 78.5q0 90 98 159q82 57 218 57q58 0 160 -6q117 -7 163 -7q75 0 105 58h28q-26 -107 -98 -446h3q90 117 182 165q37 20 64 20
q55 0 30 -110l-56 -240q-9 -34 2 -36q20 0 69 46zM619 822l14 -22q-81 -54 -136 -104h-25q-41 51 -103 104l19 22q50 -22 106 -58q73 39 125 58z" />
    <glyph glyph-name="T_h.commaaccent" unicode="&#x162;h" horiz-adv-x="1033" 
d="M987 107l11 -24q-38 -43 -79.5 -69t-64.5 -26q-39 0 -16 95l53 235q16 68 -8 68q-31 0 -101.5 -66t-107.5 -128q-24 -95 -39 -185q-32 -6 -71 -18l-8 7q66 290 128 610q-101 9 -174 9h-67l-101 -485q-8 -36 -9 -53.5t9 -29t27 -14.5t55 -6l-6 -27h-277l6 27q64 5 80.5 20
t31.5 83l106 485h-72q-61 0 -87 -7t-41 -24q-23 -27 -50 -89h-30q33 107 47 179h21q7 -16 16 -20.5t30 -4.5h387q66 0 85.5 3.5t25.5 14.5l4 21q50 26 70 26q12 0 4 -34q-17 -77 -47 -217.5t-43 -200.5h2q48 62 99 104t90 61q39 21 63 21q55 0 30 -110l-55 -240
q-9 -36 2 -36q21 0 71 45zM278 -30h1q24 0 41 -18t17 -46q1 -48 -34.5 -76t-82.5 -38l-9 27q68 24 68 58q0 24 -35 35q-12 2 -12 19t13 28t33 11z" />
    <glyph glyph-name="T_h.commaaccentswash" unicode="&#xe0c6;h" horiz-adv-x="1097" 
d="M1048 108l13 -24q-38 -43 -80 -69.5t-65 -26.5q-38 0 -15 96l53 233q16 69 -8 69q-31 0 -98 -64t-105 -128q-27 -115 -39 -187q-45 -9 -72 -18l-7 8q91 408 131 617q-39 -10 -79 -10q-33 0 -161 7l-99 -468q-6 -28 -9 -44.5t-1 -30.5t5.5 -19.5t17 -11t26 -7t40.5 -3.5
l-5 -27h-282l5 27q69 6 86 22t35 95l104 472q-55 5 -113 5q-91 0 -136.5 -45t-43.5 -129q0 -51 16 -90q5 -15 -6 -15q-21 0 -48.5 27.5t-27.5 78.5q0 90 98 159q82 57 218 57q58 0 160 -6q117 -7 163 -7q75 0 105 58h28q-26 -107 -98 -446h3q90 117 182 165q37 20 64 20
q55 0 30 -110l-56 -240q-9 -34 2 -36q20 0 69 46zM342 -30h1q24 0 41 -18t17 -46q1 -48 -34.5 -76t-82.5 -38l-9 27q68 24 68 58q0 24 -35 35q-12 2 -12 19t13 28t33 11z" />
    <glyph glyph-name="T_h.swash" unicode="&#xe0ba;h" horiz-adv-x="1097" 
d="M1048 108l13 -24q-38 -43 -80 -69.5t-65 -26.5q-38 0 -15 96l53 233q16 69 -8 69q-31 0 -98 -64t-105 -128q-27 -115 -39 -187q-45 -9 -72 -18l-7 8q91 408 131 617q-39 -10 -79 -10q-33 0 -161 7l-99 -468q-6 -28 -9 -44.5t-1 -30.5t5.5 -19.5t17 -11t26 -7t40.5 -3.5
l-5 -27h-282l5 27q69 6 86 22t35 95l104 472q-55 5 -113 5q-91 0 -136.5 -45t-43.5 -129q0 -51 16 -90q5 -15 -6 -15q-21 0 -48.5 27.5t-27.5 78.5q0 90 98 159q82 57 218 57q58 0 160 -6q117 -7 163 -7q75 0 105 58h28q-26 -107 -98 -446h3q90 117 182 165q37 20 64 20
q55 0 30 -110l-56 -240q-9 -34 2 -36q20 0 69 46z" />
    <glyph glyph-name="f_b" unicode="fb" horiz-adv-x="757" 
d="M330 430l-19 -31l-100 -10q-37 -208 -51 -277q-25 -126 -53.5 -193.5t-71.5 -113.5q-58 -62 -112 -62q-21 0 -40 12.5t-19 29.5q0 20 27 45q10 8 19 0q27 -25 60 -25q24 0 42 20q33 35 70 254l52 312h-81l-4 10l30 29h63q27 137 98 209q30 31 72 52t75 21q49 0 79 -25
q50 25 65 25q11 0 4 -30q-53 -224 -86 -378h2q60 70 118.5 107t96.5 37q33 0 52 -30t19 -80q0 -82 -43.5 -166.5t-108.5 -128.5q-84 -55 -153 -55q-54 0 -80 43q-23 36 -5 126q56 268 100 463q-33 52 -86 52q-49 0 -84.5 -56.5t-58.5 -185.5h112zM620 391h-1
q-30 0 -77.5 -37.5t-102.5 -110.5q-9 -26 -19 -82q-23 -125 62 -125q30 0 55 15q46 27 81.5 105t35.5 165q0 70 -34 70z" />
    <glyph glyph-name="f_f_b" unicode="ffb" horiz-adv-x="1019" 
d="M591 430l-20 -32l-97 -8q-28 -162 -42 -238q-26 -136 -58.5 -206t-83.5 -117q-32 -29 -71.5 -45t-70.5 -16q-65 0 -107 45q-28 -30 -61.5 -49.5t-60.5 -19.5q-21 0 -39 10.5t-18 26.5q0 18 21 37q18 18 30 11q32 -22 57 -22q27 0 43 21q33 43 66 240q32 197 53 322h-83
l-3 11l29 29h65q24 112 88 179q33 35 81 57.5t92 22.5q70 0 101 -47q33 32 74 51t75 19q48 0 78 -25q50 25 65 25q12 0 4 -30q-53 -224 -86 -378h2q61 70 118.5 107t94.5 37q33 0 53 -30t20 -79q0 -83 -44 -168t-109 -128q-82 -55 -153 -55q-53 0 -79 43q-23 36 -5 126
q24 116 100 462q-14 24 -38 39t-49 15q-49 0 -84.5 -56t-57.5 -187h110zM882 391h-1q-28 0 -76.5 -38t-102.5 -110q-9 -26 -19 -82q-23 -126 61 -126q29 0 54 15q47 28 83 106t36 165q0 70 -35 70zM217 430h188q19 104 58 163q-30 55 -100 55q-56 0 -90.5 -50.5
t-55.5 -167.5zM397 390h-188q-38 -220 -51 -281q-33 -170 -81 -244q18 -20 47 -33.5t55 -13.5q62 0 91 38q43 47 78 245q40 234 49 289z" />
    <glyph glyph-name="f_f_h" unicode="ffh" horiz-adv-x="1055" 
d="M1009 108l12 -24q-38 -43 -79.5 -69.5t-64.5 -26.5q-39 0 -16 95l54 235q6 26 7 40.5t-2.5 21t-12.5 6.5q-31 0 -101 -66t-108 -129q-29 -124 -39 -184q-34 -6 -72 -18l-7 7q62 273 132 625q-36 52 -90 52q-49 0 -83 -56.5t-57 -186.5h110l-20 -32l-97 -8
q-38 -216 -43 -242q-26 -133 -58.5 -202.5t-84.5 -117.5q-31 -29 -69.5 -45t-70.5 -16q-66 0 -107 47q-28 -30 -61 -50t-60 -20q-21 0 -40 10.5t-19 26.5q0 22 22 40q17 17 30 8q33 -22 57 -22q26 0 42 21q34 44 67 241q28 170 53 321h-83l-3 11l29 29h65q23 110 89 178
q33 35 80.5 58t90.5 23q69 0 103 -45q30 31 72 49.5t77 18.5q48 0 79 -26q49 26 62 26q11 -1 5 -29l-91 -423h2q88 113 190 168q37 20 63 20q55 0 30 -110l-56 -239q-8 -34 2 -37q20 0 70 46zM217 430h188q20 104 60 165q-30 53 -99 53q-59 0 -93.5 -50.5t-55.5 -167.5z
M397 390h-188q-7 -39 -16.5 -92t-17 -96.5t-17.5 -92.5q-35 -172 -80 -244q16 -20 46 -34t56 -14q60 0 89 39q47 58 79 245q37 212 49 289z" />
    <glyph glyph-name="f_f_j" unicode="ffj" horiz-adv-x="764" 
d="M74 430h64q27 115 92 180q31 33 78.5 55.5t93.5 22.5q69 0 101 -43q69 67 149 67q52 0 77.5 -23t25.5 -44q0 -33 -35 -46q-31 -13 -39 14q-8 31 -22 46.5t-40 15.5q-99 0 -140 -245h117q54 0 127 14q17 -11 5 -70q-8 -39 -27.5 -138t-29.5 -146q-37 -183 -118 -260
q-64 -63 -108 -63q-16 0 -29.5 9t-13.5 22q0 23 25 44q12 10 22 5q23 -15 48 -15q42 0 69 109q16 71 78 389q9 40 1.5 50t-46.5 10h-127q-30 -169 -43 -236q-25 -141 -56.5 -210t-84.5 -117q-31 -28 -69.5 -44t-65.5 -16q-66 0 -113 47q-27 -30 -61.5 -50.5t-60.5 -20.5
q-21 0 -38.5 10t-17.5 25q0 19 22 39q17 17 29 9q33 -20 56 -20q26 0 42 22q32 41 65 240q14 86 32.5 196.5t21.5 126.5h-82l-2 9zM214 430h188q21 106 63 167q-14 23 -40.5 37.5t-56.5 14.5q-59 0 -95.5 -51t-58.5 -168zM394 391h-188q-9 -52 -24.5 -141.5t-24.5 -139.5
q-35 -178 -81 -247q16 -20 45.5 -33t58.5 -13q60 0 91 39q40 45 73 234q17 103 50 301z" />
    <glyph glyph-name="f_f_k" unicode="ffk" horiz-adv-x="1006" 
d="M698 236l1 -1q32 37 86 91q120 122 175 122q20 0 31 -9.5t11 -21.5q0 -22 -20 -40q-9 -9 -16 -6q-18 8 -38 8q-54 0 -129 -83q31 -100 81 -194q25 -49 40 -49q19 0 57 46l17 -21q-58 -90 -110 -90q-17 0 -32 14t-33 52q-43 88 -76 185q-45 -46 -57 -66q-28 -137 -33 -166
q-41 -8 -71 -19l-7 6q79 350 138 631q-35 47 -89 47q-50 0 -84.5 -54.5t-57.5 -187.5h110l-20 -32l-97 -8q-36 -208 -42 -238q-27 -138 -58.5 -206.5t-82.5 -114.5q-32 -29 -72.5 -46t-69.5 -17q-65 0 -109 45q-27 -29 -60.5 -49t-60.5 -20q-21 0 -39 10t-18 25q0 19 23 40
q17 15 28 8q31 -21 56 -21q26 0 44 21q34 46 66 240q10 64 54 323h-84l-3 11l29 29h65q26 113 89 179q33 35 81 57.5t92 22.5q68 0 101 -45q31 30 73 49t76 19q48 0 79 -26q49 26 62 26q11 0 5 -27q-8 -36 -44.5 -198.5t-56.5 -250.5zM218 430h187q22 106 60 166
q-33 51 -98 51q-58 0 -93 -50t-56 -167zM397 390h-187q-34 -196 -50 -279q-33 -172 -80 -247q16 -20 45.5 -33.5t56.5 -13.5q60 0 90 40q43 45 76 237q34 197 49 296z" />
    <glyph glyph-name="f_f_t" unicode="fft" horiz-adv-x="826" 
d="M858 430l-26 -36l-101 -4l-58 -272q-13 -60 6 -60q12 0 41.5 19t48.5 38l13 -23q-29 -35 -77 -70t-82 -35q-13 0 -21.5 11.5t-10.5 41t10 79.5l59 271h-186q-36 -198 -46 -248q-24 -128 -55 -195.5t-82 -114.5q-32 -31 -72 -47.5t-72 -16.5q-67 0 -107 44
q-68 -68 -122 -68q-21 0 -39 11.5t-18 27.5q2 24 22 40q16 16 29 7q31 -23 57 -23t44 21q34 44 66 237q10 63 27 168t26 157h-83l-4 10l29 30h66q23 110 87 175q33 35 82 59t93 24q65 0 98 -46q31 32 69.5 51t73.5 19q26 0 44.5 -14.5t17.5 -29.5q0 -24 -27 -43
q-13 -10 -22 0q-35 37 -72 37q-33 0 -58 -54.5t-45 -177.5h188l19 78l75 63l9 -6l-31 -135h117zM217 430h187q19 105 57 163q-32 55 -97 55q-56 0 -92 -53t-55 -165zM396 390h-188q-37 -218 -49 -281q-32 -171 -80 -245q14 -20 42.5 -33.5t55.5 -13.5q60 0 91 38
q43 45 78 238q22 121 50 297z" />
    <glyph glyph-name="f_h" unicode="fh" horiz-adv-x="789" 
d="M744 108l13 -24q-38 -43 -79.5 -69.5t-64.5 -26.5q-39 0 -16 95l53 233q9 38 7 54t-15 16q-31 0 -100.5 -65t-107.5 -128q-20 -80 -40 -186q-32 -6 -71 -18l-7 7q62 277 131 625q-33 49 -89 49q-51 0 -84.5 -54t-56.5 -186h111l-20 -31l-98 -10q-33 -191 -52 -279
q-25 -124 -54.5 -192.5t-72.5 -113.5q-58 -61 -112 -61q-21 0 -40.5 12.5t-18.5 29.5q0 22 27 45q10 8 19 -1q29 -27 60 -27q25 0 42 20q36 37 72 252q7 42 25 151.5t28 165.5h-82l-4 10l29 29h65q26 133 99 208q31 32 73 53t77 21q48 0 77 -26q46 26 62 26q10 -1 6 -29
l-91 -422h2q89 114 189 167q37 20 64 20q54 0 29 -110l-55 -240q-8 -33 2 -36q19 0 69 46z" />
    <glyph glyph-name="f_j" unicode="fj" horiz-adv-x="501" 
d="M76 430h61q33 147 108 218q70 64 146 64q50 0 73.5 -22t23.5 -44q0 -37 -34 -45q-32 -12 -37 11q-13 63 -61 63q-97 0 -142 -245h112q75 0 131 15q17 -15 4 -79q-18 -90 -56 -276q-37 -183 -117 -259q-65 -64 -107 -64q-16 0 -30 9.5t-14 22.5q0 22 25 45q11 9 22 4
q26 -15 49 -15q22 0 37 23t30 84q19 80 79 388q9 41 2.5 52t-42.5 11h-132q-29 -158 -52 -268q-29 -134 -56 -201.5t-69 -112.5q-61 -66 -118 -66q-21 0 -38.5 11.5t-17.5 28.5q0 20 29 44q9 8 19 0q26 -22 55 -22q27 0 44 19q32 32 71 253q51 291 55 314h-78l-4 11z" />
    <glyph glyph-name="f_k" unicode="fk" horiz-adv-x="747" 
d="M436 237h1q19 22 85 91q120 120 176 120q19 0 30 -9.5t11 -21.5q0 -19 -19 -40q-10 -8 -16 -5q-16 7 -38 7q-58 0 -131 -83q28 -92 82 -195q25 -48 40 -48q17 0 57 46l17 -21q-58 -90 -110 -90q-17 0 -32 14t-33 52q-45 93 -78 185q-43 -45 -54 -65q-12 -53 -34 -167
q-39 -8 -71 -19l-7 6q96 424 138 629q-15 23 -39 36.5t-49 13.5q-50 0 -85.5 -56.5t-58.5 -186.5h110l-21 -32l-97 -10q-39 -219 -52 -279q-25 -125 -54 -192t-72 -112q-58 -62 -112 -62q-22 0 -41 12.5t-19 29.5q0 22 27 44q10 7 19 0q29 -25 60 -25q25 0 41 19
q36 42 72 250q32 183 54 316h-82l-4 11l30 30h65q27 137 99 209q31 31 73 52t76 21q49 0 79 -25q50 25 62 25q11 0 5 -28q-17 -75 -50 -224t-50 -223z" />
    <glyph glyph-name="f_t" unicode="ft" horiz-adv-x="567" 
d="M598 430l-26 -36l-101 -4l-58 -272q-12 -59 6 -59q12 0 41 18.5t47 37.5l15 -23q-32 -36 -79 -70.5t-81 -34.5q-13 0 -20.5 11.5t-10 40.5t9.5 80l59 271h-189q-44 -240 -49 -266q-27 -135 -54.5 -204t-69.5 -113q-59 -63 -114 -63q-22 0 -40 11.5t-18 28.5q0 21 29 46
q10 8 19 0q28 -24 58 -24q25 0 42 19q31 31 68 253q8 47 18.5 111.5t18 110.5t15.5 90h-78l-4 10l29 30h61q26 135 95 207q73 75 142 75q27 0 45.5 -15t17.5 -30q-2 -24 -27 -45q-14 -9 -23 0q-33 38 -70 38q-33 0 -58 -54t-46 -176h191l19 80l75 63l9 -7l-31 -136h117z" />
    <glyph glyph-name="f_f" unicode="ff" horiz-adv-x="530" 
d="M76 430h65q23 112 87 178q34 35 83 57.5t97 22.5q64 0 97 -42q69 66 132 66q24 0 42 -13.5t17 -28.5q-2 -24 -25 -42q-15 -11 -27 1q-28 30 -62 30q-33 0 -55.5 -47.5t-44.5 -181.5h112l-19 -30l-100 -8q-40 -225 -43 -241q-25 -134 -57 -203.5t-84 -116.5
q-32 -30 -72.5 -46.5t-69.5 -16.5q-67 0 -112 42q-63 -67 -117 -67q-22 0 -40.5 11t-18.5 26q0 19 23 40q18 15 28 8q29 -22 57 -22q25 0 42 21q35 45 68 239q37 215 54 325h-82l-4 11zM217 430h188q20 109 61 167q-14 22 -41 36t-56 14q-65 0 -98 -52t-54 -165zM397 391
h-187q-35 -205 -50 -278q-33 -171 -83 -250q15 -19 44.5 -31.5t57.5 -12.5q64 0 93 37q43 50 76 238q37 220 49 297z" />
    <glyph glyph-name="f_i" unicode="fi" horiz-adv-x="531" 
d="M481 112l14 -21q-25 -32 -74 -67.5t-77 -35.5q-41 0 -17 98q8 35 17.5 75t20.5 89.5t18 77.5q9 44 2.5 54t-43.5 10h-131q-30 -168 -52 -270q-28 -132 -55.5 -200t-69.5 -113q-61 -65 -116 -65q-22 0 -40 11.5t-18 27.5q0 20 29 45q10 7 21 0q24 -22 56 -22q26 0 43 19
q34 32 72 252q13 76 31 182.5t22 132.5h-78l-4 10l28 28h61q32 145 108 217q71 65 146 65q50 0 73.5 -22t23.5 -44q-1 -15 -11 -28.5t-25 -17.5q-31 -8 -35 12q-13 61 -61 61q-98 0 -141 -243h111q69 0 133 15q18 -11 3 -72q-23 -96 -63 -268q-11 -42 2 -44q8 0 32 16t44 35
z" />
    <glyph glyph-name="f_l" unicode="fl" horiz-adv-x="525" 
d="M330 430l-20 -31l-99 -10q-34 -193 -52 -284q-24 -121 -52 -187t-71 -111q-60 -63 -115 -63q-21 0 -39 12.5t-17 28.5q0 25 27 44q10 7 20 0q25 -23 57 -23q26 0 44 20q34 36 70 254q24 146 51 311h-80l-3 10l29 29h62q24 134 97 207q32 32 76.5 53.5t81.5 21.5
q49 0 74 -25q43 25 56 25q12 0 5 -30q-70 -323 -122 -582q-7 -36 5 -39q9 0 34 18t43 38l14 -23q-32 -44 -79 -75t-72 -31q-40 0 -14 126q28 131 59.5 284.5t47.5 229.5q-10 16 -32 29.5t-49 13.5q-61 0 -95.5 -63.5t-52.5 -177.5h111z" />
    <glyph glyph-name="f_f_i" unicode="ffi" horiz-adv-x="791" 
d="M744 111l12 -22q-26 -34 -74.5 -67.5t-75.5 -33.5q-40 0 -16 103q12 47 56 235q10 44 2.5 54t-47.5 10h-124q-34 -188 -43 -236q-26 -137 -60 -210.5t-90 -120.5q-29 -26 -65.5 -41t-64.5 -15q-66 0 -108 46q-24 -29 -59 -49.5t-64 -20.5q-22 0 -41 11t-18 27q0 20 24 42
q14 14 27 6q32 -23 57 -23q26 0 43 21q32 41 66 242q43 260 53 322h-83l-3 9l28 30h65q27 112 93 180q33 34 79 56t91 22q70 0 102 -43q69 67 150 67q52 0 77 -23t25 -45q0 -29 -33 -43q-35 -14 -41 13q-16 63 -62 63q-99 0 -139 -247h115q76 0 126 16q26 0 7 -73
q-12 -48 -34 -140t-30 -123q-11 -47 1 -49q9 0 33 15.5t43 34.5zM218 430h187q22 107 63 167q-14 23 -40.5 37.5t-55.5 14.5q-59 0 -95.5 -51t-58.5 -168zM399 391h-188q-9 -51 -25 -141t-25 -140q-32 -168 -78 -247q15 -20 42.5 -32.5t57.5 -12.5q58 0 88 38q45 52 76 231
q13 72 29.5 170t22.5 134z" />
    <glyph glyph-name="f_f_l" unicode="ffl" horiz-adv-x="793" 
d="M594 430l-20 -31l-97 -10q-7 -38 -20.5 -113.5t-22.5 -121.5q-27 -141 -60.5 -213t-89.5 -119q-28 -25 -64.5 -40t-64.5 -15q-68 0 -111 46q-26 -29 -60 -49.5t-63 -20.5q-22 0 -41 11t-19 27q2 21 25 41q14 15 27 5q30 -22 56 -22q29 0 46 21q34 43 66 242
q10 60 27.5 165.5t25.5 157.5h-82l-4 11l29 28h65q26 114 90 179q31 33 79 56t93 23q64 0 104 -44q30 29 75 48.5t80 19.5q49 0 75 -24q46 24 57 24q13 0 4 -39q-65 -287 -120 -570q-9 -43 5 -43q8 0 33 17.5t43 36.5l14 -22q-34 -42 -80 -73t-70 -31q-42 0 -17 118
q80 383 108 522q-27 43 -85 43q-108 0 -146 -241h110zM218 430h189q21 108 61 167q-13 22 -40 36.5t-59 14.5q-56 0 -92.5 -49t-58.5 -169zM400 391h-188q-7 -36 -23.5 -131.5t-27.5 -150.5q-32 -173 -78 -245q15 -20 43.5 -33t58.5 -13q61 0 90 39q42 46 74 231
q8 45 25.5 151.5t25.5 151.5z" />
    <glyph glyph-name=".notdef" horiz-adv-x="500" 
d="M0 0v700h500v-700h-500zM250 395l170 255h-340zM280 350l170 -255v510zM80 50h340l-170 255zM50 605v-510l170 255z" />
    <glyph glyph-name=".null" horiz-adv-x="0" 
 />
    <glyph glyph-name="nonmarkingreturn" horiz-adv-x="333" 
 />
    <glyph glyph-name="space" unicode=" " horiz-adv-x="229" 
 />
    <glyph glyph-name="exclam" unicode="!" horiz-adv-x="259" 
d="M269 634q-5 -23 -21 -79q-18 -65 -51.5 -186t-48.5 -173q-4 -5 -16.5 -5t-14.5 5q4 41 17.5 166t19.5 193q6 65 9 80q5 29 58 29h1q27 0 38.5 -7t8.5 -23zM160 52v-1q0 -29 -18 -46t-42 -17h-1q-22 0 -36.5 15.5t-14.5 39.5q0 29 17 47.5t44 18.5q22 0 36.5 -16t14.5 -41
z" />
    <glyph glyph-name="quotedbl" unicode="&#x22;" horiz-adv-x="345" 
d="M234 710l8 -7q-10 -34 -37 -104t-47 -109l-30 -13q29 158 31 211zM388 710l9 -7q-10 -34 -37 -103.5t-47 -109.5l-30 -13q31 172 31 211z" />
    <glyph glyph-name="numbersign" unicode="#" horiz-adv-x="477" 
d="M484 455l-12 -59h-91l-41 -138h82l-11 -59h-88l-53 -178h-39l51 178h-110l-52 -178h-40l51 178h-95l13 59h100l41 138h-92l12 59h97l46 157h41l-47 -157h110l46 157h40l-46 -157h87zM340 396h-109l-41 -138h109z" />
    <glyph glyph-name="dollar" unicode="$" horiz-adv-x="477" 
d="M458 453l-29 -3q-4 118 -90 137l-44 -229l22 -15q55 -35 84 -71.5t29 -89.5q0 -79 -59.5 -127t-144.5 -51l-16 -85h-35l16 85q-53 3 -94 22t-56 37q0 69 -2 137l28 3q5 -38 17.5 -70.5t42 -62t71.5 -34.5l48 253l-22 14q-110 67 -110 152q0 75 57 119.5t139 45.5l15 77
h36l-15 -78q49 -1 118 -38q-2 -26 -6 -128zM263 375l41 214q-58 -1 -87.5 -32.5t-29.5 -74.5q0 -60 76 -107zM277 272l-44 -237q56 4 86.5 38t30.5 82q0 38 -16.5 63.5t-56.5 53.5z" />
    <glyph glyph-name="percent" unicode="%" horiz-adv-x="751" 
d="M660 631l-493 -658l-28 24l493 657zM379 498v-1q0 -80 -50.5 -152t-126.5 -72q-54 0 -82 39.5t-28 97.5q0 82 50.5 153.5t126.5 71.5q55 0 82.5 -39.5t27.5 -97.5zM312 526v1q0 78 -48 78q-34 0 -59 -41.5t-35 -88t-10 -83.5q0 -89 47 -89q36 0 61.5 45.5t34.5 93.5t9 84
zM707 212v-1q0 -80 -50.5 -151.5t-126.5 -71.5q-54 0 -82 39t-28 97q0 51 21.5 102.5t63 87.5t92.5 36q55 0 82.5 -40t27.5 -98zM640 240v1q0 79 -48 79q-26 0 -47 -24.5t-33 -60t-18 -70t-6 -60.5q0 -88 47 -88q36 0 61.5 45.5t34.5 93.5t9 84z" />
    <glyph glyph-name="ampersand" unicode="&#x26;" horiz-adv-x="762" 
d="M723 406h31q3 -27 3 -60q0 -31 -4.5 -53.5t-10.5 -34.5t-14.5 -19t-14 -8.5t-11.5 -1.5q-18 0 -48 22q-5 4 -29 21.5t-35 24.5q-33 -125 -95 -199q-94 -110 -221 -110q-90 0 -149.5 60.5t-59.5 165.5q0 115 82 198q27 28 60 48t58 20q26 0 42 -20t16 -49q0 -12 -3 -26
l2 -1q127 118 127 208q0 12 -6 36q-2 14 10 27.5t29 13.5q18 0 29 -15.5t11 -39.5q0 -84 -117 -198q-123 -120 -266 -205q12 -73 60 -113.5t115 -40.5q87 0 152.5 71t93.5 190q-54 34 -80 34q-20 0 -32 -13t-12 -32q0 -28 10 -46q7 -12 7 -17q-1 -8 -13 -14t-23 -6
q-18 0 -30 15.5t-12 36.5q0 44 60 90q20 14 45 25t38 11q53 0 158 -84q18 -15 28 -15q18 0 19 103zM228 429h-1q-32 0 -62 -48t-30 -118q0 -11 1 -17q26 15 67.5 44.5t57.5 46.5q5 18 5 35q1 24 -9.5 40.5t-28.5 16.5z" />
    <glyph glyph-name="quotesingle" unicode="'" horiz-adv-x="192" 
d="M233 710l9 -7q-9 -32 -36.5 -102t-47.5 -111l-30 -13q29 163 31 211z" />
    <glyph glyph-name="parenleft" unicode="(" horiz-adv-x="338" 
d="M373 712l16 -24q-110 -72 -177 -218t-67 -312q0 -202 86 -308l-23 -19q-66 52 -98.5 145t-32.5 194q0 181 81 327.5t215 214.5z" />
    <glyph glyph-name="parenright" unicode=")" horiz-adv-x="333" 
d="M140 692l23 20q71 -56 104.5 -162t22.5 -225q-8 -160 -85.5 -294t-206.5 -200l-16 23q106 71 168.5 203t70.5 282q11 101 -10.5 199.5t-70.5 153.5z" />
    <glyph glyph-name="asterisk" unicode="*" horiz-adv-x="391" 
d="M432 511l-1 -27l-134 -16l31 -139l-24 -10l-61 135l-126 -69l-15 24l110 85l-99 109l18 21l114 -90l66 130l26 -8l-38 -137z" />
    <glyph glyph-name="plus" unicode="+" horiz-adv-x="596" 
d="M550 230h-210v-230h-57v230h-210v50h210v207h57v-207h210v-50z" />
    <glyph glyph-name="comma" unicode="," horiz-adv-x="235" 
d="M7 -113l-10 29q85 36 86 89q1 45 -46 62q-8 2 -8 13q1 20 15.5 34t33.5 14q31 0 52.5 -30t18.5 -69q-5 -98 -142 -142z" />
    <glyph glyph-name="hyphen" unicode="-" horiz-adv-x="334" 
d="M298 253l-18 -55h-230l18 55h230z" />
    <glyph glyph-name="period" unicode="." horiz-adv-x="235" 
d="M88 -12h-1q-21 0 -34.5 14.5t-13.5 37.5q0 27 16.5 44.5t41.5 17.5q21 0 34.5 -15t13.5 -38q0 -28 -17 -44.5t-40 -16.5z" />
    <glyph glyph-name="slash" unicode="/" horiz-adv-x="322" 
d="M357 664l-322 -709h-53l322 709h53z" />
    <glyph glyph-name="zero" unicode="0" horiz-adv-x="477" 
d="M319 635h1q81 0 117.5 -65.5t33.5 -160.5q-1 -63 -18 -133.5t-48 -136t-83.5 -108.5t-117.5 -43q-81 0 -118.5 66t-35.5 167q1 62 18.5 131.5t49.5 134t85 106.5t116 42zM314 602h-1q-43 0 -78.5 -43t-56 -107.5t-32 -132t-12.5 -124.5q-4 -174 77 -174q43 0 78 46.5
t55 115.5t31.5 136t12.5 120q6 163 -74 163z" />
    <glyph glyph-name="one" unicode="1" horiz-adv-x="477" 
d="M374 635l-100 -514q-12 -62 0.5 -76t85.5 -19l-6 -26h-276l6 26q69 6 84.5 19t27.5 76l73 372q9 44 0 55t-54 10h-33l5 25q104 16 187 52z" />
    <glyph glyph-name="two" unicode="2" horiz-adv-x="477" 
d="M112 501l64 80q59 54 131 54t113.5 -42t41.5 -114q0 -37 -12 -69.5t-42 -67.5t-56.5 -60.5t-78.5 -69.5l-159 -140h179q42 0 62.5 11t49.5 52l24 -11q-12 -24 -30.5 -66.5t-25.5 -57.5h-370l1 21q154 132 200 177q86 83 129.5 145t43.5 122q0 47 -26 76.5t-79 29.5
q-30 0 -58.5 -16.5t-44.5 -33t-36 -41.5z" />
    <glyph glyph-name="three" unicode="3" horiz-adv-x="477" 
d="M130 521l48 61q55 53 127 53q61 0 96 -35.5t35 -85.5q0 -54 -47 -93q-22 -18 -75 -51v-2q54 -15 85.5 -52t31.5 -91q0 -100 -110 -176q-42 -29 -91.5 -45t-85.5 -16q-27 0 -54 10t-42 25q-22 21 -19 40q3 20 27 35q11 8 20 -1q55 -59 121 -59q64 0 105 41t41 122
q0 58 -33 88t-81 30q-25 0 -60 -8l-6 26q191 54 191 157q0 39 -22 61.5t-62 22.5q-26 0 -50 -13t-38 -27.5t-32 -36.5z" />
    <glyph glyph-name="four" unicode="4" horiz-adv-x="477" 
d="M461 222l-9 -43h-95l-12 -66q-10 -55 0.5 -68.5t68.5 -18.5l-6 -26h-253l6 26q65 5 80.5 17.5t26.5 69.5l13 66h-259l6 27q221 271 373 423h43l-78 -407h95zM354 533h-3q-129 -141 -260 -311h197z" />
    <glyph glyph-name="five" unicode="5" horiz-adv-x="477" 
d="M470 623l-30 -72h-230l-56 -183q80 24 104 24q80 0 125.5 -47.5t45.5 -112.5q0 -116 -126 -195q-75 -49 -152 -49q-34 0 -64 12t-45 28q-19 20 -15 37q2 21 27 35q11 7 21 -3q54 -59 127 -59q64 0 102.5 42t38.5 121q0 63 -34 100.5t-105 37.5q-39 0 -91 -16l-7 8l81 292
h283z" />
    <glyph glyph-name="six" unicode="6" horiz-adv-x="477" 
d="M497 640l6 -30q-61 -12 -111 -33q-168 -69 -230 -225l1 -2l65 31q34 18 61 18q72 0 115 -48t43 -124q0 -100 -67 -169.5t-156 -69.5q-81 0 -129 58t-48 150q0 148 89.5 258.5t233.5 156.5q57 18 127 29zM247 346h-1q-42 0 -96 -33q-18 -48 -18 -118q0 -73 27 -123.5
t80 -50.5q54 0 88.5 54.5t34.5 135.5q0 35 -9 63t-36 50t-70 22z" />
    <glyph glyph-name="seven" unicode="7" horiz-adv-x="477" 
d="M517 623l8 -12q-67 -110 -198 -317.5t-185 -295.5l-79 -10l-7 12q232 288 390 551h-210q-46 0 -64 -13t-45 -64l-27 8q18 45 43 141h374z" />
    <glyph glyph-name="eight" unicode="8" horiz-adv-x="477" 
d="M313 635h1q59 0 102.5 -37.5t43.5 -99.5q0 -58 -44 -94q-29 -24 -92 -66q56 -42 83.5 -77t27.5 -85q0 -77 -64.5 -132.5t-154.5 -55.5q-72 0 -123.5 41.5t-51.5 113.5q0 59 54 106q20 17 111 76q-82 64 -82 141q0 69 56 119t133 50zM299 602h-1q-43 0 -71 -32t-28 -77
q0 -25 8 -46t27 -39t29 -26t35 -25q87 56 87 142q0 46 -24 74.5t-62 28.5zM230 21h1q52 0 86 36t34 95q0 46 -28 78t-90 75q-110 -64 -110 -162q0 -53 29 -87.5t78 -34.5z" />
    <glyph glyph-name="nine" unicode="9" horiz-adv-x="477" 
d="M306 635h1q85 0 128 -61.5t43 -145.5q0 -147 -86 -257t-215 -157q-81 -29 -131 -29l-4 29q104 19 194 91t132 184l-73 -35q-29 -14 -57 -14q-62 0 -105 47t-43 120q0 92 65 160t151 68zM295 602h-1q-51 0 -85.5 -50.5t-34.5 -121.5q0 -61 29 -97.5t84 -36.5q22 0 48 8.5
t41 20.5q18 50 18 118q0 23 -3 45t-11.5 50.5t-30.5 46t-54 17.5z" />
    <glyph glyph-name="colon" unicode=":" horiz-adv-x="235" 
d="M133 298h-1q-21 0 -34.5 15t-13.5 37q0 27 16 44.5t41 17.5q21 0 35 -15t14 -38q0 -27 -17 -44t-40 -17zM88 -12h-1q-22 0 -35 14.5t-13 37.5q0 27 16.5 44.5t41.5 17.5q21 0 34.5 -15t13.5 -38q0 -28 -17 -44.5t-40 -16.5z" />
    <glyph glyph-name="semicolon" unicode=";" horiz-adv-x="235" 
d="M130 298h-1q-20 0 -33.5 15t-13.5 37q0 27 16 44.5t41 17.5q21 0 35 -15t14 -38q0 -27 -17 -44t-41 -17zM8 -114l-12 29q40 16 63 39.5t23 49.5q0 48 -45 62q-10 2 -8 14q1 20 15.5 33.5t33.5 13.5q31 0 51 -28.5t20 -63.5q0 -57 -41 -93.5t-100 -55.5z" />
    <glyph glyph-name="less" unicode="&#x3c;" horiz-adv-x="597" 
d="M517 0l-452 230v47l452 230v-55l-393 -198v-2l393 -197v-55z" />
    <glyph glyph-name="equal" unicode="=" horiz-adv-x="596" 
d="M552 321h-486v50h486v-50zM552 138h-486v50h486v-50z" />
    <glyph glyph-name="greater" unicode="&#x3e;" horiz-adv-x="597" 
d="M552 230l-451 -230v55l393 197v2l-393 198v55l451 -230v-47z" />
    <glyph glyph-name="question" unicode="?" horiz-adv-x="354" 
d="M201 212l-20 -21q-33 18 -59.5 49.5t-26.5 65.5q0 62 105 128q38 23 57 35t42.5 36.5t23.5 45.5q0 23 -15 37t-41 14q-28 0 -54 -12.5t-41.5 -25.5t-19.5 -13q-11 0 -22.5 12.5t-11.5 28.5q2 20 28 38q46 34 91 34h1q53 0 92.5 -44t39.5 -102q0 -66 -66 -109
q-9 -6 -26 -17q-67 -44 -89.5 -64t-22.5 -46q0 -37 35 -70zM133 -12h-1q-22 0 -36.5 15.5t-14.5 39.5q0 29 17 47.5t44 18.5q22 0 36.5 -16t14.5 -41q0 -29 -18 -46.5t-42 -17.5z" />
    <glyph glyph-name="at" unicode="@" horiz-adv-x="738" 
d="M541 -20l11 -28q-95 -52 -200 -52q-124 0 -211 80.5t-87 218.5q0 70 21.5 131t59 106t86.5 77.5t104.5 48.5t112.5 16q129 0 202.5 -73.5t73.5 -183.5q0 -103 -71 -176.5t-173 -73.5q-34 0 -42.5 20.5t1.5 52.5l13 54l-2 1q-27 -40 -82 -84t-85 -44q-19 0 -33.5 23
t-14.5 61q0 48 21 100.5t63 91.5q70 68 159 71q3 0 52 -8q13 -4 31 -4q-36 -144 -54 -234q-7 -34 -3.5 -47t19.5 -12q56 1 105 56t49 153q0 101 -67 159.5t-170 58.5q-138 0 -224.5 -93t-86.5 -238q0 -49 14.5 -94t44 -84t83 -62.5t124.5 -23.5q88 0 156 35zM428 380h-1
q-37 0 -67 -32q-23 -25 -42 -75t-19 -99q0 -41 20 -41q18 0 55 31.5t79 95.5q12 35 28 108q-19 12 -53 12z" />
    <glyph glyph-name="A" unicode="A" horiz-adv-x="664" 
d="M621 27l-7 -27h-236l7 27q50 5 61 16t6 45q-2 18 -25 148h-209q-40 -75 -69 -136q-21 -45 -12.5 -56.5t66.5 -16.5l-6 -27h-215l7 27q48 6 66 20.5t53 75.5l300 533l31 8l28 -178q26 -167 64 -372q9 -54 23 -68t67 -19zM421 278l-40 258h-2q-101 -185 -139 -258h181z" />
    <glyph glyph-name="B" unicode="B" horiz-adv-x="579" 
d="M131 649h234q188 0 188 -138q0 -64 -45 -103t-117 -54v-2q64 -13 105 -52t41 -104q0 -53 -31.5 -95t-83.5 -66q-71 -35 -201 -35h-214l7 27q58 5 73.5 19t26.5 74l82 418q11 54 0.5 66.5t-71.5 17.5zM242 367h51q81 0 125.5 38.5t44.5 104.5q0 58 -34 82.5t-84 24.5
q-33 0 -46 -9t-20 -45zM235 334l-39 -212q-10 -53 8 -70.5t70 -17.5q73 0 120 46t47 121q0 133 -157 133h-49z" />
    <glyph glyph-name="C" unicode="C" horiz-adv-x="635" 
d="M582 174l26 -14q-37 -89 -79 -151q-106 -24 -172 -24q-129 0 -210 76t-81 212q0 175 119 283t295 108q91 0 172 -32q-1 -16 -3.5 -70.5t-4.5 -82.5l-30 -3q-4 86 -41.5 120t-115.5 34q-128 0 -211 -105.5t-83 -248.5q0 -112 53.5 -184.5t150.5 -72.5q69 0 117.5 39.5
t97.5 115.5z" />
    <glyph glyph-name="D" unicode="D" horiz-adv-x="708" 
d="M129 649h250q150 0 234 -66.5t84 -204.5q0 -94 -43.5 -173.5t-121.5 -129.5q-117 -75 -307 -75h-216l7 27q57 6 72 20.5t26 72.5l79 408q10 59 0 72.5t-70 21.5zM280 556l-81 -427q-7 -37 -5 -54.5t16 -24.5q24 -14 72 -14q99 0 172.5 48t110 126t36.5 173
q0 113 -61.5 173t-172.5 60q-49 0 -65 -11q-14 -7 -22 -49z" />
    <glyph glyph-name="E" unicode="E" horiz-adv-x="559" 
d="M129 649h434q-4 -25 -19 -154l-29 -2q0 65 -13 89q-8 19 -26.5 26t-70.5 7h-78q-25 0 -31.5 -6.5t-11.5 -34.5l-43 -216h97q61 0 78.5 11t35.5 61h29l-38 -189h-29q2 55 -10 66.5t-75 11.5h-95l-33 -176q-15 -80 4 -95q17 -14 101 -14q56 0 83.5 7t48.5 27q27 26 68 96
l28 -10q-45 -116 -64 -154h-468l6 27q62 5 78 19t27 73l80 410q11 60 0.5 74t-72.5 19z" />
    <glyph glyph-name="F" unicode="F" horiz-adv-x="527" 
d="M132 649h431q-3 -30 -18 -153l-29 -2q-2 62 -11 86q-6 20 -25.5 27.5t-71.5 7.5h-81q-25 0 -31.5 -6.5t-11.5 -32.5l-44 -229h105q63 0 79.5 11t37.5 61h28l-38 -192h-28q0 56 -12.5 68.5t-75.5 12.5h-104l-34 -183q-12 -62 1 -77t82 -21l-7 -27h-263l6 27q57 5 72 20
t27 78l76 398q12 66 3 79.5t-70 19.5z" />
    <glyph glyph-name="G" unicode="G" horiz-adv-x="681" 
d="M654 477l-29 -2q1 82 -39.5 118.5t-120.5 36.5q-134 0 -217.5 -103.5t-83.5 -247.5q0 -116 57 -188t160 -72q101 0 114 71l20 93q11 56 -1.5 68t-87.5 19l6 27h244l-6 -26q-42 -7 -52.5 -19.5t-21.5 -68.5l-16 -83q-9 -47 -5 -79q-12 -3 -47 -11.5t-54.5 -12.5t-51 -8
t-59.5 -4q-133 0 -214.5 76t-81.5 210q0 172 118.5 282.5t304.5 110.5q83 0 176 -31q-7 -70 -12 -156z" />
    <glyph glyph-name="H" unicode="H" horiz-adv-x="742" 
d="M787 649l-7 -27q-57 -5 -71.5 -19t-26.5 -76l-77 -405q-12 -61 -1 -75.5t71 -19.5l-6 -27h-254l7 27q59 5 74.5 19.5t26.5 74.5l38 202h-327l-38 -201q-11 -62 -0.5 -76t71.5 -19l-6 -27h-248l6 27q55 5 69.5 19.5t25.5 75.5l78 405q12 62 1.5 76t-72.5 19l7 27h247
l-6 -27q-54 -5 -69 -20t-27 -75l-30 -162h326l31 162q12 62 2 75.5t-69 19.5l6 27h248z" />
    <glyph glyph-name="I" unicode="I" horiz-adv-x="335" 
d="M380 649l-6 -27q-59 -5 -73 -18t-25 -68l-80 -420q-11 -58 0 -71t73 -18l-6 -27h-256l7 27q58 4 73 18t26 71l82 420q10 55 -1.5 68t-74.5 18l6 27h255z" />
    <glyph glyph-name="J" unicode="J" horiz-adv-x="321" 
d="M375 649l-6 -27q-55 -7 -68.5 -19.5t-24.5 -71.5l-74 -401q-18 -98 -50.5 -155t-90.5 -90q-42 -25 -77 -30l-10 30q79 23 110 107q22 55 40 158l71 381q11 59 0 71.5t-72 19.5l6 27h246z" />
    <glyph glyph-name="K" unicode="K" horiz-adv-x="653" 
d="M715 649l-7 -26q-55 -8 -81 -19.5t-73 -48.5t-219 -186q89 -149 182 -275q28 -38 48 -50t62 -17l-7 -27h-144q-161 247 -187 290q-15 25 -28 31t-30 -2l-34 -191q-13 -67 -3 -81.5t69 -19.5l-5 -27h-246l7 27q55 5 69.5 20t27.5 81l76 397q12 62 2 76.5t-68 20.5l6 27
h242l-6 -27q-57 -6 -70.5 -20t-25.5 -77l-35 -177q34 11 75 45q100 82 202 183q22 21 20.5 29.5t-27.5 12.5l-29 4l6 27h231z" />
    <glyph glyph-name="L" unicode="L" horiz-adv-x="532" 
d="M484 166l28 -11q-34 -91 -64 -155h-441l6 26q57 4 72.5 18.5t26.5 71.5l82 418q11 58 0.5 70.5t-71.5 17.5l6 27h250l-6 -27q-60 -5 -73.5 -18t-24.5 -70l-79 -415q-11 -56 11 -72q15 -13 90 -13q86 0 117 30q35 35 70 102z" />
    <glyph glyph-name="M" unicode="M" horiz-adv-x="876" 
d="M910 649l-7 -27q-65 -5 -78.5 -18t-23.5 -76q-22 -141 -54 -393q-4 -27 -5 -42t1.5 -28t5.5 -18t15 -10t22.5 -6.5t34.5 -3.5l-7 -27h-253l7 27q58 6 72.5 21.5t24.5 86.5q13 87 37.5 241t28.5 180h-2l-331 -552h-23q-50 279 -102 541h-2l-72 -263q-43 -159 -47 -192
q-5 -34 8.5 -46t67.5 -17l-6 -27h-226l7 27q43 4 62.5 16.5t31.5 44.5q24 63 72 229l56 190q21 74 10.5 91t-81.5 24l7 27h166q38 -183 109 -501l312 501h162z" />
    <glyph glyph-name="N" unicode="N" horiz-adv-x="705" 
d="M766 649l-6 -27q-44 -3 -60.5 -16t-26.5 -47q-16 -50 -38 -170l-76 -397h-30l-296 530h-3l-52 -266q-23 -115 -26 -168q-1 -34 15.5 -45.5t69.5 -15.5l-6 -27h-229l7 27q40 2 59 14.5t29 44.5q16 51 41 173l52 246q7 39 6 54t-12 33q-9 16 -26 22t-58 8l6 27h143
l295 -509h4l46 249q23 120 27 172q2 34 -14.5 45.5t-72.5 15.5l7 27h225z" />
    <glyph glyph-name="O" unicode="O" horiz-adv-x="708" 
d="M429 664h1q119 0 192.5 -79.5t73.5 -206.5q0 -163 -104 -278t-261 -115q-118 0 -191.5 78.5t-73.5 204.5q0 160 105 278t258 118zM423 630h-1q-75 0 -136.5 -56.5t-93 -140.5t-31.5 -173q0 -107 45.5 -174t133.5 -67q79 0 140.5 58.5t91 141.5t29.5 169q0 108 -43 175
t-135 67z" />
    <glyph glyph-name="P" unicode="P" horiz-adv-x="554" 
d="M132 649h227q211 0 211 -168q0 -67 -38 -117.5t-90.5 -73.5t-110.5 -27q-13 -1 -38 -1l-67 21l-31 -158q-12 -63 0.5 -77.5t81.5 -20.5l-5 -27h-266l7 27q58 6 73 20.5t28 77.5l81 405q11 58 1 72t-71 20zM279 563l-46 -248q34 -13 73 -13q40 0 77.5 16.5t67 59.5
t29.5 106t-34.5 98.5t-99.5 35.5q-24 0 -42 -8q-17 -7 -25 -47z" />
    <glyph glyph-name="Q" unicode="Q" horiz-adv-x="709" 
d="M663 -139l-8 -22q-63 1 -118 17q-68 18 -214 121l-14 10q-110 8 -176.5 84.5t-66.5 195.5q0 161 105 279t259 118q119 0 192.5 -79.5t73.5 -206.5q0 -133 -75 -238.5t-193 -139.5l13 -9q104 -76 222 -130zM301 23l70 17q8 -5 24 -17q62 17 110 76.5t72 135.5t24 152
q0 108 -43.5 175.5t-135.5 67.5q-74 0 -135.5 -56.5t-93.5 -141t-32 -174.5q0 -92 36.5 -156t103.5 -79z" />
    <glyph glyph-name="R" unicode="R" horiz-adv-x="599" 
d="M585 17l-9 -25h-10q-69 4 -103 25t-62 73q-32 59 -68 148q-12 28 -25 37t-40 9h-42l-29 -157q-12 -66 -2 -80t72 -20l-6 -27h-251l6 27q58 6 72.5 20.5t27.5 79.5l77 402q12 62 2 74.5t-70 18.5l7 27h217q97 0 141 -30q60 -41 60 -124q0 -71 -44 -119.5t-111 -71.5
q28 -72 60 -134q36 -70 62 -105q26 -34 68 -48zM232 316h47q69 0 107 25q34 23 54.5 61.5t20.5 84.5q0 64 -31 97.5t-87 33.5q-32 0 -45 -10q-12 -7 -19 -44z" />
    <glyph glyph-name="S" unicode="S" horiz-adv-x="468" 
d="M38 194l27 3q6 -43 21.5 -80.5t52 -68t87.5 -30.5q54 0 88 35t34 94q0 40 -22.5 71.5t-71.5 70.5l-29 22q-31 25 -50.5 43.5t-40 55.5t-20.5 75q0 78 56.5 128.5t146.5 50.5q45 0 95 -16q40 -15 43 -16q-2 -25 -2 -77.5v-63.5l-29 -3q-15 143 -120 143q-51 0 -81.5 -34
t-30.5 -82q0 -40 23 -69.5t70 -64.5l30 -23q57 -42 86.5 -85t29.5 -98q0 -84 -64 -137t-154 -53q-55 0 -104 19.5t-68 41.5q0 11 -1 60.5t-2 87.5z" />
    <glyph glyph-name="T" unicode="T" horiz-adv-x="603" 
d="M635 674h22q-9 -52 -23 -176l-31 -3q2 61 -11 90q-8 18 -29 24t-78 6h-61l-93 -495q-11 -60 2 -74t81 -19l-6 -27h-272l6 27q63 4 79 18.5t27 74.5l95 495h-52q-62 0 -85 -6t-37 -23q-21 -25 -50 -91l-30 1q31 99 48 178h21q7 -17 16.5 -21t31.5 -4h376q19 0 29 5t24 20z
" />
    <glyph glyph-name="U" unicode="U" horiz-adv-x="707" 
d="M773 649l-6 -27q-47 -2 -63.5 -13.5t-24.5 -40.5q-16 -56 -40 -180l-16 -78q-36 -184 -118 -260q-71 -65 -170 -65q-97 0 -154 53q-76 74 -45 242l48 253q11 58 1 71t-70 18l7 27h247l-6 -27q-58 -5 -72 -17.5t-25 -71.5l-46 -245q-25 -129 15.5 -190t121.5 -61
q90 0 144 67.5t83 213.5l14 70q24 127 26 180q2 30 -15 40.5t-72 13.5l6 27h230z" />
    <glyph glyph-name="V" unicode="V" horiz-adv-x="675" 
d="M749 649l-7 -27q-49 -5 -68 -19t-57 -74q-81 -129 -304 -540h-30q-47 293 -97 546q-11 55 -25 68.5t-62 18.5l7 27h229l-7 -27l-27 -4q-29 -4 -35.5 -13t-2.5 -36q4 -31 16.5 -101t32.5 -177.5t31 -170.5h2q197 354 233 430q19 41 14 52t-39 16l-30 4l7 27h219z" />
    <glyph glyph-name="W" unicode="W" horiz-adv-x="949" 
d="M1009 649l-6 -27q-50 -7 -66 -20t-47 -73q-43 -81 -255 -540h-31l-81 497h-3l-239 -497h-30l-61 537q-7 63 -18.5 76.5t-62.5 19.5l6 27h226l-7 -27l-24 -4q-31 -5 -38 -15.5t-3 -50.5l43 -417h3l236 502h29l83 -503h2q155 338 186 419q14 38 8 49t-44 16l-26 4l6 27h214
z" />
    <glyph glyph-name="X" unicode="X" horiz-adv-x="642" 
d="M680 649l-6 -27q-54 -6 -73.5 -16t-58.5 -52q-68 -77 -162 -193l111 -246q25 -56 42.5 -69t75.5 -19l-6 -27h-252l6 27l31 4q27 5 32.5 13.5t-4.5 34.5q-44 105 -93 214q-119 -151 -161 -214q-16 -23 -12 -33.5t35 -15.5l24 -3l-6 -27h-227l7 27q48 4 69.5 15.5
t58.5 49.5q60 65 195 235l-96 217q-22 49 -38.5 61t-67.5 17l6 27h232l-6 -27l-26 -4q-25 -5 -30 -11t2 -28q10 -26 82 -185q72 88 138 179q16 23 12.5 31.5t-28.5 12.5l-29 5l6 27h217z" />
    <glyph glyph-name="Y" unicode="Y" horiz-adv-x="611" 
d="M686 649l-8 -27q-48 -5 -68 -17t-57 -58q-67 -84 -165 -226q-17 -23 -24 -56l-28 -141q-13 -63 -0.5 -77t80.5 -20l-7 -27h-266l7 27q61 5 76.5 19t28.5 78l26 135q7 28 -5 59q-26 72 -88 234q-17 44 -30.5 54.5t-61.5 15.5l7 27h231l-6 -27l-35 -4q-25 -4 -30.5 -12
t2.5 -30q55 -154 92 -242q131 187 160 236q15 26 10.5 34.5t-33.5 13.5l-31 4l7 27h216z" />
    <glyph glyph-name="Z" unicode="Z" horiz-adv-x="588" 
d="M611 649l6 -13q-284 -340 -491 -597q67 -5 155 -5q81 0 121.5 5.5t62.5 25.5q32 27 74 111l28 -13q-45 -132 -60 -163h-499l-7 15q264 315 496 600h-158q-71 0 -96.5 -7.5t-41.5 -27.5q-24 -30 -50 -95l-29 2q25 92 41 187h21q9 -16 18.5 -20.5t31.5 -4.5h377z" />
    <glyph glyph-name="bracketleft" unicode="[" horiz-adv-x="338" 
d="M384 704l-7 -27q-78 -8 -94.5 -20.5t-28.5 -74.5l-119 -622q-12 -62 0.5 -74.5t91.5 -20.5l-7 -27h-171l166 866h169z" />
    <glyph glyph-name="backslash" unicode="\" horiz-adv-x="375" 
d="M325 -45h-53l-192 709h53z" />
    <glyph glyph-name="bracketright" unicode="]" horiz-adv-x="338" 
d="M320 704l-166 -866h-169l7 27q79 7 95 20t28 75l120 622q11 62 -1.5 74.5t-91.5 20.5l7 27h171z" />
    <glyph glyph-name="asciicircum" unicode="^" horiz-adv-x="552" 
d="M503 211l-59 1l-156 346l-156 -347h-55l192 412h42z" />
    <glyph glyph-name="underscore" unicode="_" horiz-adv-x="500" 
d="M500 -125h-500v50h500v-50z" />
    <glyph glyph-name="grave" unicode="`" 
d="M322 499l-29 -9q-63 120 -89 164l3 9q8 3 35 8t38 4q6 -29 23 -98.5t19 -77.5z" />
    <glyph glyph-name="a" unicode="a" horiz-adv-x="490" 
d="M454 116l12 -25q-38 -46 -82 -74.5t-65 -28.5q-35 0 -17 88l20 95h-3q-50 -74 -129 -138q-55 -45 -93 -45q-23 0 -40.5 28.5t-17.5 83.5q0 76 33 151t87 120q40 33 90.5 55t95.5 22h1q27 0 62 -8q26 -6 38 -6l2 -4q-33 -127 -69 -324q-8 -43 2 -43q18 0 73 53zM303 404
h-1q-43 0 -72 -21q-49 -36 -78.5 -112t-29.5 -154q0 -65 27 -65q28 0 94 70.5t92 124.5q16 51 33 143q-28 14 -65 14z" />
    <glyph glyph-name="b" unicode="b" horiz-adv-x="486" 
d="M105 654l2 25q33 3 67 11.5t55 15t27 6.5q12 0 4 -30q-47 -196 -88 -384h2q60 74 119.5 112t97.5 38q33 0 52 -30t19 -80q0 -82 -44 -166.5t-110 -128.5q-84 -55 -151 -55q-24 0 -46.5 12.5t-33.5 31.5q-22 38 -5 124q12 57 44.5 208.5t50.5 240.5q6 35 1 41.5t-34 7.5
h-29zM346 392h-1q-28 0 -82 -44t-100 -109q-8 -25 -18 -78q-12 -68 7 -97.5t54 -29.5q28 0 53 15q47 28 83.5 106.5t36.5 165.5q0 71 -33 71z" />
    <glyph glyph-name="c" unicode="c" horiz-adv-x="382" 
d="M336 121l15 -22q-44 -52 -99 -81.5t-101 -29.5q-49 0 -78 38t-29 108q0 64 28 130.5t76 109.5q32 29 78 51.5t81 22.5q31 0 53 -15.5t23 -34.5q2 -28 -32 -46q-13 -7 -22 6q-31 43 -76 43q-46 0 -83 -66q-43 -81 -43 -180q0 -52 18.5 -80t51.5 -28q34 0 73.5 23.5
t65.5 50.5z" />
    <glyph glyph-name="d" unicode="d" horiz-adv-x="508" 
d="M470 112l14 -23q-38 -45 -80.5 -73t-66.5 -28q-37 0 -18 93l18 85l-2 -1q-52 -69 -132 -131q-57 -46 -97 -46q-27 0 -46 31.5t-19 88.5q0 71 31 144t85 119q35 31 88.5 54t88.5 23q33 0 60 -11l32 165q7 34 1 42t-38 8h-32l2 25q37 4 72 13t55.5 15.5t25.5 6.5
q13 0 7 -28q-78 -332 -124 -589q-6 -32 4 -32q22 0 71 49zM301 405h-1q-42 0 -69 -21q-47 -34 -77 -111.5t-30 -145.5q0 -74 31 -74q35 0 100.5 66t93.5 118l32 142q-11 11 -34.5 18.5t-45.5 7.5z" />
    <glyph glyph-name="e" unicode="e" 
d="M349 123l16 -22q-105 -113 -210 -113q-44 0 -77.5 33t-33.5 113q0 72 32 143t89 114q73 57 138 57q39 0 63 -24t24 -57q0 -35 -26.5 -65t-70.5 -51.5t-83.5 -35t-83.5 -24.5q-1 -12 -1 -32q0 -112 77 -112q66 0 147 76zM267 406h-1q-25 0 -42 -11q-73 -45 -94 -173
q186 49 186 130q0 25 -13.5 39.5t-35.5 14.5z" />
    <glyph glyph-name="f" unicode="f" horiz-adv-x="271" 
d="M79 430h63q27 138 85 202q34 37 73 58.5t70 21.5q25 0 43 -14t17 -28q0 -22 -25 -42q-15 -10 -25 1q-32 35 -63 35q-30 0 -53.5 -51t-44.5 -183h113l-20 -31l-100 -10q-29 -169 -52 -279q-25 -124 -54.5 -191.5t-72.5 -112.5q-59 -63 -112 -63q-22 0 -42.5 13.5
t-20.5 29.5q0 19 28 43q10 8 19 -1q25 -25 63 -25q25 0 43 20q32 35 70 250q45 270 53 317h-82l-3 12z" />
    <glyph glyph-name="g" unicode="g" horiz-adv-x="420" 
d="M469 443l7 -19q-38 -41 -71 -45q-19 -2 -26 -3q8 -26 8 -55q0 -92 -76 -153q-52 -44 -129 -59q-18 -15 -20 -32q0 -20 72 -58q71 -37 103 -68.5t32 -64.5q0 -39 -39.5 -73t-93.5 -52t-103 -18q-73 0 -126.5 33t-52.5 79q3 60 168 144q-39 26 -37 49q0 26 62 62
q-88 20 -88 121q0 48 22.5 92.5t61.5 74.5q62 50 128 50q52 0 85 -27q72 1 113 22zM247 413h-1q-42 0 -72 -44q-38 -54 -38 -130q0 -43 18 -66.5t46 -23.5q43 0 78 46t35 122q0 43 -17.5 69.5t-48.5 26.5zM172 -215h1q55 0 89 22t34 52q0 37 -73 80q-64 37 -75 42
q-51 -25 -80.5 -53.5t-29.5 -55.5q0 -37 40.5 -62t93.5 -25z" />
    <glyph glyph-name="h" unicode="h" horiz-adv-x="511" 
d="M466 108l12 -24q-38 -43 -79.5 -69.5t-64.5 -26.5q-38 0 -17 96l53 232q17 71 -8 71q-34 0 -104.5 -66.5t-106.5 -131.5q-17 -69 -38 -182q-32 -6 -71 -18l-7 7q79 351 127 599q7 40 1.5 48t-35.5 9h-29l4 25q34 3 67.5 12t53.5 16t24 7q12 0 4 -35l-89 -416h2
q83 111 185 166q39 21 68 21q56 0 27 -127l-51 -222q-9 -36 3 -37q7 0 28 13.5t41 32.5z" />
    <glyph glyph-name="i" unicode="i" horiz-adv-x="273" 
d="M222 650h1q19 0 29.5 -13t10.5 -32q1 -23 -14.5 -40.5t-37.5 -17.5q-18 0 -30 12.5t-12 31.5q0 21 14.5 40t38.5 19zM224 109l13 -22q-28 -32 -75 -65.5t-71 -33.5q-38 0 -14 98l62 255q8 31 0 32q-19 0 -69 -43l-12 23q40 39 85.5 67t66.5 28q30 0 10 -79l-69 -275
q-8 -32 2 -32q17 0 71 47z" />
    <glyph glyph-name="j" unicode="j" horiz-adv-x="266" 
d="M215 650h1q19 0 29.5 -13t10.5 -32q0 -24 -15 -41t-38 -17q-18 0 -30 12.5t-12 31.5q0 22 15 40.5t39 18.5zM68 320l-13 23q43 45 89 75t68 30q29 0 8 -103q-16 -84 -55 -279q-37 -183 -118 -260q-66 -63 -107 -63q-15 0 -29 9.5t-14 22.5q0 24 24 44q11 11 22 5
q26 -17 49 -17q42 0 67 107q12 51 81 398q12 55 1 58q-17 0 -73 -50z" />
    <glyph glyph-name="k" unicode="k" horiz-adv-x="470" 
d="M437 99l17 -20q-58 -91 -110 -91q-17 0 -32.5 14t-33.5 52q-37 75 -76 185q-47 -49 -56 -63q-31 -154 -34 -169q-34 -6 -73 -19l-6 6q78 328 136 612q6 30 0 37t-36 8l-31 1l5 25q35 4 69 13t54 15.5t24 6.5q11 0 5 -30q-13 -55 -47.5 -208t-53.5 -236l2 -1q21 25 86 90
q121 121 175 121q19 0 30 -9.5t11 -21.5q0 -21 -19 -40q-9 -9 -16 -6q-18 8 -38 8q-54 0 -131 -82q28 -92 82 -196q25 -48 40 -48q17 0 57 46z" />
    <glyph glyph-name="l" unicode="l" horiz-adv-x="249" 
d="M215 117l15 -22q-37 -45 -83 -76t-70 -31q-41 0 -15 121q70 328 104 492q7 33 0 41.5t-41 9.5h-28l4 25q34 3 68 12t55 16t25 7q12 0 6 -30q-61 -290 -123 -585q-7 -35 4 -35q9 0 34 17t45 38z" />
    <glyph glyph-name="m" unicode="m" horiz-adv-x="787" 
d="M735 108l13 -24q-37 -42 -78.5 -69t-62.5 -27q-40 0 -15 102l53 231q16 64 -9 64q-33 0 -103.5 -75.5t-100.5 -131.5q-26 -106 -39 -172q-33 -4 -73 -17l-6 6q58 234 72 299q11 50 9 70.5t-17 20.5q-34 0 -104.5 -76.5t-97.5 -130.5q-18 -59 -41 -172q-32 -4 -72 -17
l-7 6q48 181 83 339q9 40 -1 42q-7 0 -28.5 -15.5t-40.5 -33.5l-12 25q40 43 80 69.5t61 26.5q38 0 8 -124l-18 -70h2q86 119 180 173q34 21 61 21q59 0 24 -152l-9 -41h2q86 121 184 174q37 19 60 19q56 0 22 -145l-49 -208q-8 -33 2 -33q19 0 68 46z" />
    <glyph glyph-name="n" unicode="n" horiz-adv-x="532" 
d="M480 109l15 -25q-42 -45 -81 -70.5t-60 -25.5q-41 0 -15 104q13 52 52 221q17 71 -7 71q-32 0 -101.5 -70.5t-108.5 -137.5q-27 -108 -39 -168q-43 -8 -72 -19l-6 7q42 162 82 338q9 40 -2 40q-17 0 -64 -45l-14 24q40 43 79.5 69t61.5 26q34 0 8 -111l-21 -86h2
q88 119 184 174q37 23 66 23q57 0 23 -143q-4 -18 -22 -92t-27 -115q-8 -35 2 -35q19 0 65 46z" />
    <glyph glyph-name="o" unicode="o" horiz-adv-x="470" 
d="M306 448h1q62 0 97 -41t35 -115q0 -67 -28 -133t-79 -108q-77 -63 -154 -63q-67 0 -99.5 44.5t-32.5 110.5q0 93 43 165.5t109 106.5q59 33 108 33zM275 409h-1q-20 0 -38 -8q-37 -17 -71.5 -83t-34.5 -169q0 -56 22.5 -88.5t61.5 -32.5q17 0 33 6q42 18 75.5 91.5
t32.5 164.5q0 58 -22 88.5t-58 30.5z" />
    <glyph glyph-name="p" unicode="p" horiz-adv-x="486" 
d="M238 512l-17 -77q40 13 93 13q144 0 144 -138q0 -111 -85 -206q-80 -89 -186 -116q-35 0 -59 10l-28 -139q-9 -44 -1.5 -55.5t44.5 -15.5l25 -2l-4 -27l-231 -11l4 25q48 10 63 23.5t25 58.5q4 20 112 521q-44 -15 -81 -37l-7 26q38 27 96 49l11 46q22 27 73 58zM271 405
h-2q-24 0 -57 -7l-69 -332q10 -13 27.5 -23.5t35.5 -10.5q55 0 111.5 84.5t56.5 177.5q0 111 -103 111z" />
    <glyph glyph-name="q" unicode="q" horiz-adv-x="484" 
d="M336 164l-2 -1q-53 -66 -127 -124q-63 -51 -105 -51q-27 0 -45.5 31.5t-18.5 80.5q0 77 32 148.5t85 117.5q67 58 151 76q28 6 53 6q32 0 86 -15l16 -4q-27 -111 -47 -218l-65 -348q-8 -48 -1 -59t44 -16l24 -3l-4 -25l-232 -12l5 25l17 3q36 8 48.5 22t21.5 58zM151 55
h1q34 0 94 56.5t97 114.5q19 72 35 163q-28 15 -71 15q-44 0 -75 -22q-50 -36 -80 -111t-30 -145q0 -34 8 -52.5t21 -18.5z" />
    <glyph glyph-name="r" unicode="r" horiz-adv-x="366" 
d="M189 283h3q40 74 81 119.5t70 45.5q27 0 43 -26q12 -20 -1 -42q-10 -17 -27 -29q-12 -9 -22 -1q-17 17 -33 17q-20 0 -51 -43q-51 -71 -72 -123q-16 -73 -40 -195q-29 -4 -71 -17l-7 7q55 235 73 336q8 43 -2 43q-7 0 -29 -14t-42 -34l-14 23q38 41 78.5 69.5t61.5 28.5
q37 0 12 -116z" />
    <glyph glyph-name="s" unicode="s" horiz-adv-x="337" 
d="M246 448h1q31 0 54 -18t23 -38q0 -26 -25 -41q-13 -8 -22 4q-36 45 -78 45q-22 0 -38 -15.5t-16 -40.5q0 -24 16.5 -44t49.5 -45q45 -34 64 -59.5t19 -56.5q0 -56 -59.5 -103.5t-121.5 -47.5q-36 0 -68.5 23t-32.5 49q-1 24 29 42q17 8 25 -3q41 -61 96 -61q29 0 48 17.5
t19 42.5q0 20 -12.5 38.5t-46.5 45.5q-41 30 -64 58t-23 63q0 51 52 97q24 20 55.5 34t55.5 14z" />
    <glyph glyph-name="t" unicode="t" horiz-adv-x="307" 
d="M338 430l-26 -35l-100 -4l-58 -273q-13 -60 6 -60q12 0 41 19t48 39l15 -22q-31 -37 -78.5 -71.5t-83.5 -34.5q-13 0 -20.5 11.5t-9.5 40.5t10 80l58 270h-74l-3 9l25 31h61l23 94l75 63l10 -7l-36 -150h117z" />
    <glyph glyph-name="u" unicode="u" horiz-adv-x="533" 
d="M492 113l13 -23q-35 -42 -78.5 -72t-66.5 -30q-39 0 -15 106q7 30 19 88h-2q-78 -105 -161 -163q-43 -31 -81 -31q-63 0 -34 127q15 58 55 229q8 31 -2 33q-13 0 -70 -47l-12 24q43 42 85 68t63 26q17 0 19.5 -18.5t-8.5 -68.5q-24 -104 -56 -240q-15 -65 12 -65
q38 0 105 71.5t102 134.5q20 83 36 160l69 26h11q-49 -194 -79 -348q-6 -39 4 -39q7 0 29.5 16t42.5 36z" />
    <glyph glyph-name="v" unicode="v" horiz-adv-x="447" 
d="M219 86h2q155 197 155 264q0 28 -10 44q-6 11 0 25q5 12 17 20.5t25 8.5q18 0 30 -16t13 -41q0 -48 -61 -133q-97 -132 -208 -270h-27q-4 134 -19 310q-5 77 -18 77q-14 0 -58 -53l-17 22q29 42 63 73t57 31q35 0 43 -111q11 -183 13 -251z" />
    <glyph glyph-name="w" unicode="w" horiz-adv-x="670" 
d="M457 91h2q141 189 142 256q0 27 -11 47q-5 9 0 25q14 29 41 29q19 0 31 -16t12 -41q0 -37 -41 -105q-55 -87 -211 -298h-28q-9 122 -28 311h-2q-54 -90 -191 -311h-26q-1 111 -10 321q-3 66 -15 66t-60 -51l-16 20q79 104 127 104q33 0 36 -99q4 -164 3 -236h2
q20 35 58.5 99t70 118.5t57.5 101.5h25q5 -46 15 -162t17 -179z" />
    <glyph glyph-name="x" unicode="x" horiz-adv-x="473" 
d="M87 323l-18 20q73 105 119 105q19 0 31.5 -24.5t32.5 -85.5l18 -54q64 92 101 128t69 36q19 0 30.5 -13t11.5 -30q-1 -17 -14 -31t-25 -14q-7 0 -15 9q-10 12 -22 12q-22 0 -61 -50q-40 -46 -64 -81l32 -101q28 -91 50 -91q23 0 72 58l17 -21q-69 -107 -127 -107
q-38 0 -66 91l-31 97q-67 -105 -107 -146.5t-75 -41.5q-20 0 -33.5 13.5t-12.5 34.5q0 18 13 32.5t27 14.5q9 0 16 -10q10 -10 23 -10q37 0 139 150l-34 104q-19 63 -34 63q-18 0 -63 -57z" />
    <glyph glyph-name="y" unicode="y" horiz-adv-x="442" 
d="M239 75h2q135 204 135 274q-1 21 -12 47q-5 12 2 24q5 12 17 20t25 8q17 0 28 -15t12 -40q0 -43 -36 -106q-73 -132 -181 -282q-102 -149 -180 -235l-104 -27l-8 22q136 89 235 224q-2 135 -31 325q-7 62 -21 62q-6 0 -23 -16.5t-35 -41.5l-17 23q28 43 60.5 75t57.5 32
q39 0 52 -118q12 -96 22 -255z" />
    <glyph glyph-name="z" unicode="z" horiz-adv-x="418" 
d="M420 463l21 -22q-21 -26 -58 -67q-42 -48 -270 -282q27 3 76 -16q68 -24 90 -24q46 0 102 85l22 -18q-39 -78 -71 -108.5t-67 -30.5q-37 0 -133 49q-43 20 -63 5q-17 -11 -31 -35q-5 -8 -12 -8q-24 37 35 100q28 29 127.5 129t150.5 155q-27 -5 -61 -2q-78 6 -95 6
q-32 0 -52.5 -20.5t-46.5 -64.5l-25 12q17 41 40 80q36 59 74 59q29 0 106 -11q51 -9 80 -9q27 0 61 38z" />
    <glyph glyph-name="braceleft" unicode="{" horiz-adv-x="338" 
d="M383 710l-2 -27q-50 -6 -71 -28.5t-28 -62.5q-6 -31 -10 -95q-7 -93 -10 -109q-17 -97 -101 -115l-1 -4q62 -15 62 -83q0 -20 -5.5 -42t-16 -54t-14.5 -45q-1 -6 -9.5 -35t-13 -50t-4.5 -38q0 -54 67 -63l-7 -27q-122 0 -122 95q0 43 32 152q27 95 27 117q0 55 -73 60
l6 29q30 2 50.5 10.5t30.5 23.5t14 26t8 29q4 17 10 89q7 68 16 122q24 125 165 125z" />
    <glyph glyph-name="bar" unicode="|" horiz-adv-x="239" 
d="M164 -250h-63v1000h63v-1000z" />
    <glyph glyph-name="braceright" unicode="}" horiz-adv-x="338" 
d="M292 285l-6 -28q-30 -2 -50.5 -10.5t-30.5 -24t-13.5 -25.5t-7.5 -29q-2 -10 -11 -89q-4 -53 -16 -123q-24 -124 -166 -124l4 27q49 7 70 29.5t28 60.5q8 49 10 96q6 87 10 108q19 98 100 116l1 4q-32 7 -47.5 33t-12.5 64q1 16 6 36.5t15 50.5t13 40q23 80 25 107
q6 68 -65 79l7 27q23 0 43.5 -4t40.5 -15t30.5 -33.5t7.5 -55.5q-1 -37 -31 -139q-25 -86 -26 -105q-3 -29 14 -49.5t58 -23.5z" />
    <glyph glyph-name="asciitilde" unicode="~" horiz-adv-x="563" 
d="M504 294l37 -20q-33 -113 -127 -113q-49 0 -127 46q-54 31 -90 31q-59 0 -91 -84l-35 25q44 108 130 108q51 0 114 -36q70 -40 105 -40q30 0 49.5 20t34.5 63z" />
    <glyph glyph-name="uni00A0" unicode="&#xa0;" horiz-adv-x="229" 
 />
    <glyph glyph-name="exclamdown" unicode="&#xa1;" horiz-adv-x="258" 
d="M223 391v-1q0 -28 -18 -46t-43 -18q-23 0 -37.5 15.5t-14.5 40.5q0 29 17.5 47t43.5 18h1q22 0 36.5 -16t14.5 -40zM154 238q-9 -91 -38 -360q-6 -67 -9 -80q-5 -29 -58 -29h-1q-27 0 -38.5 7t-9.5 22q3 13 22 80q17 60 50.5 179.5t50.5 179.5q4 5 16.5 5t14.5 -4z" />
    <glyph glyph-name="cent" unicode="&#xa2;" horiz-adv-x="477" 
d="M369 620l-16 -80q66 0 104 -32q13 -10 13 -26q0 -14 -12.5 -27t-24.5 -13q-7 0 -15 9q-31 40 -74 46l-66 -348q3 0 7 -0.5t6 -0.5q66 0 131 54l15 -22q-77 -81 -170 -88l-19 -97h-35l19 98q-69 6 -114.5 54t-45.5 129q0 99 73 173t172 88l16 83h36zM243 156l66 343
q-73 -1 -114 -59t-41 -141q0 -59 25.5 -96t63.5 -47z" />
    <glyph glyph-name="sterling" unicode="&#xa3;" horiz-adv-x="477" 
d="M380 297h-164q-9 -67 -37.5 -112.5t-77.5 -85.5q42 0 105 -30q76 -35 118 -35q57 0 63 45q2 13 -2 33q-3 11 6 23q24 26 39 26q10 0 15 -14t1 -34q-5 -28 -28.5 -58.5t-54.5 -49.5q-51 -32 -93 -32t-135 53q-42 24 -64 24q-25 0 -49 -42q-7 -12 -14 -12q-30 15 -5 46
q13 19 57 59q65 62 71 196h-89l8 35h82q2 48 7 82q16 110 105 178q59 44 109 44q32 0 56.5 -13t32.5 -28q9 -16 0 -31q-5 -8 -20 -21q-15 -9 -27 3q-42 42 -83 42q-70 0 -86 -100q-6 -37 -8 -156h169z" />
    <glyph glyph-name="currency" unicode="&#xa4;" horiz-adv-x="477" 
d="M474 135l-42 -40l-65 74q-47 -38 -108 -38t-108 38l-65 -74l-40 40l70 67q-44 52 -44 123q0 73 45 123l-71 68l40 39l65 -74q48 38 108 38h1q60 0 107 -38l65 74l42 -39l-71 -68q44 -52 44 -123q0 -70 -44 -123zM260 470h-1q-53 0 -89.5 -40.5t-36.5 -104.5t36.5 -104.5
t90.5 -40.5t90 40.5t36 104.5t-36 104.5t-90 40.5z" />
    <glyph glyph-name="yen" unicode="&#xa5;" horiz-adv-x="477" 
d="M548 623l-6 -26q-38 -4 -55 -15t-46 -51q-63 -87 -138 -204h120l-8 -34h-128l-16 -77h132l-8 -34h-131l-15 -79q-9 -49 2.5 -60t75.5 -16l-6 -27h-252l6 27q60 4 74.5 16t24.5 60l16 79h-132l8 34h130l14 77h-130l8 34h120q-10 49 -54 219q-8 29 -21.5 38.5t-50.5 12.5
l5 26h206l-6 -26l-32 -5q-19 -2 -24.5 -9t-1.5 -27q7 -35 47 -211q80 118 129 207q11 23 7 30.5t-26 11.5l-31 3l7 26h186z" />
    <glyph glyph-name="brokenbar" unicode="&#xa6;" horiz-adv-x="239" 
d="M164 325h-63v350h63v-350zM164 -175h-63v350h63v-350z" />
    <glyph glyph-name="section" unicode="&#xa7;" horiz-adv-x="467" 
d="M423 215v-1q0 -114 -128 -228q-82 -72 -163 -88q-42 0 -70 24q-16 13 -16 30q1 10 11 20.5t19 15.5q10 6 18 -1q38 -32 82 -32q31 0 57 18t27 48q2 44 -52 101q-16 17 -41.5 49t-31.5 38q-62 72 -62 143q0 102 111 204q78 73 162 88q48 0 70 -25q13 -12 11 -25
q0 -19 -25 -35q-9 -5 -17 1l-5 4q-5 5 -8 7l-9 6t-11.5 6.5t-13.5 5t-16.5 4t-18.5 1.5q-32 0 -52.5 -19t-20.5 -43q0 -33 32 -68q60 -67 81 -89q80 -82 80 -160zM182 509l-2 1q-52 -49 -52 -119v-1q0 -65 51 -121l49 -56q57 -63 70 -97q16 -33 11 -74l1 -2q52 58 52 127
q0 73 -53 134q-14 16 -49 56.5t-45 51.5q-40 46 -33 100z" />
    <glyph glyph-name="dieresis" unicode="&#xa8;" 
d="M186 620h1q18 0 28 -12t10 -30q0 -23 -14.5 -39t-35.5 -16q-17 0 -28 11.5t-11 29.5q0 20 14 38t36 18zM362 620h1q18 0 28 -12t10 -30q0 -23 -14.5 -39t-35.5 -16q-17 0 -28 11.5t-11 29.5q0 20 14 38t36 18z" />
    <glyph glyph-name="copyright" unicode="&#xa9;" horiz-adv-x="693" 
d="M371 626h1q128 0 214 -88t86 -216q0 -127 -86 -214.5t-215 -87.5t-214.5 87.5t-85.5 214.5q0 128 86 216t214 88zM372 593h-1q-109 0 -181.5 -77.5t-72.5 -192.5t72.5 -192.5t182.5 -77.5t182 77.5t72 192.5t-72 192.5t-182 77.5zM502 263l22 -5q-19 -77 -25 -90
q-57 -19 -106 -19q-91 0 -140.5 51t-49.5 120q0 80 56.5 128t137.5 48q61 0 105 -17q7 -44 11 -91l-21 -3q-17 42 -40.5 62t-60.5 20q-54 0 -84.5 -39t-30.5 -101q0 -66 33.5 -107t83.5 -41q70 0 109 84z" />
    <glyph glyph-name="ordfeminine" unicode="&#xaa;" horiz-adv-x="331" 
d="M340 355l8 -20q-24 -27 -53 -45.5t-43 -18.5q-27 0 -17 51l12 54h-3q-36 -44 -81 -76q-38 -29 -61 -29q-36 0 -36 67q0 45 20.5 90.5t49.5 71.5q24 21 60.5 36.5t68.5 15.5h1q14 0 34 -4q12 -4 34 -4q-29 -132 -39 -190q-4 -28 2 -28q12 0 43 29zM233 518h-1
q-19 0 -33 -8q-25 -12 -46 -54q-23 -51 -23 -99q0 -33 14 -33q21 0 58 40q25 25 46 58q18 29 24 88q-13 8 -39 8z" />
    <glyph glyph-name="guillemotleft" unicode="&#xab;" horiz-adv-x="446" 
d="M247 387l-107 -166l73 -167l-23 -15q-86 125 -134 182q55 50 170 182zM410 387l-108 -166l74 -167l-24 -15q-93 135 -134 182q51 47 171 182z" />
    <glyph glyph-name="logicalnot" unicode="&#xac;" horiz-adv-x="596" 
d="M539 97h-57v221h-420v50h477v-271z" />
    <glyph glyph-name="uni00AD" unicode="&#xad;" horiz-adv-x="334" 
d="M298 253l-18 -55h-230l18 55h230z" />
    <glyph glyph-name="registered" unicode="&#xae;" horiz-adv-x="313" 
d="M199 661h1q55 0 92 -38t37 -91q0 -52 -37.5 -90t-92.5 -38t-92 36.5t-37 91.5q0 52 38 90.5t91 38.5zM200 638h-1q-43 0 -71.5 -30.5t-28.5 -75.5t29 -75t72 -30t72 30t29 75q0 44 -29 75t-72 31zM273 475l-3 -12q-34 0 -49 21q-13 19 -19 30q-5 7 -12 7h-4v-23
q0 -13 2.5 -15.5t15.5 -3.5v-15h-67v15q14 1 16.5 3.5t2.5 15.5v69q0 13 -2.5 15.5t-15.5 3.5v15h68q48 0 48 -36q0 -24 -27 -34q13 -23 33 -46q7 -7 13 -10zM186 574v-36h8q9 0 17 4q11 8 11 20q0 24 -24 24q-12 0 -12 -12z" />
    <glyph glyph-name="macron" unicode="&#xaf;" 
d="M377 585l-12 -51h-224l13 51h223z" />
    <glyph glyph-name="degree" unicode="&#xb0;" horiz-adv-x="350" 
d="M236 664h1q57 0 94.5 -35.5t37.5 -95.5q0 -64 -43 -103.5t-107 -39.5q-57 0 -94.5 35t-37.5 94q0 62 44 103.5t105 41.5zM234 624h-1q-37 0 -63 -29t-26 -75q0 -39 21.5 -64.5t57.5 -25.5q41 0 65.5 29t24.5 72q0 41 -21 67t-58 26z" />
    <glyph glyph-name="plusminus" unicode="&#xb1;" horiz-adv-x="596" 
d="M545 311h-214v-204h-57v204h-215v50h215v191h57v-191h214v-50zM545 0h-486v50h486v-50z" />
    <glyph glyph-name="two.superior" unicode="&#xb2;" horiz-adv-x="326" 
d="M334 488l21 -9q-14 -26 -39 -83h-242l4 18q59 43 117 93q28 26 45 43.5t33 44.5t16 51q0 59 -59 59q-39 0 -86 -56l-17 16l39 49q37 40 93 40q41 0 70 -26t29 -71q0 -11 -2.5 -21.5t-8 -21t-10.5 -19t-15 -19t-16 -16.5t-19 -17t-18.5 -15t-20.5 -15t-18 -14l-61 -49v-2
h92q26 0 40 7.5t33 32.5z" />
    <glyph glyph-name="three.superior" unicode="&#xb3;" horiz-adv-x="326" 
d="M280 608v-2q28 -7 48.5 -27t20.5 -51q0 -70 -85 -112q-48 -26 -90 -26q-48 0 -71 25q-12 12 -6 26q5 16 20 24q12 7 21 -4q40 -33 74 -33q28 0 48.5 20t20.5 55q0 33 -19 50.5t-48 17.5q-22 0 -38 -7l-6 24q48 10 79 31.5t31 49.5q0 42 -47 42q-40 0 -75 -47l-17 16
l31 37q31 37 87 37h1q35 0 60.5 -19.5t25.5 -54.5q0 -40 -66 -72z" />
    <glyph glyph-name="acute" unicode="&#xb4;" 
d="M382 661l-155 -170l-23 16q61 96 92 155q9 3 40.5 7t42.5 3z" />
    <glyph glyph-name="mu" unicode="&#xb5;" horiz-adv-x="511" 
d="M467 113l14 -23q-36 -43 -78.5 -72.5t-66.5 -29.5q-39 0 -15 106q3 12 9 39.5t9 45.5h-2q-77 -108 -139 -159q-38 -32 -70 -32q-30 0 -42 44h-2q-22 -78 -19 -147q1 -36 11 -65t21 -40l1 -7q-7 -11 -23 -21t-35 -10q-17 0 -28 18.5t-10 53.5q2 45 36 200q89 395 93 412
l72 21l7 -5q-47 -194 -71 -305q-8 -40 -1.5 -61.5t24.5 -21.5q35 0 96.5 71.5t95.5 135.5q18 76 36 161l69 26h11q-45 -177 -78 -348q-6 -39 4 -39q7 0 29 16t42 36z" />
    <glyph glyph-name="paragraph" unicode="&#xb6;" horiz-adv-x="488" 
d="M532 536l-35 -25l-82 -10l-92 -473q-23 -123 -100 -191q-23 -20 -51.5 -32.5t-41.5 -12.5q-40 0 -62 24q-14 14 -7 29q4 16 22 27q9 9 20 1q31 -23 63 -23q36 0 60.5 34t45.5 138l25 131l-65 -27q-6 -3 -18 -3q-52 0 -92.5 52t-40.5 124q0 109 79 179.5t184 70.5h186z
" />
    <glyph glyph-name="periodcentered" unicode="&#xb7;" horiz-adv-x="235" 
d="M121 172h-1q-22 0 -35.5 15t-13.5 38q0 27 17 45t42 18q22 0 35.5 -15.5t13.5 -38.5q0 -28 -17.5 -45t-40.5 -17z" />
    <glyph glyph-name="cedilla" unicode="&#xb8;" 
d="M203 0l-21 -25q-11 -14 -11 -21t11 -20q31 -37 30 -66q-2 -29 -36 -56.5t-85 -42.5l-12 27q68 31 69 60q1 13 -18 37q-16 18 -17.5 29t11.5 29l41 49h38z" />
    <glyph glyph-name="one.superior" unicode="&#xb9;" horiz-adv-x="326" 
d="M311 419l-5 -23h-191l6 23q40 3 52.5 12t18.5 45l35 180q5 30 1 36t-29 9l-28 2l6 21q69 10 132 30l-53 -278q-7 -36 2.5 -44.5t52.5 -12.5z" />
    <glyph glyph-name="ordmasculine" unicode="&#xba;" horiz-adv-x="314" 
d="M236 552h1q42 0 67 -27t25 -75q0 -89 -65 -142q-48 -37 -95 -37q-46 0 -70.5 29t-24.5 73q0 52 25.5 94t63.5 64q36 21 73 21zM218 523h-1q-10 0 -20 -5q-22 -9 -40.5 -45.5t-18.5 -95.5q0 -75 49 -75q12 0 20 4q22 8 41.5 50.5t18.5 99.5q-2 67 -49 67z" />
    <glyph glyph-name="guillemotright" unicode="&#xbb;" horiz-adv-x="446" 
d="M95 388l24 15q97 -139 133 -182q-62 -58 -170 -182l-21 16l108 166zM258 388l23 15q92 -133 134 -182q-55 -50 -170 -182l-22 16l109 166z" />
    <glyph glyph-name="onequarter" unicode="&#xbc;" horiz-adv-x="747" 
d="M662 631l-503 -658l-27 25l502 656zM273 300l-6 -23h-191l6 23q40 4 52 13t19 44l35 181q5 30 1 36t-29 8l-28 2l6 22q54 6 133 29l-54 -278q-7 -36 2.5 -44t53.5 -13zM661 133l-6 -35h-58l-5 -25q-6 -31 2.5 -39t44.5 -12l-5 -22h-176l5 22q41 4 52.5 11.5t17.5 39.5
l4 25h-162l5 23q136 150 226 238h41l-43 -226h57zM576 289h-2q-66 -71 -139 -156h109z" />
    <glyph glyph-name="onehalf" unicode="&#xbd;" horiz-adv-x="740" 
d="M649 631l-504 -658l-27 25l503 656zM266 300l-6 -23h-191l6 23q40 4 52.5 12.5t18.5 43.5l35 182q5 30 1 36t-29 8l-28 2l6 22q54 6 133 29l-54 -279q-7 -34 3 -42.5t53 -13.5zM657 92l20 -10q-17 -33 -39 -82h-242l3 17q79 60 117 95q30 26 46 42.5t32.5 43.5t16.5 52
q0 60 -60 60q-39 0 -85 -57l-17 17l39 49q37 40 96 40q39 0 67.5 -26.5t28.5 -71.5q0 -16 -7 -33t-13.5 -28t-24.5 -28.5t-25 -23.5t-31 -24.5t-27 -21.5l-61 -48v-2h92q26 0 40 7.5t34 32.5z" />
    <glyph glyph-name="threequarters" unicode="&#xbe;" horiz-adv-x="740" 
d="M674 631l-503 -658l-27 25l503 656zM144 545l-17 16l31 37q31 37 87 37h1q35 0 60.5 -19.5t25.5 -54.5q0 -40 -66 -72v-2q28 -7 48.5 -27t20.5 -51q0 -70 -83 -113q-49 -26 -92 -26q-46 0 -70 24q-13 14 -7 26q4 15 20 26q11 6 21 -4q40 -35 74 -35q28 0 48.5 21t20.5 55
t-19 51.5t-48 17.5q-22 0 -38 -7l-6 24q48 10 79 31.5t31 49.5q0 42 -47 42q-40 0 -75 -47zM672 133l-7 -35h-58l-5 -25q-6 -31 2.5 -39t44.5 -12l-5 -22h-176l4 22q42 4 53.5 11.5t17.5 39.5l4 25h-162l5 23q128 140 226 237h41l-43 -225h58zM586 288h-2q-80 -87 -139 -155
h109z" />
    <glyph glyph-name="questiondown" unicode="&#xbf;" horiz-adv-x="358" 
d="M231 447h1q22 0 36.5 -16t14.5 -40q0 -29 -18 -47t-43 -18q-23 0 -37.5 15.5t-14.5 40.5q0 29 17.5 47t43.5 18zM165 221l18 21q35 -19 62 -50t27 -65q0 -36 -28.5 -66t-78.5 -61q-80 -49 -102 -73q-20 -23 -20 -43q0 -23 15.5 -36.5t40.5 -13.5q29 0 55 12.5t41.5 25
t18.5 12.5q11 0 22.5 -13t11.5 -27q-1 -21 -28 -40q-47 -33 -92 -33h-1q-53 0 -93 43.5t-40 101.5q0 65 67 108q93 60 111 77q28 26 28 52q0 36 -35 68z" />
    <glyph glyph-name="Agrave" unicode="&#xc0;" horiz-adv-x="664" 
d="M621 27l-7 -27h-236l7 27q50 5 61 16t6 45q-2 18 -25 148h-209q-40 -75 -69 -136q-21 -45 -12.5 -56.5t66.5 -16.5l-6 -27h-215l7 27q48 6 66 20.5t53 75.5l300 533l31 8l28 -178q26 -167 64 -372q9 -54 23 -68t67 -19zM421 278l-40 258h-2q-101 -185 -139 -258h181z
M472 709l-14 -25l-188 63l-2 8q3 11 18 31.5t24 24.5q20 -13 76.5 -48t85.5 -54z" />
    <glyph glyph-name="Aacute" unicode="&#xc1;" horiz-adv-x="664" 
d="M621 27l-7 -27h-236l7 27q50 5 61 16t6 45q-2 18 -25 148h-209q-40 -75 -69 -136q-21 -45 -12.5 -56.5t66.5 -16.5l-6 -27h-215l7 27q48 6 66 20.5t53 75.5l300 533l31 8l28 -178q26 -167 64 -372q9 -54 23 -68t67 -19zM421 278l-40 258h-2q-101 -185 -139 -258h181z
M570 755l-2 -8l-187 -63l-13 25q41 25 161 101q9 -2 24 -22.5t17 -32.5z" />
    <glyph glyph-name="Acircumflex" unicode="&#xc2;" horiz-adv-x="664" 
d="M621 27l-7 -27h-236l7 27q50 5 61 16t6 45q-2 18 -25 148h-209q-40 -75 -69 -136q-21 -45 -12.5 -56.5t66.5 -16.5l-6 -27h-215l7 27q48 6 66 20.5t53 75.5l300 533l31 8l28 -178q26 -167 64 -372q9 -54 23 -68t67 -19zM421 278l-40 258h-2q-101 -185 -139 -258h181z
M558 706l-18 -22q-47 19 -107 58q-77 -41 -126 -58l-13 22q71 45 136 104h25q41 -51 103 -104z" />
    <glyph glyph-name="Atilde" unicode="&#xc3;" horiz-adv-x="664" 
d="M621 27l-7 -27h-236l7 27q50 5 61 16t6 45q-2 18 -25 148h-209q-40 -75 -69 -136q-21 -45 -12.5 -56.5t66.5 -16.5l-6 -27h-215l7 27q48 6 66 20.5t53 75.5l300 533l31 8l28 -178q26 -167 64 -372q9 -54 23 -68t67 -19zM421 278l-40 258h-2q-101 -185 -139 -258h181z
M537 792l25 -16q-29 -80 -80 -80q-18 0 -68 23q-28 12 -41 12q-26 0 -48 -43l-24 18q33 81 80 79q19 0 59 -18q37 -16 51 -16q23 0 46 41z" />
    <glyph glyph-name="Adieresis" unicode="&#xc4;" horiz-adv-x="664" 
d="M621 27l-7 -27h-236l7 27q50 5 61 16t6 45q-2 18 -25 148h-209q-40 -75 -69 -136q-21 -45 -12.5 -56.5t66.5 -16.5l-6 -27h-215l7 27q48 6 66 20.5t53 75.5l300 533l31 8l28 -178q26 -167 64 -372q9 -54 23 -68t67 -19zM421 278l-40 258h-2q-101 -185 -139 -258h181z
M339 789h1q18 0 28 -12t10 -30q0 -23 -14.5 -39t-35.5 -16q-17 0 -28 11.5t-11 29.5q0 21 14 38.5t36 17.5zM525 789h1q18 0 28 -12t10 -30q0 -23 -14.5 -39t-35.5 -16q-17 0 -28 11.5t-11 29.5q0 21 14 38.5t36 17.5z" />
    <glyph glyph-name="Aring" unicode="&#xc5;" horiz-adv-x="664" 
d="M621 27l-7 -27h-236l7 27q50 5 61 16t6 45q-2 18 -25 148h-209q-40 -75 -69 -136q-21 -45 -12.5 -56.5t66.5 -16.5l-6 -27h-215l7 27q48 6 66 20.5t53 75.5l300 533l31 8l28 -178q26 -167 64 -372q9 -54 23 -68t67 -19zM421 278l-40 258h-2q-101 -185 -139 -258h181z
M520 774q-1 -38 -29 -62t-66 -24q-35 0 -57.5 22t-21.5 56q1 41 29 66t65 25q34 0 57.5 -22.5t22.5 -60.5zM475 775v1q1 21 -9 34.5t-29 13.5q-20 0 -32.5 -15.5t-13.5 -39.5q-1 -21 9 -34t29 -13t32 15t14 38z" />
    <glyph glyph-name="AE" unicode="&#xc6;" horiz-adv-x="864" 
d="M850 498l-29 -2q0 63 -14 88q-8 18 -28 24.5t-74 6.5h-75q-25 0 -30.5 -5.5t-10.5 -32.5l-47 -242h97q63 0 81 11.5t36 62.5h29l-38 -191h-29q1 55 -11.5 66.5t-77.5 11.5h-94l-28 -156q-15 -76 5 -92q18 -14 102 -14q56 0 82.5 6.5t47.5 26.5q30 28 67 94l28 -9
q-3 -8 -16.5 -42t-26 -65.5t-18.5 -44.5h-470l6 26q62 5 78.5 19.5t29.5 76.5l34 174h-174q-101 -147 -135 -207q-18 -32 -14 -42.5t36 -15.5l31 -4l-6 -27h-231l6 27q49 6 71 19t57 61q69 93 195.5 273t137.5 195q16 23 11 30t-37 10l-53 6l9 28h507q-6 -54 -17 -151z
M308 335h155l56 279q-13 0 -29 -15q-65 -91 -182 -264z" />
    <glyph glyph-name="Ccedilla" unicode="&#xc7;" horiz-adv-x="637" 
d="M308 -51l30 37q-119 3 -194.5 78.5t-75.5 205.5q0 172 117 283t300 111q71 0 169 -28q-1 -15 -3.5 -72t-4.5 -85l-30 -3q-5 87 -43.5 120.5t-110.5 33.5q-131 0 -214 -104.5t-83 -249.5q0 -116 51.5 -186t142.5 -70q73 0 123 40t101 119l26 -12q-35 -94 -76 -157
q-101 -22 -159 -24l-11 -12q-11 -15 -11 -22.5t12 -20.5q32 -38 31 -68t-36 -58t-89 -43l-10 26q71 31 72 61q1 15 -19 39q-17 19 -18.5 30.5t13.5 30.5z" />
    <glyph glyph-name="Egrave" unicode="&#xc8;" horiz-adv-x="559" 
d="M129 649h434q-4 -25 -19 -154l-29 -2q0 65 -13 89q-8 19 -26.5 26t-70.5 7h-78q-25 0 -31.5 -6.5t-11.5 -34.5l-43 -216h97q61 0 78.5 11t35.5 61h29l-38 -189h-29q2 55 -10 66.5t-75 11.5h-95l-33 -176q-15 -80 4 -95q17 -14 101 -14q56 0 83.5 7t48.5 27q27 26 68 96
l28 -10q-45 -116 -64 -154h-468l6 27q62 5 78 19t27 73l80 410q11 60 0.5 74t-72.5 19zM440 710l-14 -25l-188 63l-2 8q3 11 18 31.5t24 24.5q20 -13 76.5 -48t85.5 -54z" />
    <glyph glyph-name="Eacute" unicode="&#xc9;" horiz-adv-x="559" 
d="M129 649h434q-4 -25 -19 -154l-29 -2q0 65 -13 89q-8 19 -26.5 26t-70.5 7h-78q-25 0 -31.5 -6.5t-11.5 -34.5l-43 -216h97q61 0 78.5 11t35.5 61h29l-38 -189h-29q2 55 -10 66.5t-75 11.5h-95l-33 -176q-15 -80 4 -95q17 -14 101 -14q56 0 83.5 7t48.5 27q27 26 68 96
l28 -10q-45 -116 -64 -154h-468l6 27q62 5 78 19t27 73l80 410q11 60 0.5 74t-72.5 19zM513 756l-2 -8l-187 -63l-13 25q41 25 161 101q9 -2 24 -22.5t17 -32.5z" />
    <glyph glyph-name="Ecircumflex" unicode="&#xca;" horiz-adv-x="559" 
d="M129 649h434q-4 -25 -19 -154l-29 -2q0 65 -13 89q-8 19 -26.5 26t-70.5 7h-78q-25 0 -31.5 -6.5t-11.5 -34.5l-43 -216h97q61 0 78.5 11t35.5 61h29l-38 -189h-29q2 55 -10 66.5t-75 11.5h-95l-33 -176q-15 -80 4 -95q17 -14 101 -14q56 0 83.5 7t48.5 27q27 26 68 96
l28 -10q-45 -116 -64 -154h-468l6 27q62 5 78 19t27 73l80 410q11 60 0.5 74t-72.5 19zM505 706l-18 -22q-47 19 -107 58q-77 -41 -126 -58l-13 22q71 45 136 104h25q41 -51 103 -104z" />
    <glyph glyph-name="Edieresis" unicode="&#xcb;" horiz-adv-x="559" 
d="M129 649h434q-4 -25 -19 -154l-29 -2q0 65 -13 89q-8 19 -26.5 26t-70.5 7h-78q-25 0 -31.5 -6.5t-11.5 -34.5l-43 -216h97q61 0 78.5 11t35.5 61h29l-38 -189h-29q2 55 -10 66.5t-75 11.5h-95l-33 -176q-15 -80 4 -95q17 -14 101 -14q56 0 83.5 7t48.5 27q27 26 68 96
l28 -10q-45 -116 -64 -154h-468l6 27q62 5 78 19t27 73l80 410q11 60 0.5 74t-72.5 19zM292 789h1q18 0 28 -12t10 -30q0 -23 -14.5 -39t-35.5 -16q-17 0 -28 11.5t-11 29.5q0 21 14 38.5t36 17.5zM478 789h1q18 0 28 -12t10 -30q0 -23 -14.5 -39t-35.5 -16q-17 0 -28 11.5
t-11 29.5q0 21 14 38.5t36 17.5z" />
    <glyph glyph-name="Igrave" unicode="&#xcc;" horiz-adv-x="335" 
d="M380 649l-6 -27q-59 -5 -73 -18t-25 -68l-80 -420q-11 -58 0 -71t73 -18l-6 -27h-256l7 27q58 4 73 18t26 71l82 420q10 55 -1.5 68t-74.5 18l6 27h255zM328 709l-14 -25l-188 63l-2 8q3 11 18 31.5t24 24.5q20 -13 76.5 -48t85.5 -54z" />
    <glyph glyph-name="Iacute" unicode="&#xcd;" horiz-adv-x="335" 
d="M380 649l-6 -27q-59 -5 -73 -18t-25 -68l-80 -420q-11 -58 0 -71t73 -18l-6 -27h-256l7 27q58 4 73 18t26 71l82 420q10 55 -1.5 68t-74.5 18l6 27h255zM397 755l-2 -8l-187 -63l-13 25q41 25 161 101q9 -2 24 -22.5t17 -32.5z" />
    <glyph glyph-name="Icircumflex" unicode="&#xce;" horiz-adv-x="335" 
d="M380 649l-6 -27q-59 -5 -73 -18t-25 -68l-80 -420q-11 -58 0 -71t73 -18l-6 -27h-256l7 27q58 4 73 18t26 71l82 420q10 55 -1.5 68t-74.5 18l6 27h255zM389 706l-18 -22q-47 19 -107 58q-77 -41 -126 -58l-13 22q71 45 136 104h25q41 -51 103 -104z" />
    <glyph glyph-name="Idieresis" unicode="&#xcf;" horiz-adv-x="335" 
d="M380 649l-6 -27q-59 -5 -73 -18t-25 -68l-80 -420q-11 -58 0 -71t73 -18l-6 -27h-256l7 27q58 4 73 18t26 71l82 420q10 55 -1.5 68t-74.5 18l6 27h255zM175 789h1q18 0 28 -12t10 -30q0 -23 -14.5 -39t-35.5 -16q-17 0 -28 11.5t-11 29.5q0 21 14 38.5t36 17.5zM361 789
h1q18 0 28 -12t10 -30q0 -23 -14.5 -39t-35.5 -16q-17 0 -28 11.5t-11 29.5q0 21 14 38.5t36 17.5z" />
    <glyph glyph-name="Eth" unicode="&#xd0;" horiz-adv-x="719" 
d="M138 649h249q149 0 234 -65.5t85 -202.5q0 -94 -44 -174.5t-122 -131.5q-119 -75 -308 -75h-215l8 27q58 6 72.5 19t26.5 72l39 203h-110l9 37h108l33 167q6 35 7.5 51t-8 26.5t-22.5 13t-48 6.5zM244 321l-34 -185q-8 -43 -5.5 -60.5t17.5 -26.5q23 -13 68 -13
q82 0 145.5 31t100.5 82.5t56 112t19 126.5q0 101 -53 164.5t-173 63.5q-53 0 -71 -9q-17 -9 -22 -39l-40 -210h155l-8 -37h-155z" />
    <glyph glyph-name="Ntilde" unicode="&#xd1;" horiz-adv-x="705" 
d="M766 649l-6 -27q-44 -3 -60.5 -16t-26.5 -47q-16 -50 -38 -170l-76 -397h-30l-296 530h-3l-52 -266q-23 -115 -26 -168q-1 -34 15.5 -45.5t69.5 -15.5l-6 -27h-229l7 27q40 2 59 14.5t29 44.5q16 51 41 173l52 246q7 39 6 54t-12 33q-9 16 -26 22t-58 8l6 27h143
l295 -509h4l46 249q23 120 27 172q2 34 -14.5 45.5t-72.5 15.5l7 27h225zM552 787l25 -16q-29 -80 -80 -80q-18 0 -68 23q-28 12 -41 12q-26 0 -48 -43l-24 18q33 81 80 79q19 0 59 -18q37 -16 51 -16q23 0 46 41z" />
    <glyph glyph-name="Ograve" unicode="&#xd2;" horiz-adv-x="708" 
d="M429 664h1q119 0 192.5 -79.5t73.5 -206.5q0 -163 -104 -278t-261 -115q-118 0 -191.5 78.5t-73.5 204.5q0 160 105 278t258 118zM423 630h-1q-75 0 -136.5 -56.5t-93 -140.5t-31.5 -173q0 -107 45.5 -174t133.5 -67q79 0 140.5 58.5t91 141.5t29.5 169q0 108 -43 175
t-135 67zM515 718l-14 -25l-188 63l-2 8q3 11 18 31.5t24 24.5q20 -13 76.5 -48t85.5 -54z" />
    <glyph glyph-name="Oacute" unicode="&#xd3;" horiz-adv-x="708" 
d="M429 664h1q119 0 192.5 -79.5t73.5 -206.5q0 -163 -104 -278t-261 -115q-118 0 -191.5 78.5t-73.5 204.5q0 160 105 278t258 118zM423 630h-1q-75 0 -136.5 -56.5t-93 -140.5t-31.5 -173q0 -107 45.5 -174t133.5 -67q79 0 140.5 58.5t91 141.5t29.5 169q0 108 -43 175
t-135 67zM558 764l-2 -8l-187 -63l-13 25q41 25 161 101q9 -2 24 -22.5t17 -32.5z" />
    <glyph glyph-name="Ocircumflex" unicode="&#xd4;" horiz-adv-x="708" 
d="M429 664h1q119 0 192.5 -79.5t73.5 -206.5q0 -163 -104 -278t-261 -115q-118 0 -191.5 78.5t-73.5 204.5q0 160 105 278t258 118zM423 630h-1q-75 0 -136.5 -56.5t-93 -140.5t-31.5 -173q0 -107 45.5 -174t133.5 -67q79 0 140.5 58.5t91 141.5t29.5 169q0 108 -43 175
t-135 67zM564 714l-18 -22q-47 19 -107 58q-77 -41 -126 -58l-13 22q71 45 136 104h25q41 -51 103 -104z" />
    <glyph glyph-name="Otilde" unicode="&#xd5;" horiz-adv-x="708" 
d="M429 664h1q119 0 192.5 -79.5t73.5 -206.5q0 -163 -104 -278t-261 -115q-118 0 -191.5 78.5t-73.5 204.5q0 160 105 278t258 118zM423 630h-1q-75 0 -136.5 -56.5t-93 -140.5t-31.5 -173q0 -107 45.5 -174t133.5 -67q79 0 140.5 58.5t91 141.5t29.5 169q0 108 -43 175
t-135 67zM546 801l25 -16q-29 -80 -80 -80q-18 0 -68 23q-28 12 -41 12q-26 0 -48 -43l-24 18q33 81 80 79q19 0 59 -18q37 -16 51 -16q23 0 46 41z" />
    <glyph glyph-name="Odieresis" unicode="&#xd6;" horiz-adv-x="708" 
d="M429 664h1q119 0 192.5 -79.5t73.5 -206.5q0 -163 -104 -278t-261 -115q-118 0 -191.5 78.5t-73.5 204.5q0 160 105 278t258 118zM423 630h-1q-75 0 -136.5 -56.5t-93 -140.5t-31.5 -173q0 -107 45.5 -174t133.5 -67q79 0 140.5 58.5t91 141.5t29.5 169q0 108 -43 175
t-135 67zM349 798h1q18 0 28 -12t10 -30q0 -23 -14.5 -39t-35.5 -16q-17 0 -28 11.5t-11 29.5q0 21 14 38.5t36 17.5zM535 798h1q18 0 28 -12t10 -30q0 -23 -14.5 -39t-35.5 -16q-17 0 -28 11.5t-11 29.5q0 21 14 38.5t36 17.5z" />
    <glyph glyph-name="multiply" unicode="&#xd7;" horiz-adv-x="596" 
d="M536 46l-37 -38l-195 199l-194 -199l-36 38l193 199l-193 197l36 38l194 -198l195 200l37 -37l-195 -200z" />
    <glyph glyph-name="Oslash" unicode="&#xd8;" horiz-adv-x="708" 
d="M630 693l28 -22l-51 -70q89 -81 89 -223q0 -164 -105 -278.5t-263 -114.5q-80 0 -142 40l-51 -68l-26 25l48 65q-91 81 -91 221q0 104 47.5 195t132 146t185.5 55q86 0 148 -41zM199 103l346 473q-38 53 -121 53q-77 0 -139 -56.5t-93.5 -139t-31.5 -170.5
q0 -103 39 -160zM566 544l-345 -472q43 -53 118 -53q79 0 141 58t92 140.5t30 167.5q0 99 -36 159z" />
    <glyph glyph-name="Ugrave" unicode="&#xd9;" horiz-adv-x="707" 
d="M773 649l-6 -27q-47 -2 -63.5 -13.5t-24.5 -40.5q-16 -56 -40 -180l-16 -78q-36 -184 -118 -260q-71 -65 -170 -65q-97 0 -154 53q-76 74 -45 242l48 253q11 58 1 71t-70 18l7 27h247l-6 -27q-58 -5 -72 -17.5t-25 -71.5l-46 -245q-25 -129 15.5 -190t121.5 -61
q90 0 144 67.5t83 213.5l14 70q24 127 26 180q2 30 -15 40.5t-72 13.5l6 27h230zM524 709l-14 -25l-188 63l-2 8q3 11 18 31.5t24 24.5q20 -13 76.5 -48t85.5 -54z" />
    <glyph glyph-name="Uacute" unicode="&#xda;" horiz-adv-x="707" 
d="M773 649l-6 -27q-47 -2 -63.5 -13.5t-24.5 -40.5q-16 -56 -40 -180l-16 -78q-36 -184 -118 -260q-71 -65 -170 -65q-97 0 -154 53q-76 74 -45 242l48 253q11 58 1 71t-70 18l7 27h247l-6 -27q-58 -5 -72 -17.5t-25 -71.5l-46 -245q-25 -129 15.5 -190t121.5 -61
q90 0 144 67.5t83 213.5l14 70q24 127 26 180q2 30 -15 40.5t-72 13.5l6 27h230zM597 755l-2 -8l-187 -63l-13 25q41 25 161 101q9 -2 24 -22.5t17 -32.5z" />
    <glyph glyph-name="Ucircumflex" unicode="&#xdb;" horiz-adv-x="707" 
d="M773 649l-6 -27q-47 -2 -63.5 -13.5t-24.5 -40.5q-16 -56 -40 -180l-16 -78q-36 -184 -118 -260q-71 -65 -170 -65q-97 0 -154 53q-76 74 -45 242l48 253q11 58 1 71t-70 18l7 27h247l-6 -27q-58 -5 -72 -17.5t-25 -71.5l-46 -245q-25 -129 15.5 -190t121.5 -61
q90 0 144 67.5t83 213.5l14 70q24 127 26 180q2 30 -15 40.5t-72 13.5l6 27h230zM590 709l-18 -22q-47 19 -107 58q-77 -41 -126 -58l-13 22q71 45 136 104h25q41 -51 103 -104z" />
    <glyph glyph-name="Udieresis" unicode="&#xdc;" horiz-adv-x="707" 
d="M773 649l-6 -27q-47 -2 -63.5 -13.5t-24.5 -40.5q-16 -56 -40 -180l-16 -78q-36 -184 -118 -260q-71 -65 -170 -65q-97 0 -154 53q-76 74 -45 242l48 253q11 58 1 71t-70 18l7 27h247l-6 -27q-58 -5 -72 -17.5t-25 -71.5l-46 -245q-25 -129 15.5 -190t121.5 -61
q90 0 144 67.5t83 213.5l14 70q24 127 26 180q2 30 -15 40.5t-72 13.5l6 27h230zM370 789h1q18 0 28 -12t10 -30q0 -23 -14.5 -39t-35.5 -16q-17 0 -28 11.5t-11 29.5q0 21 14 38.5t36 17.5zM556 789h1q18 0 28 -12t10 -30q0 -23 -14.5 -39t-35.5 -16q-17 0 -28 11.5
t-11 29.5q0 21 14 38.5t36 17.5z" />
    <glyph glyph-name="Yacute" unicode="&#xdd;" horiz-adv-x="611" 
d="M686 649l-8 -27q-48 -5 -68 -17t-57 -58q-67 -84 -165 -226q-17 -23 -24 -56l-28 -141q-13 -63 -0.5 -77t80.5 -20l-7 -27h-266l7 27q61 5 76.5 19t28.5 78l26 135q7 28 -5 59q-26 72 -88 234q-17 44 -30.5 54.5t-61.5 15.5l7 27h231l-6 -27l-35 -4q-25 -4 -30.5 -12
t2.5 -30q55 -154 92 -242q131 187 160 236q15 26 10.5 34.5t-33.5 13.5l-31 4l7 27h216zM537 755l-2 -8l-187 -63l-13 25q41 25 161 101q9 -2 24 -22.5t17 -32.5z" />
    <glyph glyph-name="Thorn" unicode="&#xde;" horiz-adv-x="541" 
d="M269 501h71q93 0 144.5 -39t51.5 -115q0 -92 -70.5 -143.5t-167.5 -52.5q-16 0 -36 5l-57 16l-12 -61q-10 -54 2.5 -66.5t78.5 -18.5l-6 -26h-257l6 26q58 6 72 18t25 67l81 423q11 55 1.5 69t-67.5 20l6 26h237l-6 -26q-57 -6 -69.5 -21.5t-27.5 -100.5zM254 433
l-42 -229q40 -14 78 -14q25 0 50.5 8t50 25t40 49.5t15.5 76.5q0 120 -134 121q-24 0 -42 -6q-10 -4 -16 -31z" />
    <glyph glyph-name="germandbls" unicode="&#xdf;" horiz-adv-x="512" 
d="M82 430h58q31 150 116 222q69 62 146 62q57 0 90 -34t33 -88q0 -36 -15 -62q-119 -86 -119 -155q0 -30 33 -84q46 -74 46 -124q0 -68 -64 -123.5t-132 -55.5q-31 0 -58.5 18t-27.5 39q0 20 24 35q11 8 22 -1q44 -42 86 -42q37 0 59.5 25.5t22.5 59.5q0 44 -32 97
q-2 3 -8 13t-8 13t-7.5 12t-7 12.5t-6 11.5t-6 12.5t-4 11.5t-3.5 12t-2 11t-1 11q0 39 33 80.5t97 98.5q9 24 9 52q0 48 -23 76.5t-63 28.5q-33 0 -59.5 -21t-42.5 -51.5t-28.5 -76t-19 -81t-13.5 -80.5l-3 -21q-3 -17 -14.5 -88.5t-20.5 -122.5q-42 -237 -125 -325
q-31 -33 -62 -49.5t-51 -16.5q-21 0 -39 12t-18 29q0 21 27 43q12 8 20 1q26 -21 57 -21q26 0 41 20q33 39 66 251q31 196 48 312h-76l-4 13z" />
    <glyph glyph-name="agrave" unicode="&#xe0;" horiz-adv-x="490" 
d="M454 116l12 -25q-38 -46 -82 -74.5t-65 -28.5q-35 0 -17 88l20 95h-3q-50 -74 -129 -138q-55 -45 -93 -45q-23 0 -40.5 28.5t-17.5 83.5q0 76 33 151t87 120q40 33 90.5 55t95.5 22h1q27 0 62 -8q26 -6 38 -6l2 -4q-33 -127 -69 -324q-8 -43 2 -43q18 0 73 53zM303 404
h-1q-43 0 -72 -21q-49 -36 -78.5 -112t-29.5 -154q0 -65 27 -65q28 0 94 70.5t92 124.5q16 51 33 143q-28 14 -65 14zM363 499l-29 -9q-63 120 -89 164l3 9q8 3 35 8t38 4q6 -29 23 -98.5t19 -77.5z" />
    <glyph glyph-name="aacute" unicode="&#xe1;" horiz-adv-x="490" 
d="M454 116l12 -25q-38 -46 -82 -74.5t-65 -28.5q-35 0 -17 88l20 95h-3q-50 -74 -129 -138q-55 -45 -93 -45q-23 0 -40.5 28.5t-17.5 83.5q0 76 33 151t87 120q40 33 90.5 55t95.5 22h1q27 0 62 -8q26 -6 38 -6l2 -4q-33 -127 -69 -324q-8 -43 2 -43q18 0 73 53zM303 404
h-1q-43 0 -72 -21q-49 -36 -78.5 -112t-29.5 -154q0 -65 27 -65q28 0 94 70.5t92 124.5q16 51 33 143q-28 14 -65 14zM452 661l-155 -170l-23 16q61 96 92 155q9 3 40.5 7t42.5 3z" />
    <glyph glyph-name="acircumflex" unicode="&#xe2;" horiz-adv-x="490" 
d="M454 116l12 -25q-38 -46 -82 -74.5t-65 -28.5q-35 0 -17 88l20 95h-3q-50 -74 -129 -138q-55 -45 -93 -45q-23 0 -40.5 28.5t-17.5 83.5q0 76 33 151t87 120q40 33 90.5 55t95.5 22h1q27 0 62 -8q26 -6 38 -6l2 -4q-33 -127 -69 -324q-8 -43 2 -43q18 0 73 53zM303 404
h-1q-43 0 -72 -21q-49 -36 -78.5 -112t-29.5 -154q0 -65 27 -65q28 0 94 70.5t92 124.5q16 51 33 143q-28 14 -65 14zM420 504l-23 -17q-32 37 -71 96q-59 -59 -108 -96l-20 18q83 93 130 162h22q25 -77 70 -163z" />
    <glyph glyph-name="atilde" unicode="&#xe3;" horiz-adv-x="490" 
d="M454 116l12 -25q-38 -46 -82 -74.5t-65 -28.5q-35 0 -17 88l20 95h-3q-50 -74 -129 -138q-55 -45 -93 -45q-23 0 -40.5 28.5t-17.5 83.5q0 76 33 151t87 120q40 33 90.5 55t95.5 22h1q27 0 62 -8q26 -6 38 -6l2 -4q-33 -127 -69 -324q-8 -43 2 -43q18 0 73 53zM303 404
h-1q-43 0 -72 -21q-49 -36 -78.5 -112t-29.5 -154q0 -65 27 -65q28 0 94 70.5t92 124.5q16 51 33 143q-28 14 -65 14zM429 616l23 -12q-33 -85 -80 -85q-10 0 -19.5 2.5t-26 10.5t-22.5 10q-24 12 -42 12q-24 0 -47 -43l-23 15q33 84 80 84q19 0 58 -18q36 -17 53 -17
q20 0 46 41z" />
    <glyph glyph-name="adieresis" unicode="&#xe4;" horiz-adv-x="490" 
d="M454 116l12 -25q-38 -46 -82 -74.5t-65 -28.5q-35 0 -17 88l20 95h-3q-50 -74 -129 -138q-55 -45 -93 -45q-23 0 -40.5 28.5t-17.5 83.5q0 76 33 151t87 120q40 33 90.5 55t95.5 22h1q27 0 62 -8q26 -6 38 -6l2 -4q-33 -127 -69 -324q-8 -43 2 -43q18 0 73 53zM303 404
h-1q-43 0 -72 -21q-49 -36 -78.5 -112t-29.5 -154q0 -65 27 -65q28 0 94 70.5t92 124.5q16 51 33 143q-28 14 -65 14zM243 620h1q18 0 28 -12t10 -30q0 -23 -14.5 -39t-35.5 -16q-17 0 -28 11.5t-11 29.5q0 20 14 38t36 18zM419 620h1q18 0 28 -12t10 -30q0 -23 -14.5 -39
t-35.5 -16q-17 0 -28 11.5t-11 29.5q0 20 14 38t36 18z" />
    <glyph glyph-name="aring" unicode="&#xe5;" horiz-adv-x="490" 
d="M454 116l12 -25q-38 -46 -82 -74.5t-65 -28.5q-35 0 -17 88l20 95h-3q-50 -74 -129 -138q-55 -45 -93 -45q-23 0 -40.5 28.5t-17.5 83.5q0 76 33 151t87 120q40 33 90.5 55t95.5 22h1q27 0 62 -8q26 -6 38 -6l2 -4q-33 -127 -69 -324q-8 -43 2 -43q18 0 73 53zM303 404
h-1q-43 0 -72 -21q-49 -36 -78.5 -112t-29.5 -154q0 -65 27 -65q28 0 94 70.5t92 124.5q16 51 33 143q-28 14 -65 14zM332 664h1q34 0 57.5 -23t22.5 -62t-30 -62.5t-67 -23.5q-37 0 -59.5 22.5t-21.5 57.5q1 41 30 66t67 25zM328 631h-1q-19 0 -32 -15.5t-14 -39.5
q-1 -22 9.5 -36t29.5 -14t32.5 15.5t14.5 39.5q1 22 -9.5 36t-29.5 14z" />
    <glyph glyph-name="ae" unicode="&#xe6;" horiz-adv-x="664" 
d="M613 128l16 -22q-111 -117 -218 -117q-41 0 -72 32t-30 109q0 15 1 23l-2 1q-45 -62 -118 -120q-56 -45 -96 -45q-20 0 -38 26.5t-18 83.5q0 77 31 151.5t82 118.5q39 34 92 56.5t98 22.5q22 0 43 -6q15 -2 39 -2l4 -4l-14 -58l2 -1q32 32 76 51.5t77 19.5q39 0 62.5 -23
t23.5 -56q0 -44 -44.5 -82.5t-101.5 -61t-123 -37.5q-1 -6 -1 -36q0 -43 17 -73t56 -30q76 0 156 79zM297 404h-1q-42 0 -65 -15q-43 -28 -72 -96q-38 -83 -38 -173q0 -63 26 -63q15 0 41 17t51 44q59 65 82 113q28 79 39 159q-25 14 -63 14zM530 404h-1q-27 0 -50 -14
q-27 -16 -52.5 -58t-37.5 -111q103 26 146 58.5t44 74.5q0 25 -13.5 37.5t-35.5 12.5z" />
    <glyph glyph-name="ccedilla" unicode="&#xe7;" horiz-adv-x="381" 
d="M337 121l12 -23q-65 -72 -142 -98l-20 -26q-10 -14 -9.5 -21.5t12.5 -21.5q33 -38 32 -68t-36 -58t-89 -44l-11 25q72 32 73 63q1 16 -20 39q-17 19 -18.5 30t13.5 30l33 41v1q-58 -7 -91 31t-33 109q0 66 28 134.5t77 110.5q35 30 81 51.5t85 21.5q30 0 52 -15.5
t23 -33.5q0 -24 -29 -42q-17 -14 -29 4q-29 39 -73 39q-52 0 -86 -63q-46 -84 -46 -183q-1 -50 18 -78t53 -28q56 0 140 73z" />
    <glyph glyph-name="egrave" unicode="&#xe8;" 
d="M349 123l16 -22q-105 -113 -210 -113q-44 0 -77.5 33t-33.5 113q0 72 32 143t89 114q73 57 138 57q39 0 63 -24t24 -57q0 -35 -26.5 -65t-70.5 -51.5t-83.5 -35t-83.5 -24.5q-1 -12 -1 -32q0 -112 77 -112q66 0 147 76zM267 406h-1q-25 0 -42 -11q-73 -45 -94 -173
q186 49 186 130q0 25 -13.5 39.5t-35.5 14.5zM316 499l-29 -9q-63 120 -89 164l3 9q8 3 35 8t38 4q6 -29 23 -98.5t19 -77.5z" />
    <glyph glyph-name="eacute" unicode="&#xe9;" 
d="M349 123l16 -22q-105 -113 -210 -113q-44 0 -77.5 33t-33.5 113q0 72 32 143t89 114q73 57 138 57q39 0 63 -24t24 -57q0 -35 -26.5 -65t-70.5 -51.5t-83.5 -35t-83.5 -24.5q-1 -12 -1 -32q0 -112 77 -112q66 0 147 76zM267 406h-1q-25 0 -42 -11q-73 -45 -94 -173
q186 49 186 130q0 25 -13.5 39.5t-35.5 14.5zM414 661l-155 -170l-23 16q61 96 92 155q9 3 40.5 7t42.5 3z" />
    <glyph glyph-name="ecircumflex" unicode="&#xea;" 
d="M349 123l16 -22q-105 -113 -210 -113q-44 0 -77.5 33t-33.5 113q0 72 32 143t89 114q73 57 138 57q39 0 63 -24t24 -57q0 -35 -26.5 -65t-70.5 -51.5t-83.5 -35t-83.5 -24.5q-1 -12 -1 -32q0 -112 77 -112q66 0 147 76zM267 406h-1q-25 0 -42 -11q-73 -45 -94 -173
q186 49 186 130q0 25 -13.5 39.5t-35.5 14.5zM378 504l-23 -17q-32 37 -71 96q-59 -59 -108 -96l-20 18q83 93 130 162h22q25 -77 70 -163z" />
    <glyph glyph-name="edieresis" unicode="&#xeb;" 
d="M349 123l16 -22q-105 -113 -210 -113q-44 0 -77.5 33t-33.5 113q0 72 32 143t89 114q73 57 138 57q39 0 63 -24t24 -57q0 -35 -26.5 -65t-70.5 -51.5t-83.5 -35t-83.5 -24.5q-1 -12 -1 -32q0 -112 77 -112q66 0 147 76zM267 406h-1q-25 0 -42 -11q-73 -45 -94 -173
q186 49 186 130q0 25 -13.5 39.5t-35.5 14.5zM199 620h1q18 0 28 -12t10 -30q0 -23 -14.5 -39t-35.5 -16q-17 0 -28 11.5t-11 29.5q0 20 14 38t36 18zM375 620h1q18 0 28 -12t10 -30q0 -23 -14.5 -39t-35.5 -16q-17 0 -28 11.5t-11 29.5q0 20 14 38t36 18z" />
    <glyph glyph-name="igrave" unicode="&#xec;" horiz-adv-x="274" 
d="M224 109l13 -22q-28 -33 -74.5 -66t-71.5 -33q-37 0 -13 98l63 255q7 29 -1 32q-18 0 -69 -43l-12 23q40 39 85.5 67t66.5 28q30 0 10 -79l-69 -275q-9 -32 1 -32q17 0 71 47zM228 500l-29 -9q-63 120 -89 164l3 9q8 3 35 8t38 4q6 -29 23 -98.5t19 -77.5z" />
    <glyph glyph-name="iacute" unicode="&#xed;" horiz-adv-x="274" 
d="M224 109l13 -22q-28 -33 -74.5 -66t-71.5 -33q-37 0 -13 98l63 255q7 29 -1 32q-18 0 -69 -43l-12 23q40 39 85.5 67t66.5 28q30 0 10 -79l-69 -275q-9 -32 1 -32q17 0 71 47zM334 661l-155 -170l-23 16q61 96 92 155q9 3 40.5 7t42.5 3z" />
    <glyph glyph-name="icircumflex" unicode="&#xee;" horiz-adv-x="274" 
d="M224 109l13 -22q-28 -33 -74.5 -66t-71.5 -33q-37 0 -13 98l63 255q7 29 -1 32q-18 0 -69 -43l-12 23q40 39 85.5 67t66.5 28q30 0 10 -79l-69 -275q-9 -32 1 -32q17 0 71 47zM299 504l-23 -17q-32 37 -71 96q-59 -59 -108 -96l-20 18q83 93 130 162h22q25 -77 70 -163z
" />
    <glyph glyph-name="idieresis" unicode="&#xef;" horiz-adv-x="274" 
d="M224 109l13 -22q-28 -33 -74.5 -66t-71.5 -33q-37 0 -13 98l63 255q7 29 -1 32q-18 0 -69 -43l-12 23q40 39 85.5 67t66.5 28q30 0 10 -79l-69 -275q-9 -32 1 -32q17 0 71 47zM126 620h1q18 0 28 -12t10 -30q0 -23 -14.5 -39t-35.5 -16q-17 0 -28 11.5t-11 29.5
q0 20 14 38t36 18zM302 620h1q18 0 28 -12t10 -30q0 -23 -14.5 -39t-35.5 -16q-17 0 -28 11.5t-11 29.5q0 20 14 38t36 18z" />
    <glyph glyph-name="eth" unicode="&#xf0;" horiz-adv-x="466" 
d="M475 654l-116 -64q84 -113 84 -253q0 -84 -30 -161t-82 -123q-75 -65 -157 -65q-62 0 -93.5 45.5t-31.5 107.5q0 95 42.5 165t101.5 103q69 40 125 38q15 0 38 -7q-1 23 -17 60.5t-32 61.5l-144 -77l-15 31l138 74q-15 21 -54.5 52.5t-75.5 42.5q0 18 13 27
q37 -7 84 -33.5t80 -62.5l125 67zM212 28h1q13 0 26 6q42 16 83 97.5t40 200.5q0 43 -18 56q-24 20 -64 20q-26 0 -49 -13q-32 -15 -65.5 -77t-33.5 -161q0 -56 20 -92.5t60 -36.5z" />
    <glyph glyph-name="ntilde" unicode="&#xf1;" horiz-adv-x="532" 
d="M480 109l15 -25q-42 -45 -81 -70.5t-60 -25.5q-41 0 -15 104q13 52 52 221q17 71 -7 71q-32 0 -101.5 -70.5t-108.5 -137.5q-27 -108 -39 -168q-43 -8 -72 -19l-6 7q42 162 82 338q9 40 -2 40q-17 0 -64 -45l-14 24q40 43 79.5 69t61.5 26q34 0 8 -111l-21 -86h2
q88 119 184 174q37 23 66 23q57 0 23 -143q-4 -18 -22 -92t-27 -115q-8 -35 2 -35q19 0 65 46zM440 616l23 -12q-33 -85 -80 -85q-10 0 -19.5 2.5t-26 10.5t-22.5 10q-24 12 -42 12q-24 0 -47 -43l-23 15q33 84 80 84q19 0 58 -18q36 -17 53 -17q20 0 46 41z" />
    <glyph glyph-name="ograve" unicode="&#xf2;" horiz-adv-x="470" 
d="M306 448h1q62 0 97 -41t35 -115q0 -67 -28 -133t-79 -108q-77 -63 -154 -63q-67 0 -99.5 44.5t-32.5 110.5q0 93 43 165.5t109 106.5q59 33 108 33zM275 409h-1q-20 0 -38 -8q-37 -17 -71.5 -83t-34.5 -169q0 -56 22.5 -88.5t61.5 -32.5q17 0 33 6q42 18 75.5 91.5
t32.5 164.5q0 58 -22 88.5t-58 30.5zM336 499l-29 -9q-63 120 -89 164l3 9q8 3 35 8t38 4q6 -29 23 -98.5t19 -77.5z" />
    <glyph glyph-name="oacute" unicode="&#xf3;" horiz-adv-x="470" 
d="M306 448h1q62 0 97 -41t35 -115q0 -67 -28 -133t-79 -108q-77 -63 -154 -63q-67 0 -99.5 44.5t-32.5 110.5q0 93 43 165.5t109 106.5q59 33 108 33zM275 409h-1q-20 0 -38 -8q-37 -17 -71.5 -83t-34.5 -169q0 -56 22.5 -88.5t61.5 -32.5q17 0 33 6q42 18 75.5 91.5
t32.5 164.5q0 58 -22 88.5t-58 30.5zM423 661l-155 -170l-23 16q61 96 92 155q9 3 40.5 7t42.5 3z" />
    <glyph glyph-name="ocircumflex" unicode="&#xf4;" horiz-adv-x="470" 
d="M306 448h1q62 0 97 -41t35 -115q0 -67 -28 -133t-79 -108q-77 -63 -154 -63q-67 0 -99.5 44.5t-32.5 110.5q0 93 43 165.5t109 106.5q59 33 108 33zM275 409h-1q-20 0 -38 -8q-37 -17 -71.5 -83t-34.5 -169q0 -56 22.5 -88.5t61.5 -32.5q17 0 33 6q42 18 75.5 91.5
t32.5 164.5q0 58 -22 88.5t-58 30.5zM406 504l-23 -17q-32 37 -71 96q-59 -59 -108 -96l-20 18q83 93 130 162h22q25 -77 70 -163z" />
    <glyph glyph-name="otilde" unicode="&#xf5;" horiz-adv-x="470" 
d="M306 448h1q62 0 97 -41t35 -115q0 -67 -28 -133t-79 -108q-77 -63 -154 -63q-67 0 -99.5 44.5t-32.5 110.5q0 93 43 165.5t109 106.5q59 33 108 33zM275 409h-1q-20 0 -38 -8q-37 -17 -71.5 -83t-34.5 -169q0 -56 22.5 -88.5t61.5 -32.5q17 0 33 6q42 18 75.5 91.5
t32.5 164.5q0 58 -22 88.5t-58 30.5zM413 616l23 -12q-33 -85 -80 -85q-10 0 -19.5 2.5t-26 10.5t-22.5 10q-24 12 -42 12q-24 0 -47 -43l-23 15q33 84 80 84q19 0 58 -18q36 -17 53 -17q20 0 46 41z" />
    <glyph glyph-name="odieresis" unicode="&#xf6;" horiz-adv-x="470" 
d="M306 448h1q62 0 97 -41t35 -115q0 -67 -28 -133t-79 -108q-77 -63 -154 -63q-67 0 -99.5 44.5t-32.5 110.5q0 93 43 165.5t109 106.5q59 33 108 33zM275 409h-1q-20 0 -38 -8q-37 -17 -71.5 -83t-34.5 -169q0 -56 22.5 -88.5t61.5 -32.5q17 0 33 6q42 18 75.5 91.5
t32.5 164.5q0 58 -22 88.5t-58 30.5zM227 620h1q18 0 28 -12t10 -30q0 -23 -14.5 -39t-35.5 -16q-17 0 -28 11.5t-11 29.5q0 20 14 38t36 18zM403 620h1q18 0 28 -12t10 -30q0 -23 -14.5 -39t-35.5 -16q-17 0 -28 11.5t-11 29.5q0 20 14 38t36 18z" />
    <glyph glyph-name="divide" unicode="&#xf7;" horiz-adv-x="596" 
d="M310 355h-1q-18 0 -33 14.5t-15 33.5q0 20 15 34.5t34 14.5q21 0 35.5 -14.5t14.5 -34.5t-14.5 -34t-35.5 -14zM551 230h-485v50h485v-50zM309 155h1q18 0 33 -14t15 -34q0 -19 -15.5 -34t-33.5 -15q-21 0 -35.5 14.5t-14.5 34.5t14.5 34t35.5 14z" />
    <glyph glyph-name="oslash" unicode="&#xf8;" horiz-adv-x="472" 
d="M417 483l25 -20l-38 -52q37 -40 37 -120q0 -64 -28.5 -130.5t-78.5 -108.5q-31 -27 -75 -45.5t-84 -18.5q-43 0 -68 18l-38 -52l-23 21l37 50q-37 41 -37 117q0 94 41.5 164.5t104.5 105.5q66 36 117 36q44 0 70 -18zM133 93l208 281q-20 35 -65 35q-20 0 -38 -8
q-38 -15 -75.5 -80.5t-38.5 -167.5q0 -26 9 -60zM356 342l-208 -280q21 -35 60 -35q18 0 37 7q44 17 81.5 90.5t36.5 165.5q0 31 -7 52z" />
    <glyph glyph-name="ugrave" unicode="&#xf9;" horiz-adv-x="533" 
d="M492 113l13 -23q-35 -42 -78.5 -72t-66.5 -30q-39 0 -15 106q7 30 19 88h-2q-78 -105 -161 -163q-43 -31 -81 -31q-63 0 -34 127q15 58 55 229q8 31 -2 33q-13 0 -70 -47l-12 24q43 42 85 68t63 26q17 0 19.5 -18.5t-8.5 -68.5q-24 -104 -56 -240q-15 -65 12 -65
q38 0 105 71.5t102 134.5q20 83 36 160l69 26h11q-49 -194 -79 -348q-6 -39 4 -39q7 0 29.5 16t42.5 36zM362 499l-29 -9q-63 120 -89 164l3 9q8 3 35 8t38 4q6 -29 23 -98.5t19 -77.5z" />
    <glyph glyph-name="uacute" unicode="&#xfa;" horiz-adv-x="533" 
d="M492 113l13 -23q-35 -42 -78.5 -72t-66.5 -30q-39 0 -15 106q7 30 19 88h-2q-78 -105 -161 -163q-43 -31 -81 -31q-63 0 -34 127q15 58 55 229q8 31 -2 33q-13 0 -70 -47l-12 24q43 42 85 68t63 26q17 0 19.5 -18.5t-8.5 -68.5q-24 -104 -56 -240q-15 -65 12 -65
q38 0 105 71.5t102 134.5q20 83 36 160l69 26h11q-49 -194 -79 -348q-6 -39 4 -39q7 0 29.5 16t42.5 36zM466 661l-155 -170l-23 16q61 96 92 155q9 3 40.5 7t42.5 3z" />
    <glyph glyph-name="ucircumflex" unicode="&#xfb;" horiz-adv-x="533" 
d="M492 113l13 -23q-35 -42 -78.5 -72t-66.5 -30q-39 0 -15 106q7 30 19 88h-2q-78 -105 -161 -163q-43 -31 -81 -31q-63 0 -34 127q15 58 55 229q8 31 -2 33q-13 0 -70 -47l-12 24q43 42 85 68t63 26q17 0 19.5 -18.5t-8.5 -68.5q-24 -104 -56 -240q-15 -65 12 -65
q38 0 105 71.5t102 134.5q20 83 36 160l69 26h11q-49 -194 -79 -348q-6 -39 4 -39q7 0 29.5 16t42.5 36zM437 504l-23 -17q-32 37 -71 96q-59 -59 -108 -96l-20 18q83 93 130 162h22q25 -77 70 -163z" />
    <glyph glyph-name="udieresis" unicode="&#xfc;" horiz-adv-x="533" 
d="M492 113l13 -23q-35 -42 -78.5 -72t-66.5 -30q-39 0 -15 106q7 30 19 88h-2q-78 -105 -161 -163q-43 -31 -81 -31q-63 0 -34 127q15 58 55 229q8 31 -2 33q-13 0 -70 -47l-12 24q43 42 85 68t63 26q17 0 19.5 -18.5t-8.5 -68.5q-24 -104 -56 -240q-15 -65 12 -65
q38 0 105 71.5t102 134.5q20 83 36 160l69 26h11q-49 -194 -79 -348q-6 -39 4 -39q7 0 29.5 16t42.5 36zM258 620h1q18 0 28 -12t10 -30q0 -23 -14.5 -39t-35.5 -16q-17 0 -28 11.5t-11 29.5q0 20 14 38t36 18zM434 620h1q18 0 28 -12t10 -30q0 -23 -14.5 -39t-35.5 -16
q-17 0 -28 11.5t-11 29.5q0 20 14 38t36 18z" />
    <glyph glyph-name="yacute" unicode="&#xfd;" horiz-adv-x="442" 
d="M239 75h2q135 204 135 274q-1 21 -12 47q-5 12 2 24q5 12 17 20t25 8q17 0 28 -15t12 -40q0 -43 -36 -106q-73 -132 -181 -282q-102 -149 -180 -235l-104 -27l-8 22q136 89 235 224q-2 135 -31 325q-7 62 -21 62q-6 0 -23 -16.5t-35 -41.5l-17 23q28 43 60.5 75t57.5 32
q39 0 52 -118q12 -96 22 -255zM432 661l-155 -170l-23 16q61 96 92 155q9 3 40.5 7t42.5 3z" />
    <glyph glyph-name="thorn" unicode="&#xfe;" horiz-adv-x="494" 
d="M178 298h2q63 76 121.5 113t96.5 37q30 0 50.5 -30t20.5 -84q0 -86 -41.5 -166.5t-106.5 -126.5q-38 -26 -79.5 -39.5t-57.5 -13.5q-38 0 -66 18q-5 -26 -14 -75t-13 -67q-9 -46 0 -59.5t50 -17.5l24 -2l-3 -26l-235 -12l3 27q47 9 61 23t26 67q54 255 148 721
q8 47 0.5 57t-48.5 10h-23l3 26q34 4 69 12.5t57.5 15.5t27.5 7q15 2 9 -27zM352 390h-1q-29 0 -82 -42t-100 -113q-20 -89 -36 -169q9 -12 31 -23t47 -11q38 0 67 19q36 25 72 102t36 164q0 73 -34 73z" />
    <glyph glyph-name="ydieresis" unicode="&#xff;" horiz-adv-x="442" 
d="M239 75h2q135 204 135 274q-1 21 -12 47q-5 12 2 24q5 12 17 20t25 8q17 0 28 -15t12 -40q0 -43 -36 -106q-73 -132 -181 -282q-102 -149 -180 -235l-104 -27l-8 22q136 89 235 224q-2 135 -31 325q-7 62 -21 62q-6 0 -23 -16.5t-35 -41.5l-17 23q28 43 60.5 75t57.5 32
q39 0 52 -118q12 -96 22 -255zM216 620h1q18 0 28 -12t10 -30q0 -23 -14.5 -39t-35.5 -16q-17 0 -28 11.5t-11 29.5q0 20 14 38t36 18zM392 620h1q18 0 28 -12t10 -30q0 -23 -14.5 -39t-35.5 -16q-17 0 -28 11.5t-11 29.5q0 20 14 38t36 18z" />
    <glyph glyph-name="Amacron" unicode="&#x100;" horiz-adv-x="664" 
d="M621 27l-7 -27h-236l7 27q50 5 61 16t6 45q-2 18 -25 148h-209q-40 -75 -69 -136q-21 -45 -12.5 -56.5t66.5 -16.5l-6 -27h-215l7 27q48 6 66 20.5t53 75.5l300 533l31 8l28 -178q26 -167 64 -372q9 -54 23 -68t67 -19zM421 278l-40 258h-2q-101 -185 -139 -258h181z
M552 762l-13 -51h-227l14 51h226z" />
    <glyph glyph-name="amacron" unicode="&#x101;" horiz-adv-x="490" 
d="M454 116l12 -25q-38 -46 -82 -74.5t-65 -28.5q-35 0 -17 88l20 95h-3q-50 -74 -129 -138q-55 -45 -93 -45q-23 0 -40.5 28.5t-17.5 83.5q0 76 33 151t87 120q40 33 90.5 55t95.5 22h1q27 0 62 -8q26 -6 38 -6l2 -4q-33 -127 -69 -324q-8 -43 2 -43q18 0 73 53zM303 404
h-1q-43 0 -72 -21q-49 -36 -78.5 -112t-29.5 -154q0 -65 27 -65q28 0 94 70.5t92 124.5q16 51 33 143q-28 14 -65 14zM441 585l-12 -51h-224l13 51h223z" />
    <glyph glyph-name="Abreve" unicode="&#x102;" horiz-adv-x="664" 
d="M621 27l-7 -27h-236l7 27q50 5 61 16t6 45q-2 18 -25 148h-209q-40 -75 -69 -136q-21 -45 -12.5 -56.5t66.5 -16.5l-6 -27h-215l7 27q48 6 66 20.5t53 75.5l300 533l31 8l28 -178q26 -167 64 -372q9 -54 23 -68t67 -19zM421 278l-40 258h-2q-101 -185 -139 -258h181z
M528 808h30q-9 -56 -44.5 -86t-89.5 -30q-51 0 -78.5 30.5t-22.5 85.5h30q10 -59 79 -59q67 0 96 59z" />
    <glyph glyph-name="abreve" unicode="&#x103;" horiz-adv-x="490" 
d="M454 116l12 -25q-38 -46 -82 -74.5t-65 -28.5q-35 0 -17 88l20 95h-3q-50 -74 -129 -138q-55 -45 -93 -45q-23 0 -40.5 28.5t-17.5 83.5q0 76 33 151t87 120q40 33 90.5 55t95.5 22h1q27 0 62 -8q26 -6 38 -6l2 -4q-33 -127 -69 -324q-8 -43 2 -43q18 0 73 53zM303 404
h-1q-43 0 -72 -21q-49 -36 -78.5 -112t-29.5 -154q0 -65 27 -65q28 0 94 70.5t92 124.5q16 51 33 143q-28 14 -65 14zM421 636h25q-11 -70 -47 -100.5t-85 -30.5t-75 30.5t-14 100.5h25q1 -36 20 -55t52 -19q71 0 99 74z" />
    <glyph glyph-name="Aogonek" unicode="&#x104;" horiz-adv-x="664" 
d="M621 27l-7 -27h-148q-43 -35 -67.5 -76t-24.5 -73q0 -16 10 -25.5t28 -9.5q22 0 53 14l7 -27l-57 -33q-19 -11 -43 -11q-29 0 -48.5 18.5t-19.5 49.5q0 35 24.5 74.5t49 64.5t66.5 61q14 12 11 31q-2 15 -27 178h-210q-55 -107 -69 -136q-21 -45 -12 -56.5t67 -16.5
l-7 -27h-216l8 27q47 6 65 20.5t53 75.5l301 533l31 8l28 -178q26 -167 64 -372q9 -54 23 -68t67 -19zM240 278h181l-40 258h-2q-18 -33 -46.5 -85t-51 -94t-41.5 -79z" />
    <glyph glyph-name="aogonek" unicode="&#x105;" horiz-adv-x="490" 
d="M319 171h-3q-55 -80 -128 -139q-54 -44 -91 -44q-23 0 -40.5 28.5t-17.5 83.5q0 76 32.5 150.5t86.5 120.5q94 77 184 77h1q27 0 62 -8q26 -6 38 -6l3 -4q-37 -139 -70 -324q-7 -42 2 -42q7 0 29.5 15.5t43.5 36.5l12 -24q-36 -44 -72 -69t-61 -32q-37 -28 -66 -70.5
t-29 -70.5q0 -15 10 -24.5t26 -9.5q21 0 47 12l8 -27l-53 -29q-22 -10 -39 -10q-28 0 -47.5 17t-19.5 47q0 72 132 176q-11 19 0 74zM301 404h-1q-44 0 -71 -21q-49 -36 -78 -111.5t-29 -152.5q0 -64 26 -64q29 0 93.5 70t90.5 124q17 55 33 141q-28 14 -64 14z" />
    <glyph glyph-name="Cacute" unicode="&#x106;" horiz-adv-x="635" 
d="M582 174l26 -14q-37 -89 -79 -151q-106 -24 -172 -24q-129 0 -210 76t-81 212q0 175 119 283t295 108q91 0 172 -32q-1 -16 -3.5 -70.5t-4.5 -82.5l-30 -3q-4 86 -41.5 120t-115.5 34q-128 0 -211 -105.5t-83 -248.5q0 -112 53.5 -184.5t150.5 -72.5q69 0 117.5 39.5
t97.5 115.5zM585 770l-2 -8l-187 -63l-13 25q41 25 161 101q9 -2 24 -22.5t17 -32.5z" />
    <glyph glyph-name="cacute" unicode="&#x107;" horiz-adv-x="382" 
d="M336 121l15 -22q-44 -52 -99 -81.5t-101 -29.5q-49 0 -78 38t-29 108q0 64 28 130.5t76 109.5q32 29 78 51.5t81 22.5q31 0 53 -15.5t23 -34.5q2 -28 -32 -46q-13 -7 -22 6q-31 43 -76 43q-46 0 -83 -66q-43 -81 -43 -180q0 -52 18.5 -80t51.5 -28q34 0 73.5 23.5
t65.5 50.5zM415 661l-155 -170l-23 16q61 96 92 155q9 3 40.5 7t42.5 3z" />
    <glyph glyph-name="Ccircumflex" unicode="&#x108;" horiz-adv-x="635" 
d="M582 174l26 -14q-37 -89 -79 -151q-106 -24 -172 -24q-129 0 -210 76t-81 212q0 175 119 283t295 108q91 0 172 -32q-1 -16 -3.5 -70.5t-4.5 -82.5l-30 -3q-4 86 -41.5 120t-115.5 34q-128 0 -211 -105.5t-83 -248.5q0 -112 53.5 -184.5t150.5 -72.5q69 0 117.5 39.5
t97.5 115.5zM585 719l-18 -22q-47 19 -107 58q-77 -41 -126 -58l-13 22q71 45 136 104h25q41 -51 103 -104z" />
    <glyph glyph-name="ccircumflex" unicode="&#x109;" horiz-adv-x="382" 
d="M336 121l15 -22q-44 -52 -99 -81.5t-101 -29.5q-49 0 -78 38t-29 108q0 64 28 130.5t76 109.5q32 29 78 51.5t81 22.5q31 0 53 -15.5t23 -34.5q2 -28 -32 -46q-13 -7 -22 6q-31 43 -76 43q-46 0 -83 -66q-43 -81 -43 -180q0 -52 18.5 -80t51.5 -28q34 0 73.5 23.5
t65.5 50.5zM391 504l-23 -17q-32 37 -71 96q-59 -59 -108 -96l-20 18q83 93 130 162h22q25 -77 70 -163z" />
    <glyph glyph-name="Cdotaccent" unicode="&#x10a;" horiz-adv-x="635" 
d="M582 174l26 -14q-37 -89 -79 -151q-106 -24 -172 -24q-129 0 -210 76t-81 212q0 175 119 283t295 108q91 0 172 -32q-1 -16 -3.5 -70.5t-4.5 -82.5l-30 -3q-4 86 -41.5 120t-115.5 34q-128 0 -211 -105.5t-83 -248.5q0 -112 53.5 -184.5t150.5 -72.5q69 0 117.5 39.5
t97.5 115.5zM463 812h1q19 0 29.5 -13t10.5 -32q0 -24 -15 -41t-37 -17q-18 0 -30 12.5t-12 31.5q0 22 14.5 40.5t38.5 18.5z" />
    <glyph glyph-name="cdotaccent" unicode="&#x10b;" horiz-adv-x="382" 
d="M336 121l15 -22q-44 -52 -99 -81.5t-101 -29.5q-49 0 -78 38t-29 108q0 64 28 130.5t76 109.5q32 29 78 51.5t81 22.5q31 0 53 -15.5t23 -34.5q2 -28 -32 -46q-13 -7 -22 6q-31 43 -76 43q-46 0 -83 -66q-43 -81 -43 -180q0 -52 18.5 -80t51.5 -28q34 0 73.5 23.5
t65.5 50.5zM294 625h1q19 0 29.5 -13t10.5 -32q0 -24 -15 -41t-37 -17q-18 0 -30 12.5t-12 31.5q0 21 14.5 40t38.5 19z" />
    <glyph glyph-name="Ccaron" unicode="&#x10c;" horiz-adv-x="635" 
d="M582 174l26 -14q-37 -89 -79 -151q-106 -24 -172 -24q-129 0 -210 76t-81 212q0 175 119 283t295 108q91 0 172 -32q-1 -16 -3.5 -70.5t-4.5 -82.5l-30 -3q-4 86 -41.5 120t-115.5 34q-128 0 -211 -105.5t-83 -248.5q0 -112 53.5 -184.5t150.5 -72.5q69 0 117.5 39.5
t97.5 115.5zM587 829l14 -22q-81 -54 -136 -104h-25q-41 51 -103 104l19 22q50 -22 106 -58q73 39 125 58z" />
    <glyph glyph-name="ccaron" unicode="&#x10d;" horiz-adv-x="382" 
d="M336 121l15 -22q-44 -52 -99 -81.5t-101 -29.5q-49 0 -78 38t-29 108q0 64 28 130.5t76 109.5q32 29 78 51.5t81 22.5q31 0 53 -15.5t23 -34.5q2 -28 -32 -46q-13 -7 -22 6q-31 43 -76 43q-46 0 -83 -66q-43 -81 -43 -180q0 -52 18.5 -80t51.5 -28q34 0 73.5 23.5
t65.5 50.5zM393 668l22 -18q-76 -84 -130 -161h-22q-24 73 -71 162l25 17q39 -47 69 -96q62 62 107 96z" />
    <glyph glyph-name="Dcaron" unicode="&#x10e;" horiz-adv-x="708" 
d="M129 649h250q150 0 234 -66.5t84 -204.5q0 -94 -43.5 -173.5t-121.5 -129.5q-117 -75 -307 -75h-216l7 27q57 6 72 20.5t26 72.5l79 408q10 59 0 72.5t-70 21.5zM280 556l-81 -427q-7 -37 -5 -54.5t16 -24.5q24 -14 72 -14q99 0 172.5 48t110 126t36.5 173
q0 113 -61.5 173t-172.5 60q-49 0 -65 -11q-14 -7 -22 -49zM546 814l14 -22q-81 -54 -136 -104h-25q-41 51 -103 104l19 22q50 -22 106 -58q73 39 125 58z" />
    <glyph glyph-name="dcaron" unicode="&#x10f;" horiz-adv-x="508" 
d="M470 112l14 -23q-38 -45 -80.5 -73t-66.5 -28q-37 0 -18 93l18 85l-2 -1q-52 -69 -132 -131q-57 -46 -97 -46q-27 0 -46 31.5t-19 88.5q0 71 31 144t85 119q35 31 88.5 54t88.5 23q33 0 60 -11l32 165q7 34 1 42t-38 8h-32l2 25q37 4 72 13t55.5 15.5t25.5 6.5
q13 0 7 -28q-78 -332 -124 -589q-6 -32 4 -32q22 0 71 49zM301 405h-1q-42 0 -69 -21q-47 -34 -77 -111.5t-30 -145.5q0 -74 31 -74q35 0 100.5 66t93.5 118l32 142q-11 11 -34.5 18.5t-45.5 7.5zM607 709h1q20 0 34 -17.5t14 -46.5q0 -43 -29 -71t-71 -40l-10 26
q55 26 55 58q0 23 -24 34q-9 5 -9 20q0 14 11.5 25.5t27.5 11.5z" />
    <glyph glyph-name="Dcroat" unicode="&#x110;" horiz-adv-x="719" 
d="M138 649h249q149 0 234 -65.5t85 -202.5q0 -94 -44 -174.5t-122 -131.5q-119 -75 -308 -75h-215l8 27q58 6 72.5 19t26.5 72l39 203h-110l9 37h108l33 167q6 35 7.5 51t-8 26.5t-22.5 13t-48 6.5zM244 321l-34 -185q-8 -43 -5.5 -60.5t17.5 -26.5q23 -13 68 -13
q82 0 145.5 31t100.5 82.5t56 112t19 126.5q0 101 -53 164.5t-173 63.5q-53 0 -71 -9q-17 -9 -22 -39l-40 -210h155l-8 -37h-155z" />
    <glyph glyph-name="dcroat" unicode="&#x111;" horiz-adv-x="509" 
d="M570 570l-9 -36h-75q-57 -258 -89 -439q-6 -33 5 -33q8 0 29.5 15t41.5 35l13 -22q-37 -45 -80 -73.5t-66 -28.5q-38 0 -20 87l19 92l-2 -1q-54 -72 -132 -132q-59 -46 -101 -46q-27 0 -46 31.5t-19 88.5q0 71 31 144t85 119q35 30 90 53.5t91 23.5q32 0 59 -11l20 97
h-132l10 36h129l7 35q6 31 -1 39.5t-40 8.5h-29l1 25q37 4 72 12.5t55.5 15t25.5 6.5q13 0 7 -27q-18 -78 -26 -115h76zM302 405h-1q-41 0 -73 -21q-48 -34 -77 -111.5t-29 -145.5q0 -74 31 -74q38 0 104 67.5t95 120.5l30 138q-26 26 -80 26z" />
    <glyph glyph-name="Emacron" unicode="&#x112;" horiz-adv-x="559" 
d="M129 649h434q-4 -25 -19 -154l-29 -2q0 65 -13 89q-8 19 -26.5 26t-70.5 7h-78q-25 0 -31.5 -6.5t-11.5 -34.5l-43 -216h97q61 0 78.5 11t35.5 61h29l-38 -189h-29q2 55 -10 66.5t-75 11.5h-95l-33 -176q-15 -80 4 -95q17 -14 101 -14q56 0 83.5 7t48.5 27q27 26 68 96
l28 -10q-45 -116 -64 -154h-468l6 27q62 5 78 19t27 73l80 410q11 60 0.5 74t-72.5 19zM499 767l-13 -51h-227l14 51h226z" />
    <glyph glyph-name="emacron" unicode="&#x113;" 
d="M349 123l16 -22q-105 -113 -210 -113q-44 0 -77.5 33t-33.5 113q0 72 32 143t89 114q73 57 138 57q39 0 63 -24t24 -57q0 -35 -26.5 -65t-70.5 -51.5t-83.5 -35t-83.5 -24.5q-1 -12 -1 -32q0 -112 77 -112q66 0 147 76zM267 406h-1q-25 0 -42 -11q-73 -45 -94 -173
q186 49 186 130q0 25 -13.5 39.5t-35.5 14.5zM396 585l-12 -51h-224l13 51h223z" />
    <glyph glyph-name="Ebreve" unicode="&#x114;" horiz-adv-x="559" 
d="M129 649h434q-4 -25 -19 -154l-29 -2q0 65 -13 89q-8 19 -26.5 26t-70.5 7h-78q-25 0 -31.5 -6.5t-11.5 -34.5l-43 -216h97q61 0 78.5 11t35.5 61h29l-38 -189h-29q2 55 -10 66.5t-75 11.5h-95l-33 -176q-15 -80 4 -95q17 -14 101 -14q56 0 83.5 7t48.5 27q27 26 68 96
l28 -10q-45 -116 -64 -154h-468l6 27q62 5 78 19t27 73l80 410q11 60 0.5 74t-72.5 19zM483 810h30q-9 -56 -44.5 -86t-89.5 -30q-51 0 -78.5 30.5t-22.5 85.5h30q10 -59 79 -59q67 0 96 59z" />
    <glyph glyph-name="ebreve" unicode="&#x115;" 
d="M349 123l16 -22q-105 -113 -210 -113q-44 0 -77.5 33t-33.5 113q0 72 32 143t89 114q73 57 138 57q39 0 63 -24t24 -57q0 -35 -26.5 -65t-70.5 -51.5t-83.5 -35t-83.5 -24.5q-1 -12 -1 -32q0 -112 77 -112q66 0 147 76zM267 406h-1q-25 0 -42 -11q-73 -45 -94 -173
q186 49 186 130q0 25 -13.5 39.5t-35.5 14.5zM380 636h25q-11 -70 -47 -100.5t-85 -30.5t-75 30.5t-14 100.5h25q1 -36 20 -55t52 -19q71 0 99 74z" />
    <glyph glyph-name="Edotaccent" unicode="&#x116;" horiz-adv-x="559" 
d="M129 649h434q-4 -25 -19 -154l-29 -2q0 65 -13 89q-8 19 -26.5 26t-70.5 7h-78q-25 0 -31.5 -6.5t-11.5 -34.5l-43 -216h97q61 0 78.5 11t35.5 61h29l-38 -189h-29q2 55 -10 66.5t-75 11.5h-95l-33 -176q-15 -80 4 -95q17 -14 101 -14q56 0 83.5 7t48.5 27q27 26 68 96
l28 -10q-45 -116 -64 -154h-468l6 27q62 5 78 19t27 73l80 410q11 60 0.5 74t-72.5 19zM389 802h1q19 0 29.5 -13t10.5 -32q0 -24 -15 -41t-37 -17q-18 0 -30 12.5t-12 31.5q0 22 14.5 40.5t38.5 18.5z" />
    <glyph glyph-name="edotaccent" unicode="&#x117;" 
d="M349 123l16 -22q-105 -113 -210 -113q-44 0 -77.5 33t-33.5 113q0 72 32 143t89 114q73 57 138 57q39 0 63 -24t24 -57q0 -35 -26.5 -65t-70.5 -51.5t-83.5 -35t-83.5 -24.5q-1 -12 -1 -32q0 -112 77 -112q66 0 147 76zM267 406h-1q-25 0 -42 -11q-73 -45 -94 -173
q186 49 186 130q0 25 -13.5 39.5t-35.5 14.5zM300 625h1q19 0 29.5 -13t10.5 -32q0 -24 -15 -41t-37 -17q-18 0 -30 12.5t-12 31.5q0 21 14.5 40t38.5 19z" />
    <glyph glyph-name="Eogonek" unicode="&#x118;" horiz-adv-x="559" 
d="M129 649h434q-4 -25 -19 -154l-29 -2q0 63 -13 89q-9 19 -28 26t-71 7h-76q-25 0 -31.5 -6.5t-11.5 -34.5l-42 -216h96q61 0 78.5 11t35.5 61h29l-38 -189h-29q2 55 -9.5 66.5t-74.5 11.5h-95l-33 -175q-15 -81 4 -96q18 -14 101 -14q55 0 82.5 7.5t48.5 27.5
q29 27 68 95l28 -10q-45 -116 -64 -154h-46q-49 -34 -82 -77.5t-33 -73.5q0 -16 10.5 -25.5t27.5 -9.5q21 0 47 12l8 -27l-54 -30q-17 -10 -39 -10q-30 0 -50.5 17t-20.5 49q0 42 40.5 88.5t99.5 86.5h-375l7 27q61 5 77 19t27 73l80 410q11 60 0.5 74t-72.5 19z" />
    <glyph glyph-name="eogonek" unicode="&#x119;" 
d="M347 124l16 -23q-53 -58 -107 -85q-114 -90 -114 -164q0 -15 10.5 -24.5t26.5 -9.5q19 0 47 12l8 -27l-52 -29q-21 -12 -41 -12q-29 0 -48.5 16.5t-19.5 46.5q0 77 114 165v1q-71 -10 -107 28t-36 115q0 72 31.5 143t88.5 115q75 56 140 56q38 0 62 -24t24 -57
q0 -35 -26.5 -65.5t-71.5 -52.5t-84 -35.5t-83 -24.5q-1 -12 -1 -31q0 -47 18 -79t60 -32q66 0 145 77zM267 406h-1q-23 0 -42 -12q-75 -42 -95 -172q186 49 186 130q0 25 -13.5 39.5t-34.5 14.5z" />
    <glyph glyph-name="Ecaron" unicode="&#x11a;" horiz-adv-x="559" 
d="M129 649h434q-4 -25 -19 -154l-29 -2q0 65 -13 89q-8 19 -26.5 26t-70.5 7h-78q-25 0 -31.5 -6.5t-11.5 -34.5l-43 -216h97q61 0 78.5 11t35.5 61h29l-38 -189h-29q2 55 -10 66.5t-75 11.5h-95l-33 -176q-15 -80 4 -95q17 -14 101 -14q56 0 83.5 7t48.5 27q27 26 68 96
l28 -10q-45 -116 -64 -154h-468l6 27q62 5 78 19t27 73l80 410q11 60 0.5 74t-72.5 19zM512 813l14 -22q-81 -54 -136 -104h-25q-41 51 -103 104l19 22q50 -22 106 -58q73 39 125 58z" />
    <glyph glyph-name="ecaron" unicode="&#x11b;" 
d="M349 123l16 -22q-105 -113 -210 -113q-44 0 -77.5 33t-33.5 113q0 72 32 143t89 114q73 57 138 57q39 0 63 -24t24 -57q0 -35 -26.5 -65t-70.5 -51.5t-83.5 -35t-83.5 -24.5q-1 -12 -1 -32q0 -112 77 -112q66 0 147 76zM267 406h-1q-25 0 -42 -11q-73 -45 -94 -173
q186 49 186 130q0 25 -13.5 39.5t-35.5 14.5zM395 671l22 -18q-76 -84 -130 -161h-22q-24 73 -71 162l25 17q39 -47 69 -96q62 62 107 96z" />
    <glyph glyph-name="Gcircumflex" unicode="&#x11c;" horiz-adv-x="681" 
d="M654 477l-29 -2q1 82 -39.5 118.5t-120.5 36.5q-134 0 -217.5 -103.5t-83.5 -247.5q0 -116 57 -188t160 -72q101 0 114 71l20 93q11 56 -1.5 68t-87.5 19l6 27h244l-6 -26q-42 -7 -52.5 -19.5t-21.5 -68.5l-16 -83q-9 -47 -5 -79q-12 -3 -47 -11.5t-54.5 -12.5t-51 -8
t-59.5 -4q-133 0 -214.5 76t-81.5 210q0 172 118.5 282.5t304.5 110.5q83 0 176 -31q-7 -70 -12 -156zM593 717l-18 -22q-47 19 -107 58q-77 -41 -126 -58l-13 22q71 45 136 104h25q41 -51 103 -104z" />
    <glyph glyph-name="gcircumflex" unicode="&#x11d;" horiz-adv-x="420" 
d="M469 443l7 -19q-38 -41 -71 -45q-19 -2 -26 -3q8 -26 8 -55q0 -92 -76 -153q-52 -44 -129 -59q-18 -15 -20 -32q0 -20 72 -58q71 -37 103 -68.5t32 -64.5q0 -39 -39.5 -73t-93.5 -52t-103 -18q-73 0 -126.5 33t-52.5 79q3 60 168 144q-39 26 -37 49q0 26 62 62
q-88 20 -88 121q0 48 22.5 92.5t61.5 74.5q62 50 128 50q52 0 85 -27q72 1 113 22zM247 413h-1q-42 0 -72 -44q-38 -54 -38 -130q0 -43 18 -66.5t46 -23.5q43 0 78 46t35 122q0 43 -17.5 69.5t-48.5 26.5zM172 -215h1q55 0 89 22t34 52q0 37 -73 80q-64 37 -75 42
q-51 -25 -80.5 -53.5t-29.5 -55.5q0 -37 40.5 -62t93.5 -25zM367 504l-23 -17q-32 37 -71 96q-59 -59 -108 -96l-20 18q83 93 130 162h22q25 -77 70 -163z" />
    <glyph glyph-name="Gbreve" unicode="&#x11e;" horiz-adv-x="681" 
d="M654 477l-29 -2q1 82 -39.5 118.5t-120.5 36.5q-134 0 -217.5 -103.5t-83.5 -247.5q0 -116 57 -188t160 -72q101 0 114 71l20 93q11 56 -1.5 68t-87.5 19l6 27h244l-6 -26q-42 -7 -52.5 -19.5t-21.5 -68.5l-16 -83q-9 -47 -5 -79q-12 -3 -47 -11.5t-54.5 -12.5t-51 -8
t-59.5 -4q-133 0 -214.5 76t-81.5 210q0 172 118.5 282.5t304.5 110.5q83 0 176 -31q-7 -70 -12 -156zM573 821h30q-9 -56 -44.5 -86t-89.5 -30q-51 0 -78.5 30.5t-22.5 85.5h30q10 -59 79 -59q67 0 96 59z" />
    <glyph glyph-name="gbreve" unicode="&#x11f;" horiz-adv-x="420" 
d="M469 443l7 -19q-38 -41 -71 -45q-19 -2 -26 -3q8 -26 8 -55q0 -92 -76 -153q-52 -44 -129 -59q-18 -15 -20 -32q0 -20 72 -58q71 -37 103 -68.5t32 -64.5q0 -39 -39.5 -73t-93.5 -52t-103 -18q-73 0 -126.5 33t-52.5 79q3 60 168 144q-39 26 -37 49q0 26 62 62
q-88 20 -88 121q0 48 22.5 92.5t61.5 74.5q62 50 128 50q52 0 85 -27q72 1 113 22zM247 413h-1q-42 0 -72 -44q-38 -54 -38 -130q0 -43 18 -66.5t46 -23.5q43 0 78 46t35 122q0 43 -17.5 69.5t-48.5 26.5zM172 -215h1q55 0 89 22t34 52q0 37 -73 80q-64 37 -75 42
q-51 -25 -80.5 -53.5t-29.5 -55.5q0 -37 40.5 -62t93.5 -25zM368 636h25q-11 -70 -47 -100.5t-85 -30.5t-75 30.5t-14 100.5h25q1 -36 20 -55t52 -19q71 0 99 74z" />
    <glyph glyph-name="Gdotaccent" unicode="&#x120;" horiz-adv-x="681" 
d="M654 477l-29 -2q1 82 -39.5 118.5t-120.5 36.5q-134 0 -217.5 -103.5t-83.5 -247.5q0 -116 57 -188t160 -72q101 0 114 71l20 93q11 56 -1.5 68t-87.5 19l6 27h244l-6 -26q-42 -7 -52.5 -19.5t-21.5 -68.5l-16 -83q-9 -47 -5 -79q-12 -3 -47 -11.5t-54.5 -12.5t-51 -8
t-59.5 -4q-133 0 -214.5 76t-81.5 210q0 172 118.5 282.5t304.5 110.5q83 0 176 -31q-7 -70 -12 -156zM474 809h1q19 0 29.5 -13t10.5 -32q0 -24 -15 -41t-37 -17q-18 0 -30 12.5t-12 31.5q0 22 14.5 40.5t38.5 18.5z" />
    <glyph glyph-name="gdotaccent" unicode="&#x121;" horiz-adv-x="420" 
d="M469 443l7 -19q-38 -41 -71 -45q-19 -2 -26 -3q8 -26 8 -55q0 -92 -76 -153q-52 -44 -129 -59q-18 -15 -20 -32q0 -20 72 -58q71 -37 103 -68.5t32 -64.5q0 -39 -39.5 -73t-93.5 -52t-103 -18q-73 0 -126.5 33t-52.5 79q3 60 168 144q-39 26 -37 49q0 26 62 62
q-88 20 -88 121q0 48 22.5 92.5t61.5 74.5q62 50 128 50q52 0 85 -27q72 1 113 22zM247 413h-1q-42 0 -72 -44q-38 -54 -38 -130q0 -43 18 -66.5t46 -23.5q43 0 78 46t35 122q0 43 -17.5 69.5t-48.5 26.5zM172 -215h1q55 0 89 22t34 52q0 37 -73 80q-64 37 -75 42
q-51 -25 -80.5 -53.5t-29.5 -55.5q0 -37 40.5 -62t93.5 -25zM277 625h1q19 0 29.5 -13t10.5 -32q0 -24 -15 -41t-37 -17q-18 0 -30 12.5t-12 31.5q0 21 14.5 40t38.5 19z" />
    <glyph glyph-name="Gcommaaccent" unicode="&#x122;" horiz-adv-x="681" 
d="M654 477l-29 -2q1 82 -39.5 118.5t-120.5 36.5q-134 0 -217.5 -103.5t-83.5 -247.5q0 -116 57 -188t160 -72q101 0 114 71l20 93q11 56 -1.5 68t-87.5 19l6 27h244l-6 -26q-42 -7 -52.5 -19.5t-21.5 -68.5l-16 -83q-9 -47 -5 -79q-12 -3 -47 -11.5t-54.5 -12.5t-51 -8
t-59.5 -4q-133 0 -214.5 76t-81.5 210q0 172 118.5 282.5t304.5 110.5q83 0 176 -31q-7 -70 -12 -156zM356 -43h1q24 0 41 -18t17 -46q1 -48 -34.5 -76t-82.5 -38l-9 27q68 24 68 58q0 24 -35 35q-12 1 -12 19q0 17 13 28t33 11z" />
    <glyph glyph-name="gcommaaccent" unicode="&#x123;" horiz-adv-x="420" 
d="M469 443l7 -19q-38 -41 -71 -45q-19 -2 -26 -3q8 -26 8 -55q0 -92 -76 -153q-52 -44 -129 -59q-18 -15 -20 -32q0 -20 72 -58q71 -37 103 -68.5t32 -64.5q0 -39 -39.5 -73t-93.5 -52t-103 -18q-73 0 -126.5 33t-52.5 79q3 60 168 144q-39 26 -37 49q0 26 62 62
q-88 20 -88 121q0 48 22.5 92.5t61.5 74.5q62 50 128 50q52 0 85 -27q72 1 113 22zM247 413h-1q-42 0 -72 -44q-38 -54 -38 -130q0 -43 18 -66.5t46 -23.5q43 0 78 46t35 122q0 43 -17.5 69.5t-48.5 26.5zM172 -215h1q55 0 89 22t34 52q0 37 -73 80q-64 37 -75 42
q-51 -25 -80.5 -53.5t-29.5 -55.5q0 -37 40.5 -62t93.5 -25zM282 529h-1q-24 0 -41 17.5t-17 46.5q-1 44 34 73.5t83 40.5l9 -28q-67 -25 -67 -58q0 -14 8.5 -21t26.5 -13q12 -2 12 -18q0 -17 -13.5 -28.5t-33.5 -11.5z" />
    <glyph glyph-name="Hcircumflex" unicode="&#x124;" horiz-adv-x="742" 
d="M787 649l-7 -27q-57 -5 -71.5 -19t-26.5 -76l-77 -405q-12 -61 -1 -75.5t71 -19.5l-6 -27h-254l7 27q59 5 74.5 19.5t26.5 74.5l38 202h-327l-38 -201q-11 -62 -0.5 -76t71.5 -19l-6 -27h-248l6 27q55 5 69.5 19.5t25.5 75.5l78 405q12 62 1.5 76t-72.5 19l7 27h247
l-6 -27q-54 -5 -69 -20t-27 -75l-30 -162h326l31 162q12 62 2 75.5t-69 19.5l6 27h248zM593 706l-18 -22q-47 19 -107 58q-77 -41 -126 -58l-13 22q71 45 136 104h25q41 -51 103 -104z" />
    <glyph glyph-name="hcircumflex" unicode="&#x125;" horiz-adv-x="511" 
d="M466 108l12 -24q-38 -43 -79.5 -69.5t-64.5 -26.5q-38 0 -17 96l53 232q17 71 -8 71q-34 0 -104.5 -66.5t-106.5 -131.5q-17 -69 -38 -182q-32 -6 -71 -18l-7 7q79 351 127 599q7 40 1.5 48t-35.5 9h-29l4 25q34 3 67.5 12t53.5 16t24 7q12 0 4 -35l-89 -416h2
q83 111 185 166q39 21 68 21q56 0 27 -127l-51 -222q-9 -36 3 -37q7 0 28 13.5t41 32.5zM346 744l-18 -22q-47 19 -107 58q-77 -41 -126 -58l-13 22q71 45 136 104h25q41 -51 103 -104z" />
    <glyph glyph-name="Hbar" unicode="&#x126;" horiz-adv-x="743" 
d="M775 508l-8 -36h-94l-69 -353q-11 -59 -0.5 -73t71.5 -19l-6 -27h-253l6 27q59 5 74 19t26 73l39 201h-327l-38 -201q-11 -59 0 -73t72 -19l-6 -27h-249l7 27q55 5 69 18.5t25 73.5l69 353h-98l10 36h95l5 28q10 55 -1 67.5t-73 18.5l7 27h247l-6 -27q-54 -5 -68.5 -18.5
t-24.5 -67.5l-6 -28h327l5 28q10 55 -0.5 67.5t-68.5 18.5l6 27h248l-7 -27q-57 -5 -71 -18t-24 -68l-6 -28h96zM590 472h-326l-21 -111h326z" />
    <glyph glyph-name="hbar" unicode="&#x127;" horiz-adv-x="511" 
d="M461 107l13 -23q-38 -43 -79.5 -69.5t-65.5 -26.5q-37 0 -15 97q29 130 54 231q8 38 7 54t-14 16q-32 0 -103.5 -68.5t-109.5 -133.5q-22 -90 -37 -177q-32 -6 -71 -18l-7 7q50 222 116 531h-81l12 36h77q8 35 11 53t2.5 28.5t-4 13t-12.5 3.5l-27 3l5 25q24 4 51 10
t44 10t22 4q13 0 5 -33q-23 -103 -26 -117h150l-13 -36h-146q-33 -155 -59 -271h3q89 117 192 171q36 21 62 21q54 0 29 -110q-38 -167 -56 -237q-8 -36 2 -40q19 0 69 46z" />
    <glyph glyph-name="Itilde" unicode="&#x128;" horiz-adv-x="335" 
d="M380 649l-6 -27q-59 -5 -73 -18t-25 -68l-80 -420q-11 -58 0 -71t73 -18l-6 -27h-256l7 27q58 4 73 18t26 71l82 420q10 55 -1.5 68t-74.5 18l6 27h255zM366 792l25 -16q-29 -80 -80 -80q-18 0 -68 23q-28 12 -41 12q-26 0 -48 -43l-24 18q33 81 80 79q19 0 59 -18
q37 -16 51 -16q23 0 46 41z" />
    <glyph glyph-name="itilde" unicode="&#x129;" horiz-adv-x="274" 
d="M224 109l13 -22q-28 -33 -74.5 -66t-71.5 -33q-37 0 -13 98l63 255q7 29 -1 32q-18 0 -69 -43l-12 23q40 39 85.5 67t66.5 28q30 0 10 -79l-69 -275q-9 -32 1 -32q17 0 71 47zM313 616l23 -12q-33 -85 -80 -85q-10 0 -19.5 2.5t-26 10.5t-22.5 10q-24 12 -42 12
q-24 0 -47 -43l-23 15q33 84 80 84q19 0 58 -18q36 -17 53 -17q20 0 46 41z" />
    <glyph glyph-name="Imacron" unicode="&#x12a;" horiz-adv-x="335" 
d="M380 649l-6 -27q-59 -5 -73 -18t-25 -68l-80 -420q-11 -58 0 -71t73 -18l-6 -27h-256l7 27q58 4 73 18t26 71l82 420q10 55 -1.5 68t-74.5 18l6 27h255zM389 764l-13 -51h-227l14 51h226z" />
    <glyph glyph-name="imacron" unicode="&#x12b;" horiz-adv-x="274" 
d="M224 109l13 -22q-28 -33 -74.5 -66t-71.5 -33q-37 0 -13 98l63 255q7 29 -1 32q-18 0 -69 -43l-12 23q40 39 85.5 67t66.5 28q30 0 10 -79l-69 -275q-9 -32 1 -32q17 0 71 47zM317 585l-12 -51h-224l13 51h223z" />
    <glyph glyph-name="Ibreve" unicode="&#x12c;" horiz-adv-x="335" 
d="M380 649l-6 -27q-59 -5 -73 -18t-25 -68l-80 -420q-11 -58 0 -71t73 -18l-6 -27h-256l7 27q58 4 73 18t26 71l82 420q10 55 -1.5 68t-74.5 18l6 27h255zM363 809h30q-9 -56 -44.5 -86t-89.5 -30q-51 0 -78.5 30.5t-22.5 85.5h30q10 -59 79 -59q67 0 96 59z" />
    <glyph glyph-name="ibreve" unicode="&#x12d;" horiz-adv-x="274" 
d="M224 109l13 -22q-28 -33 -74.5 -66t-71.5 -33q-37 0 -13 98l63 255q7 29 -1 32q-18 0 -69 -43l-12 23q40 39 85.5 67t66.5 28q30 0 10 -79l-69 -275q-9 -32 1 -32q17 0 71 47zM300 636h25q-11 -70 -47 -100.5t-85 -30.5t-75 30.5t-14 100.5h25q1 -36 20 -55t52 -19
q71 0 99 74z" />
    <glyph glyph-name="Iogonek" unicode="&#x12e;" horiz-adv-x="335" 
d="M380 649l-6 -27q-58 -5 -72.5 -17.5t-24.5 -66.5l-82 -424q-11 -57 0.5 -69.5t73.5 -17.5l-6 -27h-108q-61 -84 -61 -142q0 -42 45 -42q22 0 46 10l8 -26l-57 -31q-22 -10 -38 -10q-33 0 -52.5 18t-19.5 52q0 59 92 171h-111l7 27q57 5 73 18.5t26 68.5l82 424
q10 54 -1.5 66.5t-74.5 17.5l7 27h254z" />
    <glyph glyph-name="iogonek" unicode="&#x12f;" horiz-adv-x="272" 
d="M223 652h1q19 0 29.5 -13t10.5 -32q1 -23 -14.5 -40.5t-37.5 -17.5q-18 0 -30 12.5t-12 31.5q0 21 14.5 40t38.5 19zM224 109l13 -22q-31 -37 -71 -64q-40 -44 -65 -89.5t-25 -78.5q0 -38 36 -38q20 0 48 13l8 -27l-55 -31q-17 -10 -38 -10q-29 0 -47.5 18.5t-18.5 47.5
q0 35 29 81t68 85l-1 1q-28 -9 -34 19.5t6 71.5l63 255q7 29 -1 32q-17 0 -69 -43l-12 23q41 40 85.5 67.5t65.5 27.5q31 0 11 -79l-68 -275q-9 -32 2 -32q16 0 70 47z" />
    <glyph glyph-name="Idotaccent" unicode="&#x130;" horiz-adv-x="335" 
d="M380 649l-6 -27q-59 -5 -73 -18t-25 -68l-80 -420q-11 -58 0 -71t73 -18l-6 -27h-256l7 27q58 4 73 18t26 71l82 420q10 55 -1.5 68t-74.5 18l6 27h255zM271 802h1q19 0 29.5 -13t10.5 -32q0 -24 -15 -41t-37 -17q-18 0 -30 12.5t-12 31.5q0 22 14.5 40.5t38.5 18.5z" />
    <glyph glyph-name="dotlessi" unicode="&#x131;" horiz-adv-x="274" 
d="M224 109l13 -22q-28 -33 -74.5 -66t-71.5 -33q-37 0 -13 98l63 255q7 29 -1 32q-18 0 -69 -43l-12 23q40 39 85.5 67t66.5 28q30 0 10 -79l-69 -275q-9 -32 1 -32q17 0 71 47z" />
    <glyph glyph-name="IJ" unicode="&#x132;" horiz-adv-x="654" 
d="M380 649l-6 -27q-59 -5 -73 -18t-25 -68l-80 -420q-11 -58 0 -71t73 -18l-6 -27h-256l7 27q58 4 73 18t26 71l82 420q10 55 -1.5 68t-74.5 18l6 27h255zM710 649l-6 -27q-55 -7 -68.5 -19.5t-24.5 -71.5l-74 -401q-18 -98 -50.5 -155t-90.5 -90q-42 -25 -77 -30l-10 30
q79 23 110 107q22 55 40 158l71 381q11 59 0 71.5t-72 19.5l6 27h246z" />
    <glyph glyph-name="ij" unicode="&#x133;" horiz-adv-x="533" 
d="M222 650h1q19 0 29.5 -13t10.5 -32q1 -23 -14.5 -40.5t-37.5 -17.5q-18 0 -30 12.5t-12 31.5q0 21 14.5 40t38.5 19zM224 109l13 -22q-28 -32 -75 -65.5t-71 -33.5q-38 0 -14 98l62 255q8 31 0 32q-19 0 -69 -43l-12 23q40 39 85.5 67t66.5 28q30 0 10 -79l-69 -275
q-8 -32 2 -32q17 0 71 47zM479 650h1q19 0 29.5 -13t10.5 -32q0 -24 -15 -41t-38 -17q-18 0 -30 12.5t-12 31.5q0 22 15 40.5t39 18.5zM332 320l-13 23q43 45 89 75t68 30q29 0 8 -103q-16 -84 -55 -279q-37 -183 -118 -260q-66 -63 -107 -63q-15 0 -29 9.5t-14 22.5
q0 24 24 44q11 11 22 5q26 -17 49 -17q42 0 67 107q12 51 81 398q12 55 1 58q-17 0 -73 -50z" />
    <glyph glyph-name="Jcircumflex" unicode="&#x134;" horiz-adv-x="321" 
d="M375 649l-6 -27q-55 -7 -68.5 -19.5t-24.5 -71.5l-74 -401q-18 -98 -50.5 -155t-90.5 -90q-42 -25 -77 -30l-10 30q79 23 110 107q22 55 40 158l71 381q11 59 0 71.5t-72 19.5l6 27h246zM388 706l-18 -22q-47 19 -107 58q-77 -41 -126 -58l-13 22q71 45 136 104h25
q41 -51 103 -104z" />
    <glyph glyph-name="jcircumflex" unicode="&#x135;" horiz-adv-x="267" 
d="M303 516l-23 -16q-31 34 -70 95q-70 -66 -109 -95l-19 17q79 88 129 162h22q25 -77 70 -163zM68 322l-12 21q43 45 89.5 75t68.5 30q16 0 17 -25t-10 -78q-9 -48 -28.5 -142.5t-27.5 -136.5q-37 -184 -118 -260q-65 -62 -106 -62q-16 0 -29.5 9t-13.5 22q0 22 23 43
q12 10 23 5q24 -15 48 -15q22 0 38 24.5t30 83.5q15 65 81 398q9 47 2 57q-7 0 -30.5 -15.5t-44.5 -33.5z" />
    <glyph glyph-name="Kcommaaccent" unicode="&#x136;" horiz-adv-x="653" 
d="M715 649l-7 -26q-55 -8 -81 -19.5t-73 -48.5t-219 -186q89 -149 182 -275q28 -38 48 -50t62 -17l-7 -27h-144q-161 247 -187 290q-15 25 -28 31t-30 -2l-34 -191q-13 -67 -3 -81.5t69 -19.5l-5 -27h-246l7 27q55 5 69.5 20t27.5 81l76 397q12 62 2 76.5t-68 20.5l6 27
h242l-6 -27q-57 -6 -70.5 -20t-25.5 -77l-35 -177q34 11 75 45q100 82 202 183q22 21 20.5 29.5t-27.5 12.5l-29 4l6 27h231zM334 -20h1q24 0 41 -18t17 -46q1 -48 -34.5 -76t-82.5 -38l-9 27q68 24 68 58q0 24 -35 35q-12 2 -12 19t13 28t33 11z" />
    <glyph glyph-name="kcommaaccent" unicode="&#x137;" horiz-adv-x="470" 
d="M437 99l17 -20q-58 -91 -110 -91q-17 0 -32.5 14t-33.5 52q-37 75 -76 185q-47 -49 -56 -63q-31 -154 -34 -169q-34 -6 -73 -19l-6 6q78 328 136 612q6 30 0 37t-36 8l-31 1l5 25q35 4 69 13t54 15.5t24 6.5q11 0 5 -30q-13 -55 -47.5 -208t-53.5 -236l2 -1q21 25 86 90
q121 121 175 121q19 0 30 -9.5t11 -21.5q0 -21 -19 -40q-9 -9 -16 -6q-18 8 -38 8q-54 0 -131 -82q28 -92 82 -196q25 -48 40 -48q17 0 57 46zM200 -29h1q24 0 41 -18t17 -46q1 -48 -34.5 -76t-82.5 -38l-9 27q68 24 68 58q0 24 -35 35q-12 1 -12 19q0 17 13 28t33 11z" />
    <glyph glyph-name="kgreenlandic" unicode="&#x138;" horiz-adv-x="502" 
d="M176 215l2 -2q27 31 109 113q120 122 167 122q22 0 33.5 -9.5t11.5 -22.5q0 -20 -20 -40q-9 -9 -17 -6q-18 9 -39 9q-43 0 -150 -112q50 -107 95 -177q22 -37 38 -37q18 0 58 46l17 -21q-58 -90 -111 -90q-32 0 -66 62q-30 49 -84 163q-38 -36 -54 -57q-18 -63 -35 -148
q-43 -8 -71 -19l-7 7q40 162 81 337q9 41 -2 41q-7 1 -26.5 -12.5t-36.5 -31.5l-15 22q38 42 79.5 69t62.5 27q34 0 9 -108z" />
    <glyph glyph-name="Lacute" unicode="&#x139;" horiz-adv-x="532" 
d="M484 166l28 -11q-34 -91 -64 -155h-441l6 26q57 4 72.5 18.5t26.5 71.5l82 418q11 58 0.5 70.5t-71.5 17.5l6 27h250l-6 -27q-60 -5 -73.5 -18t-24.5 -70l-79 -415q-11 -56 11 -72q15 -13 90 -13q86 0 117 30q35 35 70 102zM422 755l-2 -8l-187 -63l-13 25q41 25 161 101
q9 -2 24 -22.5t17 -32.5z" />
    <glyph glyph-name="lacute" unicode="&#x13a;" horiz-adv-x="249" 
d="M215 117l15 -22q-37 -45 -83 -76t-70 -31q-41 0 -15 121q70 328 104 492q7 33 0 41.5t-41 9.5h-28l4 25q34 3 68 12t55 16t25 7q12 0 6 -30q-61 -290 -123 -585q-7 -35 4 -35q9 0 34 17t45 38zM345 805l-2 -8l-187 -63l-13 25q41 25 161 101q9 -2 24 -22.5t17 -32.5z" />
    <glyph glyph-name="Lcommaaccent" unicode="&#x13b;" horiz-adv-x="532" 
d="M484 166l28 -11q-34 -91 -64 -155h-441l6 26q57 4 72.5 18.5t26.5 71.5l82 418q11 58 0.5 70.5t-71.5 17.5l6 27h250l-6 -27q-60 -5 -73.5 -18t-24.5 -70l-79 -415q-11 -56 11 -72q15 -13 90 -13q86 0 117 30q35 35 70 102zM269 -35h1q24 0 41 -18t17 -46
q1 -48 -34.5 -76t-82.5 -38l-9 27q68 24 68 58q0 24 -35 35q-12 1 -12 19q0 17 13 28t33 11z" />
    <glyph glyph-name="lcommaaccent" unicode="&#x13c;" horiz-adv-x="249" 
d="M215 117l15 -22q-37 -45 -83 -76t-70 -31q-41 0 -15 121q70 328 104 492q7 33 0 41.5t-41 9.5h-28l4 25q34 3 68 12t55 16t25 7q12 0 6 -30q-61 -290 -123 -585q-7 -35 4 -35q9 0 34 17t45 38zM90 -37h1q24 0 41 -18t17 -46q1 -48 -34.5 -76t-82.5 -38l-9 27q68 24 68 58
q0 24 -35 35q-12 1 -12 19q0 17 13 28t33 11z" />
    <glyph glyph-name="Lcaron" unicode="&#x13d;" horiz-adv-x="532" 
d="M484 166l28 -11q-34 -91 -64 -155h-441l6 26q57 4 72.5 18.5t26.5 71.5l82 418q11 58 0.5 70.5t-71.5 17.5l6 27h250l-6 -27q-60 -5 -73.5 -18t-24.5 -70l-79 -415q-11 -56 11 -72q15 -13 90 -13q86 0 117 30q35 35 70 102zM465 658h1q20 0 34 -17.5t14 -46.5
q0 -42 -29 -70.5t-71 -40.5l-10 26q55 26 55 58q0 23 -24 34q-9 5 -9 20q0 14 11.5 25.5t27.5 11.5z" />
    <glyph glyph-name="lcaron" unicode="&#x13e;" horiz-adv-x="249" 
d="M215 117l15 -22q-37 -45 -83 -76t-70 -31q-41 0 -15 121q70 328 104 492q7 33 0 41.5t-41 9.5h-28l4 25q34 3 68 12t55 16t25 7q12 0 6 -30q-61 -290 -123 -585q-7 -35 4 -35q9 0 34 17t45 38zM346 709h1q20 0 34 -17.5t14 -46.5q0 -43 -29 -71t-71 -40l-10 26
q55 26 55 58q0 23 -24 34q-9 5 -9 20q0 14 11.5 25.5t27.5 11.5z" />
    <glyph glyph-name="Ldot" unicode="&#x13f;" horiz-adv-x="532" 
d="M484 166l28 -11q-34 -91 -64 -155h-441l6 26q57 4 72.5 18.5t26.5 71.5l82 418q11 58 0.5 70.5t-71.5 17.5l6 27h250l-6 -27q-60 -5 -73.5 -18t-24.5 -70l-79 -415q-11 -56 11 -72q15 -13 90 -13q86 0 117 30q35 35 70 102zM399 400h1q19 0 29.5 -13t10.5 -32
q0 -24 -15 -41t-37 -17q-18 0 -30 12.5t-12 31.5q0 22 14.5 40.5t38.5 18.5z" />
    <glyph glyph-name="ldot" unicode="&#x140;" horiz-adv-x="275" 
d="M215 117l15 -23q-37 -44 -83 -75t-70 -31q-42 0 -16 121q70 328 105 493q7 33 0 41.5t-42 9.5h-28l4 25q34 3 68.5 12t55.5 15.5t25 6.5q12 0 6 -29q-106 -503 -124 -586q-7 -35 4 -35q10 0 35.5 17t44.5 38zM287 414h1q19 0 29.5 -13t10.5 -32q0 -24 -15 -41t-37 -17
q-18 0 -30 12.5t-12 31.5q0 21 14.5 40t38.5 19z" />
    <glyph glyph-name="Lslash" unicode="&#x141;" horiz-adv-x="550" 
d="M503 165l28 -10q-30 -83 -63 -155h-443l7 27q58 5 73 18t26 73l32 164l-106 -70l9 48l106 71l40 205q11 56 -0.5 68.5t-71.5 17.5l8 27h249l-7 -27q-58 -5 -71.5 -17t-24.5 -69l-30 -148l135 90l-14 -52l-131 -88l-39 -218q-11 -56 12 -73q17 -13 87 -13q52 0 76.5 6
t43.5 24q27 24 69 101z" />
    <glyph glyph-name="lslash" unicode="&#x142;" horiz-adv-x="277" 
d="M313 493l-10 -49l-97 -75l-55 -267q-9 -42 4 -42q9 0 33.5 18t44.5 38l15 -23q-36 -44 -80 -74.5t-71 -30.5q-41 0 -17 109l44 209l-88 -68l10 50l88 68l53 247q7 33 -0.5 41.5t-42.5 9.5h-29l5 25q34 3 68 11.5t55 15t26 6.5q13 0 7 -29l-59 -265z" />
    <glyph glyph-name="Nacute" unicode="&#x143;" horiz-adv-x="705" 
d="M766 649l-6 -27q-44 -3 -60.5 -16t-26.5 -47q-16 -50 -38 -170l-76 -397h-30l-296 530h-3l-52 -266q-23 -115 -26 -168q-1 -34 15.5 -45.5t69.5 -15.5l-6 -27h-229l7 27q40 2 59 14.5t29 44.5q16 51 41 173l52 246q7 39 6 54t-12 33q-9 16 -26 22t-58 8l6 27h143
l295 -509h4l46 249q23 120 27 172q2 34 -14.5 45.5t-72.5 15.5l7 27h225zM576 755l-2 -8l-187 -63l-13 25q41 25 161 101q9 -2 24 -22.5t17 -32.5z" />
    <glyph glyph-name="nacute" unicode="&#x144;" horiz-adv-x="532" 
d="M480 109l15 -25q-42 -45 -81 -70.5t-60 -25.5q-41 0 -15 104q13 52 52 221q17 71 -7 71q-32 0 -101.5 -70.5t-108.5 -137.5q-27 -108 -39 -168q-43 -8 -72 -19l-6 7q42 162 82 338q9 40 -2 40q-17 0 -64 -45l-14 24q40 43 79.5 69t61.5 26q34 0 8 -111l-21 -86h2
q88 119 184 174q37 23 66 23q57 0 23 -143q-4 -18 -22 -92t-27 -115q-8 -35 2 -35q19 0 65 46zM462 661l-155 -170l-23 16q61 96 92 155q9 3 40.5 7t42.5 3z" />
    <glyph glyph-name="Ncommaaccent" unicode="&#x145;" horiz-adv-x="705" 
d="M766 649l-6 -27q-44 -3 -60.5 -16t-26.5 -47q-16 -50 -38 -170l-76 -397h-30l-296 530h-3l-52 -266q-23 -115 -26 -168q-1 -34 15.5 -45.5t69.5 -15.5l-6 -27h-229l7 27q40 2 59 14.5t29 44.5q16 51 41 173l52 246q7 39 6 54t-12 33q-9 16 -26 22t-58 8l6 27h143
l295 -509h4l46 249q23 120 27 172q2 34 -14.5 45.5t-72.5 15.5l7 27h225zM344 -11h1q24 0 41 -18t17 -46q1 -48 -34.5 -76t-82.5 -38l-9 27q68 24 68 58q0 24 -35 35q-12 1 -12 19q0 17 13 28t33 11z" />
    <glyph glyph-name="ncommaaccent" unicode="&#x146;" horiz-adv-x="532" 
d="M480 109l15 -25q-42 -45 -81 -70.5t-60 -25.5q-41 0 -15 104q13 52 52 221q17 71 -7 71q-32 0 -101.5 -70.5t-108.5 -137.5q-27 -108 -39 -168q-43 -8 -72 -19l-6 7q42 162 82 338q9 40 -2 40q-17 0 -64 -45l-14 24q40 43 79.5 69t61.5 26q34 0 8 -111l-21 -86h2
q88 119 184 174q37 23 66 23q57 0 23 -143q-4 -18 -22 -92t-27 -115q-8 -35 2 -35q19 0 65 46zM230 -42h1q24 0 41 -18t17 -46q1 -48 -34.5 -76t-82.5 -38l-9 27q68 24 68 58q0 24 -35 35q-12 2 -12 19t13 28t33 11z" />
    <glyph glyph-name="Ncaron" unicode="&#x147;" horiz-adv-x="705" 
d="M766 649l-6 -27q-44 -3 -60.5 -16t-26.5 -47q-16 -50 -38 -170l-76 -397h-30l-296 530h-3l-52 -266q-23 -115 -26 -168q-1 -34 15.5 -45.5t69.5 -15.5l-6 -27h-229l7 27q40 2 59 14.5t29 44.5q16 51 41 173l52 246q7 39 6 54t-12 33q-9 16 -26 22t-58 8l6 27h143
l295 -509h4l46 249q23 120 27 172q2 34 -14.5 45.5t-72.5 15.5l7 27h225zM577 798l14 -22q-81 -54 -136 -104h-25q-41 51 -103 104l19 22q50 -22 106 -58q73 39 125 58z" />
    <glyph glyph-name="ncaron" unicode="&#x148;" horiz-adv-x="532" 
d="M480 109l15 -25q-42 -45 -81 -70.5t-60 -25.5q-41 0 -15 104q13 52 52 221q17 71 -7 71q-32 0 -101.5 -70.5t-108.5 -137.5q-27 -108 -39 -168q-43 -8 -72 -19l-6 7q42 162 82 338q9 40 -2 40q-17 0 -64 -45l-14 24q40 43 79.5 69t61.5 26q34 0 8 -111l-21 -86h2
q88 119 184 174q37 23 66 23q57 0 23 -143q-4 -18 -22 -92t-27 -115q-8 -35 2 -35q19 0 65 46zM432 671l22 -18q-76 -84 -130 -161h-22q-24 73 -71 162l25 17q39 -47 69 -96q62 62 107 96z" />
    <glyph glyph-name="napostrophe" unicode="&#x149;" horiz-adv-x="533" 
d="M80 501l-9 26q38 16 59.5 34t22.5 45q3 37 -50 51q-11 2 -11 16q1 17 15 27.5t30 10.5q30 0 54 -24t23 -65q-2 -48 -42 -78t-92 -43zM477 108l15 -24q-41 -45 -80.5 -70.5t-60.5 -25.5q-39 0 -16 99q20 80 58 238q14 59 -7 59q-31 0 -103.5 -74t-110.5 -142
q-21 -73 -38 -160q-42 -8 -71 -19l-7 7q42 162 82 338q9 40 -2 40q-17 0 -64 -45l-13 24q39 42 79 68.5t61 26.5q35 0 8 -111l-20 -90h2q79 112 188 179q39 22 66 22q51 0 23 -117q-18 -78 -56 -234q-8 -34 3 -34q7 0 26 12.5t38 32.5z" />
    <glyph glyph-name="Eng" unicode="&#x14a;" horiz-adv-x="705" 
d="M766 649l-6 -26q-42 -2 -60 -14.5t-27 -45.5q-19 -70 -39 -174l-60 -320q-31 -160 -68 -218q-43 -67 -101 -67q-18 0 -30 9t-12 22q0 15 11.5 32t20.5 17q5 0 16.5 -5.5t23.5 -5.5q25 0 48 37.5t38 116.5l-288 515h-3l-51 -264q-19 -96 -26 -171q-3 -34 14 -45.5
t71 -15.5l-6 -26h-230l6 26q41 3 60 15t29 44q15 49 41 173l51 247q8 39 6.5 54.5t-11.5 32.5q-16 27 -85 31l6 26h144l295 -509h3l46 249q24 129 27 175q3 34 -15 45t-71 14l6 26h226z" />
    <glyph glyph-name="eng" unicode="&#x14b;" horiz-adv-x="516" 
d="M71 331l-15 22q37 40 78 67.5t64 27.5q35 0 8 -112l-22 -95h2q88 120 194 185q37 22 65 22q43 0 21 -107q-27 -134 -51 -240q-20 -93 -45.5 -145.5t-67.5 -91.5q-66 -61 -112 -61q-15 0 -27.5 8.5t-12.5 21.5q0 11 7 25.5t17 21.5q12 9 22 4q24 -15 47 -15q51 0 79 130
l70 332q12 53 -6 53q-30 0 -103 -75.5t-112 -140.5q-20 -73 -37 -160q-43 -8 -72 -19l-7 7q30 116 81 338q9 41 -2 41q-17 0 -63 -44z" />
    <glyph glyph-name="Omacron" unicode="&#x14c;" horiz-adv-x="708" 
d="M429 664h1q119 0 192.5 -79.5t73.5 -206.5q0 -163 -104 -278t-261 -115q-118 0 -191.5 78.5t-73.5 204.5q0 160 105 278t258 118zM423 630h-1q-75 0 -136.5 -56.5t-93 -140.5t-31.5 -173q0 -107 45.5 -174t133.5 -67q79 0 140.5 58.5t91 141.5t29.5 169q0 108 -43 175
t-135 67zM563 767l-13 -51h-227l14 51h226z" />
    <glyph glyph-name="omacron" unicode="&#x14d;" horiz-adv-x="470" 
d="M306 448h1q62 0 97 -41t35 -115q0 -67 -28 -133t-79 -108q-77 -63 -154 -63q-67 0 -99.5 44.5t-32.5 110.5q0 93 43 165.5t109 106.5q59 33 108 33zM275 409h-1q-20 0 -38 -8q-37 -17 -71.5 -83t-34.5 -169q0 -56 22.5 -88.5t61.5 -32.5q17 0 33 6q42 18 75.5 91.5
t32.5 164.5q0 58 -22 88.5t-58 30.5zM419 585l-12 -51h-224l13 51h223z" />
    <glyph glyph-name="Obreve" unicode="&#x14e;" horiz-adv-x="708" 
d="M429 664h1q119 0 192.5 -79.5t73.5 -206.5q0 -163 -104 -278t-261 -115q-118 0 -191.5 78.5t-73.5 204.5q0 160 105 278t258 118zM423 630h-1q-75 0 -136.5 -56.5t-93 -140.5t-31.5 -173q0 -107 45.5 -174t133.5 -67q79 0 140.5 58.5t91 141.5t29.5 169q0 108 -43 175
t-135 67zM542 811h30q-9 -56 -44.5 -86t-89.5 -30q-51 0 -78.5 30.5t-22.5 85.5h30q10 -59 79 -59q67 0 96 59z" />
    <glyph glyph-name="obreve" unicode="&#x14f;" horiz-adv-x="470" 
d="M306 448h1q62 0 97 -41t35 -115q0 -67 -28 -133t-79 -108q-77 -63 -154 -63q-67 0 -99.5 44.5t-32.5 110.5q0 93 43 165.5t109 106.5q59 33 108 33zM275 409h-1q-20 0 -38 -8q-37 -17 -71.5 -83t-34.5 -169q0 -56 22.5 -88.5t61.5 -32.5q17 0 33 6q42 18 75.5 91.5
t32.5 164.5q0 58 -22 88.5t-58 30.5zM396 636h25q-11 -70 -47 -100.5t-85 -30.5t-75 30.5t-14 100.5h25q1 -36 20 -55t52 -19q71 0 99 74z" />
    <glyph glyph-name="Ohungarumlaut" unicode="&#x150;" horiz-adv-x="708" 
d="M429 664h1q119 0 192.5 -79.5t73.5 -206.5q0 -163 -104 -278t-261 -115q-118 0 -191.5 78.5t-73.5 204.5q0 160 105 278t258 118zM423 630h-1q-75 0 -136.5 -56.5t-93 -140.5t-31.5 -173q0 -107 45.5 -174t133.5 -67q79 0 140.5 58.5t91 141.5t29.5 169q0 108 -43 175
t-135 67zM468 815v-14l-105 -107l-24 15q33 63 63 124q11 2 34.5 -4.5t31.5 -13.5zM604 815v-14l-105 -107l-24 15q47 93 62 124q12 2 36 -5t31 -13z" />
    <glyph glyph-name="ohungarumlaut" unicode="&#x151;" horiz-adv-x="470" 
d="M306 448h1q62 0 97 -41t35 -115q0 -67 -28 -133t-79 -108q-77 -63 -154 -63q-67 0 -99.5 44.5t-32.5 110.5q0 93 43 165.5t109 106.5q59 33 108 33zM275 409h-1q-20 0 -38 -8q-37 -17 -71.5 -83t-34.5 -169q0 -56 22.5 -88.5t61.5 -32.5q17 0 33 6q42 18 75.5 91.5
t32.5 164.5q0 58 -22 88.5t-58 30.5zM329 647l-115 -158l-26 16q57 131 63 149q11 2 38 3.5t37 -0.5zM462 647l-115 -158l-24 16q46 104 62 149q11 2 38 3.5t37 -0.5z" />
    <glyph glyph-name="OE" unicode="&#x152;" horiz-adv-x="947" 
d="M857 0h-303q-34 0 -90 -6q-47 -5 -83 -5q-71 0 -127 18.5t-90 47.5t-56 67.5t-30.5 75.5t-8.5 76q0 93 34.5 167.5t93 122t135 72t162.5 24.5q42 -1 100 -6t83 -5h272q-1 -9 -18 -151l-29 -2q0 61 -13 87q-9 19 -29 25.5t-74 6.5h-74q-25 0 -31 -5t-11 -33l-42 -220h94
q62 0 80.5 12t36.5 61h28l-37 -188h-29q1 55 -12 67t-76 12h-92l-34 -179q-15 -79 5 -94q18 -14 100 -14q56 0 83.5 7t48.5 27q35 33 69 95l27 -9q-61 -151 -63 -154zM497 100l88 455q4 29 0.5 39.5t-17.5 16.5q-32 15 -90 15q-63 0 -118.5 -22.5t-99.5 -64.5t-69.5 -110.5
t-25.5 -153.5q0 -42 10 -82t33.5 -81t71.5 -65.5t114 -23.5q43 2 65 12q29 14 38 65z" />
    <glyph glyph-name="oe" unicode="&#x153;" horiz-adv-x="688" 
d="M677 369v-1q0 -34 -26 -64.5t-69.5 -52.5t-85 -37t-86.5 -26q-2 -13 -2 -27q0 -114 78 -114q68 0 151 80l16 -22q-106 -117 -210 -117q-81 0 -101 90h-1q-29 -39 -77.5 -64.5t-91.5 -25.5q-64 0 -95 46.5t-31 110.5q0 91 41 163t103 106q61 34 111 34q41 0 70.5 -23.5
t41.5 -67.5l1 1q34 37 85.5 63.5t91.5 26.5q39 0 62.5 -22.5t23.5 -56.5zM600 354q1 24 -12 37.5t-34 13.5h-1q-28 0 -49 -14q-26 -15 -52.5 -56t-37.5 -114q184 50 186 133zM350 293v1q0 116 -79 116h-1q-20 0 -36 -8q-37 -14 -70.5 -78t-33.5 -169q0 -56 19.5 -91
t58.5 -35q18 0 33 8q39 17 74 90t35 166z" />
    <glyph glyph-name="Racute" unicode="&#x154;" horiz-adv-x="599" 
d="M585 17l-9 -25h-10q-69 4 -103 25t-62 73q-32 59 -68 148q-12 28 -25 37t-40 9h-42l-29 -157q-12 -66 -2 -80t72 -20l-6 -27h-251l6 27q58 6 72.5 20.5t27.5 79.5l77 402q12 62 2 74.5t-70 18.5l7 27h217q97 0 141 -30q60 -41 60 -124q0 -71 -44 -119.5t-111 -71.5
q28 -72 60 -134q36 -70 62 -105q26 -34 68 -48zM232 316h47q69 0 107 25q34 23 54.5 61.5t20.5 84.5q0 64 -31 97.5t-87 33.5q-32 0 -45 -10q-12 -7 -19 -44zM509 755l-2 -8l-187 -63l-13 25q41 25 161 101q9 -2 24 -22.5t17 -32.5z" />
    <glyph glyph-name="racute" unicode="&#x155;" horiz-adv-x="366" 
d="M189 283h3q40 74 81 119.5t70 45.5q27 0 43 -26q12 -20 -1 -42q-10 -17 -27 -29q-12 -9 -22 -1q-17 17 -33 17q-20 0 -51 -43q-51 -71 -72 -123q-16 -73 -40 -195q-29 -4 -71 -17l-7 7q55 235 73 336q8 43 -2 43q-7 0 -29 -14t-42 -34l-14 23q38 41 78.5 69.5t61.5 28.5
q37 0 12 -116zM395 661l-155 -170l-23 16q61 96 92 155q9 3 40.5 7t42.5 3z" />
    <glyph glyph-name="Rcommaaccent" unicode="&#x156;" horiz-adv-x="599" 
d="M585 17l-9 -25h-10q-69 4 -103 25t-62 73q-32 59 -68 148q-12 28 -25 37t-40 9h-42l-29 -157q-12 -66 -2 -80t72 -20l-6 -27h-251l6 27q58 6 72.5 20.5t27.5 79.5l77 402q12 62 2 74.5t-70 18.5l7 27h217q97 0 141 -30q60 -41 60 -124q0 -71 -44 -119.5t-111 -71.5
q28 -72 60 -134q36 -70 62 -105q26 -34 68 -48zM232 316h47q69 0 107 25q34 23 54.5 61.5t20.5 84.5q0 64 -31 97.5t-87 33.5q-32 0 -45 -10q-12 -7 -19 -44zM333 -20h1q24 0 41 -18t17 -46q1 -48 -34.5 -76t-82.5 -38l-9 27q68 24 68 58q0 24 -35 35q-12 2 -12 19t13 28
t33 11z" />
    <glyph glyph-name="rcommaaccent" unicode="&#x157;" horiz-adv-x="366" 
d="M189 283h3q40 74 81 119.5t70 45.5q27 0 43 -26q12 -20 -1 -42q-10 -17 -27 -29q-12 -9 -22 -1q-17 17 -33 17q-20 0 -51 -43q-51 -71 -72 -123q-16 -73 -40 -195q-29 -4 -71 -17l-7 7q55 235 73 336q8 43 -2 43q-7 0 -29 -14t-42 -34l-14 23q38 41 78.5 69.5t61.5 28.5
q37 0 12 -116zM94 -39h1q24 0 41 -18t17 -46q1 -48 -34.5 -76t-82.5 -38l-9 27q68 24 68 58q0 24 -35 35q-12 1 -12 19q0 17 13 28t33 11z" />
    <glyph glyph-name="Rcaron" unicode="&#x158;" horiz-adv-x="599" 
d="M585 17l-9 -25h-10q-69 4 -103 25t-62 73q-32 59 -68 148q-12 28 -25 37t-40 9h-42l-29 -157q-12 -66 -2 -80t72 -20l-6 -27h-251l6 27q58 6 72.5 20.5t27.5 79.5l77 402q12 62 2 74.5t-70 18.5l7 27h217q97 0 141 -30q60 -41 60 -124q0 -71 -44 -119.5t-111 -71.5
q28 -72 60 -134q36 -70 62 -105q26 -34 68 -48zM232 316h47q69 0 107 25q34 23 54.5 61.5t20.5 84.5q0 64 -31 97.5t-87 33.5q-32 0 -45 -10q-12 -7 -19 -44zM484 813l14 -22q-81 -54 -136 -104h-25q-41 51 -103 104l19 22q50 -22 106 -58q73 39 125 58z" />
    <glyph glyph-name="rcaron" unicode="&#x159;" horiz-adv-x="366" 
d="M189 283h3q40 74 81 119.5t70 45.5q27 0 43 -26q12 -20 -1 -42q-10 -17 -27 -29q-12 -9 -22 -1q-17 17 -33 17q-20 0 -51 -43q-51 -71 -72 -123q-16 -73 -40 -195q-29 -4 -71 -17l-7 7q55 235 73 336q8 43 -2 43q-7 0 -29 -14t-42 -34l-14 23q38 41 78.5 69.5t61.5 28.5
q37 0 12 -116zM363 671l22 -18q-76 -84 -130 -161h-22q-24 73 -71 162l25 17q39 -47 69 -96q62 62 107 96z" />
    <glyph glyph-name="Sacute" unicode="&#x15a;" horiz-adv-x="468" 
d="M38 194l27 3q6 -43 21.5 -80.5t52 -68t87.5 -30.5q54 0 88 35t34 94q0 40 -22.5 71.5t-71.5 70.5l-29 22q-31 25 -50.5 43.5t-40 55.5t-20.5 75q0 78 56.5 128.5t146.5 50.5q45 0 95 -16q40 -15 43 -16q-2 -25 -2 -77.5v-63.5l-29 -3q-15 143 -120 143q-51 0 -81.5 -34
t-30.5 -82q0 -40 23 -69.5t70 -64.5l30 -23q57 -42 86.5 -85t29.5 -98q0 -84 -64 -137t-154 -53q-55 0 -104 19.5t-68 41.5q0 11 -1 60.5t-2 87.5zM467 771l-2 -8l-187 -63l-13 25q41 25 161 101q9 -2 24 -22.5t17 -32.5z" />
    <glyph glyph-name="sacute" unicode="&#x15b;" horiz-adv-x="337" 
d="M246 448h1q31 0 54 -18t23 -38q0 -26 -25 -41q-13 -8 -22 4q-36 45 -78 45q-22 0 -38 -15.5t-16 -40.5q0 -24 16.5 -44t49.5 -45q45 -34 64 -59.5t19 -56.5q0 -56 -59.5 -103.5t-121.5 -47.5q-36 0 -68.5 23t-32.5 49q-1 24 29 42q17 8 25 -3q41 -61 96 -61q29 0 48 17.5
t19 42.5q0 20 -12.5 38.5t-46.5 45.5q-41 30 -64 58t-23 63q0 51 52 97q24 20 55.5 34t55.5 14zM379 661l-155 -170l-23 16q61 96 92 155q9 3 40.5 7t42.5 3z" />
    <glyph glyph-name="Scircumflex" unicode="&#x15c;" horiz-adv-x="468" 
d="M38 194l27 3q6 -43 21.5 -80.5t52 -68t87.5 -30.5q54 0 88 35t34 94q0 40 -22.5 71.5t-71.5 70.5l-29 22q-31 25 -50.5 43.5t-40 55.5t-20.5 75q0 78 56.5 128.5t146.5 50.5q45 0 95 -16q40 -15 43 -16q-2 -25 -2 -77.5v-63.5l-29 -3q-15 143 -120 143q-51 0 -81.5 -34
t-30.5 -82q0 -40 23 -69.5t70 -64.5l30 -23q57 -42 86.5 -85t29.5 -98q0 -84 -64 -137t-154 -53q-55 0 -104 19.5t-68 41.5q0 11 -1 60.5t-2 87.5zM448 716l-18 -22q-47 19 -107 58q-77 -41 -126 -58l-13 22q71 45 136 104h25q41 -51 103 -104z" />
    <glyph glyph-name="scircumflex" unicode="&#x15d;" horiz-adv-x="337" 
d="M246 448h1q31 0 54 -18t23 -38q0 -26 -25 -41q-13 -8 -22 4q-36 45 -78 45q-22 0 -38 -15.5t-16 -40.5q0 -24 16.5 -44t49.5 -45q45 -34 64 -59.5t19 -56.5q0 -56 -59.5 -103.5t-121.5 -47.5q-36 0 -68.5 23t-32.5 49q-1 24 29 42q17 8 25 -3q41 -61 96 -61q29 0 48 17.5
t19 42.5q0 20 -12.5 38.5t-46.5 45.5q-41 30 -64 58t-23 63q0 51 52 97q24 20 55.5 34t55.5 14zM339 504l-23 -17q-32 37 -71 96q-59 -59 -108 -96l-20 18q83 93 130 162h22q25 -77 70 -163z" />
    <glyph glyph-name="uni015E" unicode="&#x15e;" horiz-adv-x="468" 
d="M38 195l27 3q4 -31 14.5 -60t28.5 -56.5t48.5 -44.5t69.5 -17q54 0 87.5 34.5t33.5 93.5q0 41 -22.5 73.5t-70.5 68.5l-31 23q-30 23 -49.5 41.5t-39.5 55t-20 74.5q0 78 57.5 129t147.5 51q43 0 93 -16q19 -7 43 -16q-2 -25 -2 -77.5v-63.5l-29 -3q-15 142 -123 142
q-51 0 -80 -33t-29 -81q0 -40 23 -70.5t69 -64.5l31 -22q56 -41 86 -83.5t30 -97.5q0 -80 -57.5 -132.5t-139.5 -58.5l-11 -14q-11 -13 -11 -20t11 -20q30 -37 29 -64q-1 -29 -34 -56t-84 -42l-12 26q67 31 68 60q1 12 -18 36q-15 18 -16.5 29t11.5 28l29 37
q-49 3 -92.5 21.5t-62.5 38.5q0 11 -1 60.5t-2 87.5z" />
    <glyph glyph-name="uni015F" unicode="&#x15f;" horiz-adv-x="334" 
d="M246 448h1q30 0 53.5 -19t22.5 -38q0 -26 -25 -41q-14 -8 -22 4q-33 45 -77 45q-23 0 -38.5 -15.5t-15.5 -40.5q0 -24 16.5 -44t48.5 -45q45 -35 63 -60t18 -56q0 -45 -41.5 -86.5t-95.5 -56.5l-15 -18q-11 -13 -11 -20.5t10 -20.5q30 -37 29 -64q-1 -29 -35 -56t-83 -42
l-13 27q68 32 69 59q1 11 -17 36q-15 18 -16.5 28.5t11.5 28.5l29 35v1q-34 -2 -67.5 21t-34.5 50q0 26 30 40q15 9 25 -3q41 -58 95 -58q29 0 47 17.5t18 42.5q0 37 -58 83q-40 32 -62 59.5t-22 61.5q0 50 51 96q24 21 56 35t56 14z" />
    <glyph glyph-name="Scaron" unicode="&#x160;" horiz-adv-x="468" 
d="M38 194l27 3q6 -43 21.5 -80.5t52 -68t87.5 -30.5q54 0 88 35t34 94q0 40 -22.5 71.5t-71.5 70.5l-29 22q-31 25 -50.5 43.5t-40 55.5t-20.5 75q0 78 56.5 128.5t146.5 50.5q45 0 95 -16q40 -15 43 -16q-2 -25 -2 -77.5v-63.5l-29 -3q-15 143 -120 143q-51 0 -81.5 -34
t-30.5 -82q0 -40 23 -69.5t70 -64.5l30 -23q57 -42 86.5 -85t29.5 -98q0 -84 -64 -137t-154 -53q-55 0 -104 19.5t-68 41.5q0 11 -1 60.5t-2 87.5zM443 829l14 -22q-81 -54 -136 -104h-25q-41 51 -103 104l19 22q50 -22 106 -58q73 39 125 58z" />
    <glyph glyph-name="scaron" unicode="&#x161;" horiz-adv-x="337" 
d="M246 448h1q31 0 54 -18t23 -38q0 -26 -25 -41q-13 -8 -22 4q-36 45 -78 45q-22 0 -38 -15.5t-16 -40.5q0 -24 16.5 -44t49.5 -45q45 -34 64 -59.5t19 -56.5q0 -56 -59.5 -103.5t-121.5 -47.5q-36 0 -68.5 23t-32.5 49q-1 24 29 42q17 8 25 -3q41 -61 96 -61q29 0 48 17.5
t19 42.5q0 20 -12.5 38.5t-46.5 45.5q-41 30 -64 58t-23 63q0 51 52 97q24 20 55.5 34t55.5 14zM347 671l22 -18q-76 -84 -130 -161h-22q-24 73 -71 162l25 17q39 -47 69 -96q62 62 107 96z" />
    <glyph glyph-name="Tcommaaccent" unicode="&#x162;" horiz-adv-x="603" 
d="M635 674h22q-9 -52 -23 -176l-31 -3q2 61 -11 90q-8 18 -29 24t-78 6h-61l-93 -495q-11 -60 2 -74t81 -19l-6 -27h-272l6 27q63 4 79 18.5t27 74.5l95 495h-52q-62 0 -85 -6t-37 -23q-21 -25 -50 -91l-30 1q31 99 48 178h21q7 -17 16.5 -21t31.5 -4h376q19 0 29 5t24 20z
M265 -40h1q24 0 41 -18t17 -46q1 -48 -34.5 -76t-82.5 -38l-9 27q68 24 68 58q0 24 -35 35q-12 2 -12 19t13 28t33 11z" />
    <glyph glyph-name="tcommaaccent" unicode="&#x163;" horiz-adv-x="307" 
d="M338 430l-26 -35l-100 -4l-58 -273q-13 -60 6 -60q12 0 41 19t48 39l15 -22q-31 -37 -78.5 -71.5t-83.5 -34.5q-13 0 -20.5 11.5t-9.5 40.5t10 80l58 270h-74l-3 9l25 31h61l23 94l75 63l10 -7l-36 -150h117zM116 -40h1q24 0 41 -18t17 -46q1 -48 -34.5 -76t-82.5 -38
l-9 27q68 24 68 58q0 24 -35 35q-12 2 -12 19t13 28t33 11z" />
    <glyph glyph-name="Tcaron" unicode="&#x164;" horiz-adv-x="603" 
d="M635 674h22q-9 -52 -23 -176l-31 -3q2 61 -11 90q-8 18 -29 24t-78 6h-61l-93 -495q-11 -60 2 -74t81 -19l-6 -27h-272l6 27q63 4 79 18.5t27 74.5l95 495h-52q-62 0 -85 -6t-37 -23q-21 -25 -50 -91l-30 1q31 99 48 178h21q7 -17 16.5 -21t31.5 -4h376q19 0 29 5t24 20z
M529 813l14 -22q-81 -54 -136 -104h-25q-41 51 -103 104l19 22q50 -22 106 -58q73 39 125 58z" />
    <glyph glyph-name="tcaron" unicode="&#x165;" horiz-adv-x="307" 
d="M338 430l-26 -35l-100 -4l-58 -273q-13 -60 6 -60q12 0 41 19t48 39l15 -22q-31 -37 -78.5 -71.5t-83.5 -34.5q-13 0 -20.5 11.5t-9.5 40.5t10 80l58 270h-74l-3 9l25 31h61l23 94l75 63l10 -7l-36 -150h117zM362 672h1q20 0 34 -17.5t14 -46.5q0 -42 -29 -70.5
t-71 -40.5l-10 26q55 26 55 58q0 23 -24 34q-9 5 -9 20q0 14 11.5 25.5t27.5 11.5z" />
    <glyph glyph-name="Tbar" unicode="&#x166;" horiz-adv-x="599" 
d="M636 674h20q-9 -52 -23 -176l-31 -3q0 62 -13 91q-8 19 -29 24t-79 5h-58l-49 -266h145l-10 -37h-142l-36 -193q-6 -33 -7 -48.5t9.5 -25.5t26 -12.5t53.5 -5.5l-6 -27h-272l6 27q64 4 79 17.5t27 74.5l38 193h-134l9 37h131l51 266h-43q-62 0 -89 -6t-41 -23
q-22 -27 -50 -91l-30 1q32 103 47 178h20q7 -17 16.5 -21t31.5 -4h379q19 0 28.5 5t24.5 20z" />
    <glyph glyph-name="tbar" unicode="&#x167;" horiz-adv-x="309" 
d="M343 430l-26 -34l-100 -5l-29 -131h98l-13 -36h-93l-22 -106q-13 -60 6 -60q12 0 40.5 19t47.5 39l15 -21q-31 -37 -78 -72t-82 -35q-13 0 -21 11.5t-10.5 41t9.5 80.5l23 103h-72l13 36h67l28 131h-74l-3 9l25 30h62l23 94l76 63l10 -7l-37 -150h117z" />
    <glyph glyph-name="Utilde" unicode="&#x168;" horiz-adv-x="707" 
d="M773 649l-6 -27q-47 -2 -63.5 -13.5t-24.5 -40.5q-16 -56 -40 -180l-16 -78q-36 -184 -118 -260q-71 -65 -170 -65q-97 0 -154 53q-76 74 -45 242l48 253q11 58 1 71t-70 18l7 27h247l-6 -27q-58 -5 -72 -17.5t-25 -71.5l-46 -245q-25 -129 15.5 -190t121.5 -61
q90 0 144 67.5t83 213.5l14 70q24 127 26 180q2 30 -15 40.5t-72 13.5l6 27h230zM573 792l25 -16q-29 -80 -80 -80q-18 0 -68 23q-28 12 -41 12q-26 0 -48 -43l-24 18q33 81 80 79q19 0 59 -18q37 -16 51 -16q23 0 46 41z" />
    <glyph glyph-name="utilde" unicode="&#x169;" horiz-adv-x="533" 
d="M492 113l13 -23q-35 -42 -78.5 -72t-66.5 -30q-39 0 -15 106q7 30 19 88h-2q-78 -105 -161 -163q-43 -31 -81 -31q-63 0 -34 127q15 58 55 229q8 31 -2 33q-13 0 -70 -47l-12 24q43 42 85 68t63 26q17 0 19.5 -18.5t-8.5 -68.5q-24 -104 -56 -240q-15 -65 12 -65
q38 0 105 71.5t102 134.5q20 83 36 160l69 26h11q-49 -194 -79 -348q-6 -39 4 -39q7 0 29.5 16t42.5 36zM450 616l23 -12q-33 -85 -80 -85q-10 0 -19.5 2.5t-26 10.5t-22.5 10q-24 12 -42 12q-24 0 -47 -43l-23 15q33 84 80 84q19 0 58 -18q36 -17 53 -17q20 0 46 41z" />
    <glyph glyph-name="Umacron" unicode="&#x16a;" horiz-adv-x="707" 
d="M773 649l-6 -27q-47 -2 -63.5 -13.5t-24.5 -40.5q-16 -56 -40 -180l-16 -78q-36 -184 -118 -260q-71 -65 -170 -65q-97 0 -154 53q-76 74 -45 242l48 253q11 58 1 71t-70 18l7 27h247l-6 -27q-58 -5 -72 -17.5t-25 -71.5l-46 -245q-25 -129 15.5 -190t121.5 -61
q90 0 144 67.5t83 213.5l14 70q24 127 26 180q2 30 -15 40.5t-72 13.5l6 27h230zM587 764l-13 -51h-227l14 51h226z" />
    <glyph glyph-name="umacron" unicode="&#x16b;" horiz-adv-x="533" 
d="M492 113l13 -23q-35 -42 -78.5 -72t-66.5 -30q-39 0 -15 106q7 30 19 88h-2q-78 -105 -161 -163q-43 -31 -81 -31q-63 0 -34 127q15 58 55 229q8 31 -2 33q-13 0 -70 -47l-12 24q43 42 85 68t63 26q17 0 19.5 -18.5t-8.5 -68.5q-24 -104 -56 -240q-15 -65 12 -65
q38 0 105 71.5t102 134.5q20 83 36 160l69 26h11q-49 -194 -79 -348q-6 -39 4 -39q7 0 29.5 16t42.5 36zM446 585l-12 -51h-224l13 51h223z" />
    <glyph glyph-name="Ubreve" unicode="&#x16c;" horiz-adv-x="707" 
d="M773 649l-6 -27q-47 -2 -63.5 -13.5t-24.5 -40.5q-16 -56 -40 -180l-16 -78q-36 -184 -118 -260q-71 -65 -170 -65q-97 0 -154 53q-76 74 -45 242l48 253q11 58 1 71t-70 18l7 27h247l-6 -27q-58 -5 -72 -17.5t-25 -71.5l-46 -245q-25 -129 15.5 -190t121.5 -61
q90 0 144 67.5t83 213.5l14 70q24 127 26 180q2 30 -15 40.5t-72 13.5l6 27h230zM559 799h30q-9 -56 -44.5 -86t-89.5 -30q-51 0 -78.5 30.5t-22.5 85.5h30q10 -59 79 -59q67 0 96 59z" />
    <glyph glyph-name="ubreve" unicode="&#x16d;" horiz-adv-x="533" 
d="M492 113l13 -23q-35 -42 -78.5 -72t-66.5 -30q-39 0 -15 106q7 30 19 88h-2q-78 -105 -161 -163q-43 -31 -81 -31q-63 0 -34 127q15 58 55 229q8 31 -2 33q-13 0 -70 -47l-12 24q43 42 85 68t63 26q17 0 19.5 -18.5t-8.5 -68.5q-24 -104 -56 -240q-15 -65 12 -65
q38 0 105 71.5t102 134.5q20 83 36 160l69 26h11q-49 -194 -79 -348q-6 -39 4 -39q7 0 29.5 16t42.5 36zM440 636h25q-11 -70 -47 -100.5t-85 -30.5t-75 30.5t-14 100.5h25q1 -36 20 -55t52 -19q71 0 99 74z" />
    <glyph glyph-name="Uring" unicode="&#x16e;" horiz-adv-x="707" 
d="M773 649l-6 -27q-47 -2 -63.5 -13.5t-24.5 -40.5q-16 -56 -40 -180l-16 -78q-36 -184 -118 -260q-71 -65 -170 -65q-97 0 -154 53q-76 74 -45 242l48 253q11 58 1 71t-70 18l7 27h247l-6 -27q-58 -5 -72 -17.5t-25 -71.5l-46 -245q-25 -129 15.5 -190t121.5 -61
q90 0 144 67.5t83 213.5l14 70q24 127 26 180q2 30 -15 40.5t-72 13.5l6 27h230zM556 759q-1 -38 -29 -62t-66 -24q-35 0 -57.5 22t-21.5 56q1 41 29 66t65 25q34 0 57.5 -22.5t22.5 -60.5zM511 760v1q1 21 -9 34.5t-29 13.5q-20 0 -32.5 -15.5t-13.5 -39.5q-1 -21 9 -34
t29 -13t32 15t14 38z" />
    <glyph glyph-name="uring" unicode="&#x16f;" horiz-adv-x="533" 
d="M492 113l13 -23q-35 -42 -78.5 -72t-66.5 -30q-39 0 -15 106q7 30 19 88h-2q-78 -105 -161 -163q-43 -31 -81 -31q-63 0 -34 127q15 58 55 229q8 31 -2 33q-13 0 -70 -47l-12 24q43 42 85 68t63 26q17 0 19.5 -18.5t-8.5 -68.5q-24 -104 -56 -240q-15 -65 12 -65
q38 0 105 71.5t102 134.5q20 83 36 160l69 26h11q-49 -194 -79 -348q-6 -39 4 -39q7 0 29.5 16t42.5 36zM347 664h1q34 0 57.5 -23t22.5 -62t-30 -62.5t-67 -23.5q-37 0 -59.5 22.5t-21.5 57.5q1 41 30 66t67 25zM343 631h-1q-19 0 -32 -15.5t-14 -39.5q-1 -22 9.5 -36
t29.5 -14t32.5 15.5t14.5 39.5q1 22 -9.5 36t-29.5 14z" />
    <glyph glyph-name="Uhungarumlaut" unicode="&#x170;" horiz-adv-x="707" 
d="M773 649l-6 -27q-47 -2 -63.5 -13.5t-24.5 -40.5q-16 -56 -40 -180l-16 -78q-36 -184 -118 -260q-71 -65 -170 -65q-97 0 -154 53q-76 74 -45 242l48 253q11 58 1 71t-70 18l7 27h247l-6 -27q-58 -5 -72 -17.5t-25 -71.5l-46 -245q-25 -129 15.5 -190t121.5 -61
q90 0 144 67.5t83 213.5l14 70q24 127 26 180q2 30 -15 40.5t-72 13.5l6 27h230zM489 805v-14l-105 -107l-24 15q33 63 63 124q11 2 34.5 -4.5t31.5 -13.5zM625 805v-14l-105 -107l-24 15q47 93 62 124q12 2 36 -5t31 -13z" />
    <glyph glyph-name="uhungarumlaut" unicode="&#x171;" horiz-adv-x="533" 
d="M492 113l13 -23q-35 -42 -78.5 -72t-66.5 -30q-39 0 -15 106q7 30 19 88h-2q-78 -105 -161 -163q-43 -31 -81 -31q-63 0 -34 127q15 58 55 229q8 31 -2 33q-13 0 -70 -47l-12 24q43 42 85 68t63 26q17 0 19.5 -18.5t-8.5 -68.5q-24 -104 -56 -240q-15 -65 12 -65
q38 0 105 71.5t102 134.5q20 83 36 160l69 26h11q-49 -194 -79 -348q-6 -39 4 -39q7 0 29.5 16t42.5 36zM366 647l-115 -158l-26 16q57 131 63 149q11 2 38 3.5t37 -0.5zM499 647l-115 -158l-24 16q46 104 62 149q11 2 38 3.5t37 -0.5z" />
    <glyph glyph-name="Uogonek" unicode="&#x172;" horiz-adv-x="707" 
d="M773 649l-6 -27q-47 -2 -63.5 -13.5t-25.5 -40.5q-11 -40 -40 -180l-15 -77q-36 -184 -118 -260q-47 -44 -113 -59q-96 -76 -96 -143q0 -16 11.5 -26t30.5 -10q20 0 46 11l8 -27l-55 -28q-19 -11 -40 -11q-31 0 -51 18t-20 50q0 74 112 159v1q-100 -2 -158 53
q-76 71 -44 242l48 252q11 58 1 71t-70 18l7 27h247l-6 -27q-58 -5 -72 -17.5t-25 -71.5l-46 -245q-25 -129 15.5 -189.5t122.5 -60.5q89 0 142.5 67t82.5 213l14 70q23 114 27 180q1 30 -16 40.5t-72 13.5l7 27h230z" />
    <glyph glyph-name="uogonek" unicode="&#x173;" horiz-adv-x="532" 
d="M492 113l13 -23q-64 -75 -122 -96q-92 -72 -92 -144q0 -14 10 -23.5t26 -9.5q20 0 46 12l8 -27l-54 -30q-20 -10 -41 -10q-28 0 -46.5 17.5t-18.5 47.5q0 39 35 86.5t89 87.5q-15 23 0 93q9 40 19 88h-2q-76 -104 -160 -163q-43 -31 -83 -31q-62 0 -33 127q19 77 55 229
q8 33 -3 33q-12 0 -69 -47l-12 24q43 42 85 68t63 26q17 0 19.5 -18.5t-9.5 -68.5q-39 -169 -56 -239q-15 -65 13 -65q39 0 106 71.5t101 134.5q19 81 36 159l69 26h11q-49 -193 -79 -347q-6 -39 4 -39q7 0 29.5 15.5t42.5 35.5z" />
    <glyph glyph-name="Wcircumflex" unicode="&#x174;" horiz-adv-x="949" 
d="M1009 649l-6 -27q-50 -7 -66 -20t-47 -73q-43 -81 -255 -540h-31l-81 497h-3l-239 -497h-30l-61 537q-7 63 -18.5 76.5t-62.5 19.5l6 27h226l-7 -27l-24 -4q-31 -5 -38 -15.5t-3 -50.5l43 -417h3l236 502h29l83 -503h2q155 338 186 419q14 38 8 49t-44 16l-26 4l6 27h214
zM699 703l-18 -22q-47 19 -107 58q-77 -41 -126 -58l-13 22q71 45 136 104h25q41 -51 103 -104z" />
    <glyph glyph-name="wcircumflex" unicode="&#x175;" horiz-adv-x="670" 
d="M457 91h2q141 189 142 256q0 27 -11 47q-5 9 0 25q14 29 41 29q19 0 31 -16t12 -41q0 -37 -41 -105q-55 -87 -211 -298h-28q-9 122 -28 311h-2q-54 -90 -191 -311h-26q-1 111 -10 321q-3 66 -15 66t-60 -51l-16 20q79 104 127 104q33 0 36 -99q4 -164 3 -236h2
q20 35 58.5 99t70 118.5t57.5 101.5h25q5 -46 15 -162t17 -179zM522 504l-23 -17q-32 37 -71 96q-59 -59 -108 -96l-20 18q83 93 130 162h22q25 -77 70 -163z" />
    <glyph glyph-name="Ycircumflex" unicode="&#x176;" horiz-adv-x="611" 
d="M686 649l-8 -27q-48 -5 -68 -17t-57 -58q-67 -84 -165 -226q-17 -23 -24 -56l-28 -141q-13 -63 -0.5 -77t80.5 -20l-7 -27h-266l7 27q61 5 76.5 19t28.5 78l26 135q7 28 -5 59q-26 72 -88 234q-17 44 -30.5 54.5t-61.5 15.5l7 27h231l-6 -27l-35 -4q-25 -4 -30.5 -12
t2.5 -30q55 -154 92 -242q131 187 160 236q15 26 10.5 34.5t-33.5 13.5l-31 4l7 27h216zM539 706l-18 -22q-47 19 -107 58q-77 -41 -126 -58l-13 22q71 45 136 104h25q41 -51 103 -104z" />
    <glyph glyph-name="ycircumflex" unicode="&#x177;" horiz-adv-x="442" 
d="M239 75h2q135 204 135 274q-1 21 -12 47q-5 12 2 24q5 12 17 20t25 8q17 0 28 -15t12 -40q0 -43 -36 -106q-73 -132 -181 -282q-102 -149 -180 -235l-104 -27l-8 22q136 89 235 224q-2 135 -31 325q-7 62 -21 62q-6 0 -23 -16.5t-35 -41.5l-17 23q28 43 60.5 75t57.5 32
q39 0 52 -118q12 -96 22 -255zM395 504l-23 -17q-32 37 -71 96q-59 -59 -108 -96l-20 18q83 93 130 162h22q25 -77 70 -163z" />
    <glyph glyph-name="Ydieresis" unicode="&#x178;" horiz-adv-x="611" 
d="M686 649l-8 -27q-48 -5 -68 -17t-57 -58q-67 -84 -165 -226q-17 -23 -24 -56l-28 -141q-13 -63 -0.5 -77t80.5 -20l-7 -27h-266l7 27q61 5 76.5 19t28.5 78l26 135q7 28 -5 59q-26 72 -88 234q-17 44 -30.5 54.5t-61.5 15.5l7 27h231l-6 -27l-35 -4q-25 -4 -30.5 -12
t2.5 -30q55 -154 92 -242q131 187 160 236q15 26 10.5 34.5t-33.5 13.5l-31 4l7 27h216zM320 790h1q18 0 28 -12t10 -30q0 -23 -14.5 -39t-35.5 -16q-17 0 -28 11.5t-11 29.5q0 21 14 38.5t36 17.5zM506 790h1q18 0 28 -12t10 -30q0 -23 -14.5 -39t-35.5 -16q-17 0 -28 11.5
t-11 29.5q0 21 14 38.5t36 17.5z" />
    <glyph glyph-name="Zacute" unicode="&#x179;" horiz-adv-x="588" 
d="M611 649l6 -13q-284 -340 -491 -597q67 -5 155 -5q81 0 121.5 5.5t62.5 25.5q32 27 74 111l28 -13q-45 -132 -60 -163h-499l-7 15q264 315 496 600h-158q-71 0 -96.5 -7.5t-41.5 -27.5q-24 -30 -50 -95l-29 2q25 92 41 187h21q9 -16 18.5 -20.5t31.5 -4.5h377zM532 755
l-2 -8l-187 -63l-13 25q41 25 161 101q9 -2 24 -22.5t17 -32.5z" />
    <glyph glyph-name="zacute" unicode="&#x17a;" horiz-adv-x="418" 
d="M420 463l21 -22q-21 -26 -58 -67q-42 -48 -270 -282q27 3 76 -16q68 -24 90 -24q46 0 102 85l22 -18q-39 -78 -71 -108.5t-67 -30.5q-37 0 -133 49q-43 20 -63 5q-17 -11 -31 -35q-5 -8 -12 -8q-24 37 35 100q28 29 127.5 129t150.5 155q-27 -5 -61 -2q-78 6 -95 6
q-32 0 -52.5 -20.5t-46.5 -64.5l-25 12q17 41 40 80q36 59 74 59q29 0 106 -11q51 -9 80 -9q27 0 61 38zM409 661l-155 -170l-23 16q61 96 92 155q9 3 40.5 7t42.5 3z" />
    <glyph glyph-name="Zdotaccent" unicode="&#x17b;" horiz-adv-x="588" 
d="M611 649l6 -13q-284 -340 -491 -597q67 -5 155 -5q81 0 121.5 5.5t62.5 25.5q32 27 74 111l28 -13q-45 -132 -60 -163h-499l-7 15q264 315 496 600h-158q-71 0 -96.5 -7.5t-41.5 -27.5q-24 -30 -50 -95l-29 2q25 92 41 187h21q9 -16 18.5 -20.5t31.5 -4.5h377zM385 801h1
q19 0 29.5 -13t10.5 -32q0 -24 -15 -41t-37 -17q-18 0 -30 12.5t-12 31.5q0 22 14.5 40.5t38.5 18.5z" />
    <glyph glyph-name="zdotaccent" unicode="&#x17c;" horiz-adv-x="418" 
d="M420 463l21 -22q-21 -26 -58 -67q-42 -48 -270 -282q27 3 76 -16q68 -24 90 -24q46 0 102 85l22 -18q-39 -78 -71 -108.5t-67 -30.5q-37 0 -133 49q-43 20 -63 5q-17 -11 -31 -35q-5 -8 -12 -8q-24 37 35 100q28 29 127.5 129t150.5 155q-27 -5 -61 -2q-78 6 -95 6
q-32 0 -52.5 -20.5t-46.5 -64.5l-25 12q17 41 40 80q36 59 74 59q29 0 106 -11q51 -9 80 -9q27 0 61 38zM290 625h1q19 0 29.5 -13t10.5 -32q0 -24 -15 -41t-37 -17q-18 0 -30 12.5t-12 31.5q0 21 14.5 40t38.5 19z" />
    <glyph glyph-name="Zcaron" unicode="&#x17d;" horiz-adv-x="588" 
d="M611 649l6 -13q-284 -340 -491 -597q67 -5 155 -5q81 0 121.5 5.5t62.5 25.5q32 27 74 111l28 -13q-45 -132 -60 -163h-499l-7 15q264 315 496 600h-158q-71 0 -96.5 -7.5t-41.5 -27.5q-24 -30 -50 -95l-29 2q25 92 41 187h21q9 -16 18.5 -20.5t31.5 -4.5h377zM511 814
l14 -22q-81 -54 -136 -104h-25q-41 51 -103 104l19 22q50 -22 106 -58q73 39 125 58z" />
    <glyph glyph-name="zcaron" unicode="&#x17e;" horiz-adv-x="418" 
d="M420 463l21 -22q-21 -26 -58 -67q-42 -48 -270 -282q27 3 76 -16q68 -24 90 -24q46 0 102 85l22 -18q-39 -78 -71 -108.5t-67 -30.5q-37 0 -133 49q-43 20 -63 5q-17 -11 -31 -35q-5 -8 -12 -8q-24 37 35 100q28 29 127.5 129t150.5 155q-27 -5 -61 -2q-78 6 -95 6
q-32 0 -52.5 -20.5t-46.5 -64.5l-25 12q17 41 40 80q36 59 74 59q29 0 106 -11q51 -9 80 -9q27 0 61 38zM384 671l22 -18q-76 -84 -130 -161h-22q-24 73 -71 162l25 17q39 -47 69 -96q62 62 107 96z" />
    <glyph glyph-name="longs" unicode="&#x17f;" horiz-adv-x="228" 
d="M346 712h1q24 0 41.5 -14.5t16.5 -28.5q-1 -24 -27 -43q-14 -11 -22 0q-33 33 -63 33t-54 -52.5t-47 -195.5q-45 -273 -57 -330q-23 -112 -50.5 -173t-70.5 -104q-59 -61 -113 -61q-22 0 -42 13.5t-20 29.5q0 20 27 42q12 10 21 1q27 -25 61 -25q26 0 42 19q35 35 71 250
q40 253 44 273q35 199 108 287q28 35 65 57t68 22z" />
    <glyph glyph-name="florin" unicode="&#x192;" horiz-adv-x="477" 
d="M210 370l13 53q25 110 101 174q67 55 119 55q21 0 38.5 -13t17.5 -28q0 -23 -21 -38q-12 -9 -21 0q-34 29 -64 29q-25 0 -45 -27q-23 -32 -56 -205h121l-11 -36h-117l-41 -191q-37 -176 -130 -243q-53 -38 -91 -38q-20 0 -36.5 13t-16.5 27q0 20 24 40q9 9 19 0
q29 -27 60 -27q29 0 45 37q22 54 44 171l39 211h-96l10 36h95z" />
    <glyph glyph-name="AEacute" unicode="&#x1fc;" horiz-adv-x="864" 
d="M850 498l-29 -2q0 63 -14 88q-8 18 -28 24.5t-74 6.5h-75q-25 0 -30.5 -5.5t-10.5 -32.5l-47 -242h97q63 0 81 11.5t36 62.5h29l-38 -191h-29q1 55 -11.5 66.5t-77.5 11.5h-94l-28 -156q-15 -76 5 -92q18 -14 102 -14q56 0 82.5 6.5t47.5 26.5q30 28 67 94l28 -9
q-3 -8 -16.5 -42t-26 -65.5t-18.5 -44.5h-470l6 26q62 5 78.5 19.5t29.5 76.5l34 174h-174q-101 -147 -135 -207q-18 -32 -14 -42.5t36 -15.5l31 -4l-6 -27h-231l6 27q49 6 71 19t57 61q69 93 195.5 273t137.5 195q16 23 11 30t-37 10l-53 6l9 28h507q-6 -54 -17 -151z
M308 335h155l56 279q-13 0 -29 -15q-65 -91 -182 -264zM757 755l-2 -8l-187 -63l-13 25q41 25 161 101q9 -2 24 -22.5t17 -32.5z" />
    <glyph glyph-name="aeacute" unicode="&#x1fd;" horiz-adv-x="664" 
d="M613 128l16 -22q-111 -117 -218 -117q-41 0 -72 32t-30 109q0 15 1 23l-2 1q-45 -62 -118 -120q-56 -45 -96 -45q-20 0 -38 26.5t-18 83.5q0 77 31 151.5t82 118.5q39 34 92 56.5t98 22.5q22 0 43 -6q15 -2 39 -2l4 -4l-14 -58l2 -1q32 32 76 51.5t77 19.5q39 0 62.5 -23
t23.5 -56q0 -44 -44.5 -82.5t-101.5 -61t-123 -37.5q-1 -6 -1 -36q0 -43 17 -73t56 -30q76 0 156 79zM297 404h-1q-42 0 -65 -15q-43 -28 -72 -96q-38 -83 -38 -173q0 -63 26 -63q15 0 41 17t51 44q59 65 82 113q28 79 39 159q-25 14 -63 14zM530 404h-1q-27 0 -50 -14
q-27 -16 -52.5 -58t-37.5 -111q103 26 146 58.5t44 74.5q0 25 -13.5 37.5t-35.5 12.5zM546 661l-155 -170l-23 16q61 96 92 155q9 3 40.5 7t42.5 3z" />
    <glyph glyph-name="Oslashacute" unicode="&#x1fe;" horiz-adv-x="708" 
d="M630 693l28 -22l-51 -70q89 -81 89 -223q0 -164 -105 -278.5t-263 -114.5q-80 0 -142 40l-51 -68l-26 25l48 65q-91 81 -91 221q0 104 47.5 195t132 146t185.5 55q86 0 148 -41zM199 103l346 473q-38 53 -121 53q-77 0 -139 -56.5t-93.5 -139t-31.5 -170.5
q0 -103 39 -160zM566 544l-345 -472q43 -53 118 -53q79 0 141 58t92 140.5t30 167.5q0 99 -36 159zM566 764l-2 -8l-187 -63l-13 25q41 25 161 101q9 -2 24 -22.5t17 -32.5z" />
    <glyph glyph-name="oslashacute" unicode="&#x1ff;" horiz-adv-x="472" 
d="M417 483l25 -20l-38 -52q37 -40 37 -120q0 -64 -28.5 -130.5t-78.5 -108.5q-31 -27 -75 -45.5t-84 -18.5q-43 0 -68 18l-38 -52l-23 21l37 50q-37 41 -37 117q0 94 41.5 164.5t104.5 105.5q66 36 117 36q44 0 70 -18zM133 93l208 281q-20 35 -65 35q-20 0 -38 -8
q-38 -15 -75.5 -80.5t-38.5 -167.5q0 -26 9 -60zM356 342l-208 -280q21 -35 60 -35q18 0 37 7q44 17 81.5 90.5t36.5 165.5q0 31 -7 52zM421 661l-155 -170l-23 16q61 96 92 155q9 3 40.5 7t42.5 3z" />
    <glyph glyph-name="uni0218" unicode="&#x218;" horiz-adv-x="468" 
d="M38 194l27 3q6 -43 21.5 -80.5t52 -68t87.5 -30.5q54 0 88 35t34 94q0 40 -22.5 71.5t-71.5 70.5l-29 22q-31 25 -50.5 43.5t-40 55.5t-20.5 75q0 78 56.5 128.5t146.5 50.5q45 0 95 -16q40 -15 43 -16q-2 -25 -2 -77.5v-63.5l-29 -3q-15 143 -120 143q-51 0 -81.5 -34
t-30.5 -82q0 -40 23 -69.5t70 -64.5l30 -23q57 -42 86.5 -85t29.5 -98q0 -84 -64 -137t-154 -53q-55 0 -104 19.5t-68 41.5q0 11 -1 60.5t-2 87.5zM212 -52h1q24 0 41 -18t17 -46q1 -48 -34.5 -76t-82.5 -38l-9 27q68 24 68 58q0 24 -35 35q-12 2 -12 19t13 28t33 11z" />
    <glyph glyph-name="uni0219" unicode="&#x219;" horiz-adv-x="337" 
d="M246 448h1q31 0 54 -18t23 -38q0 -26 -25 -41q-13 -8 -22 4q-36 45 -78 45q-22 0 -38 -15.5t-16 -40.5q0 -24 16.5 -44t49.5 -45q45 -34 64 -59.5t19 -56.5q0 -56 -59.5 -103.5t-121.5 -47.5q-36 0 -68.5 23t-32.5 49q-1 24 29 42q17 8 25 -3q41 -61 96 -61q29 0 48 17.5
t19 42.5q0 20 -12.5 38.5t-46.5 45.5q-41 30 -64 58t-23 63q0 51 52 97q24 20 55.5 34t55.5 14zM117 -44h1q24 0 41 -18t17 -46q1 -48 -34.5 -76t-82.5 -38l-9 27q68 24 68 58q0 24 -35 35q-12 2 -12 19t13 28t33 11z" />
    <glyph glyph-name="uni021A" unicode="&#x21a;" horiz-adv-x="603" 
d="M635 674h22q-9 -52 -23 -176l-31 -3q2 61 -11 90q-8 18 -29 24t-78 6h-61l-93 -495q-11 -60 2 -74t81 -19l-6 -27h-272l6 27q63 4 79 18.5t27 74.5l95 495h-52q-62 0 -85 -6t-37 -23q-21 -25 -50 -91l-30 1q31 99 48 178h21q7 -17 16.5 -21t31.5 -4h376q19 0 29 5t24 20z
M265 -40h1q24 0 41 -18t17 -46q1 -48 -34.5 -76t-82.5 -38l-9 27q68 24 68 58q0 24 -35 35q-12 2 -12 19t13 28t33 11z" />
    <glyph glyph-name="uni021B" unicode="&#x21b;" horiz-adv-x="307" 
d="M338 430l-26 -35l-100 -4l-58 -273q-13 -60 6 -60q12 0 41 19t48 39l15 -22q-31 -37 -78.5 -71.5t-83.5 -34.5q-13 0 -20.5 11.5t-9.5 40.5t10 80l58 270h-74l-3 9l25 31h61l23 94l75 63l10 -7l-36 -150h117zM116 -40h1q24 0 41 -18t17 -46q1 -48 -34.5 -76t-82.5 -38
l-9 27q68 24 68 58q0 24 -35 35q-12 2 -12 19t13 28t33 11z" />
    <glyph glyph-name="circumflex" unicode="&#x2c6;" 
d="M373 504l-23 -17q-32 37 -71 96q-59 -59 -108 -96l-20 18q83 93 130 162h22q25 -77 70 -163z" />
    <glyph glyph-name="caron" unicode="&#x2c7;" 
d="M377 671l22 -18q-76 -84 -130 -161h-22q-24 73 -71 162l25 17q39 -47 69 -96q62 62 107 96z" />
    <glyph glyph-name="uni02C9" unicode="&#x2c9;" 
d="M377 585l-12 -51h-224l13 51h223z" />
    <glyph glyph-name="breve" unicode="&#x2d8;" 
d="M362 636h25q-11 -70 -47 -100.5t-85 -30.5t-75 30.5t-14 100.5h25q1 -36 20 -55t52 -19q71 0 99 74z" />
    <glyph glyph-name="dotaccent" unicode="&#x2d9;" 
d="M275 625h1q19 0 29.5 -13t10.5 -32q0 -24 -15 -41t-37 -17q-18 0 -30 12.5t-12 31.5q0 21 14.5 40t38.5 19z" />
    <glyph glyph-name="ring" unicode="&#x2da;" 
d="M279 664h1q34 0 57.5 -23t22.5 -62t-30 -62.5t-67 -23.5q-37 0 -59.5 22.5t-21.5 57.5q1 41 30 66t67 25zM275 631h-1q-19 0 -32 -15.5t-14 -39.5q-1 -22 9.5 -36t29.5 -14t32.5 15.5t14.5 39.5q1 22 -9.5 36t-29.5 14z" />
    <glyph glyph-name="ogonek" unicode="&#x2db;" 
d="M257 -151l8 -27l-51 -27q-17 -10 -38 -10q-29 0 -48 17t-19 46q0 60 125 153h41q-98 -83 -98 -130q0 -32 35 -32q19 0 45 10z" />
    <glyph glyph-name="tilde" unicode="&#x2dc;" 
d="M371 616l23 -12q-33 -85 -80 -85q-10 0 -19.5 2.5t-26 10.5t-22.5 10q-24 12 -42 12q-24 0 -47 -43l-23 15q33 84 80 84q19 0 58 -18q36 -17 53 -17q20 0 46 41z" />
    <glyph glyph-name="hungarumlaut" unicode="&#x2dd;" 
d="M254 647l-115 -158l-26 16q57 131 63 149q11 2 38 3.5t37 -0.5zM387 647l-115 -158l-24 16q46 104 62 149q11 2 38 3.5t37 -0.5z" />
    <glyph glyph-name="uni0374" unicode="&#x374;" horiz-adv-x="235" 
d="M272 647l-1 -16q-56 -99 -131 -217l-22 10q49 135 80 234q11 3 38.5 -1t35.5 -10z" />
    <glyph glyph-name="uni0375" unicode="&#x375;" horiz-adv-x="235" 
d="M145 118l-1 -16q-73 -129 -129 -220l-26 11q62 171 82 236q10 2 37.5 -2t36.5 -9z" />
    <glyph glyph-name="uni037E" unicode="&#x37e;" horiz-adv-x="235" 
d="M139 275h-1q-23 0 -38 16.5t-15 41.5q0 30 18.5 49.5t46.5 19.5q23 0 38.5 -17t15.5 -42q0 -31 -19.5 -49.5t-45.5 -18.5zM145 119l-1 -17q-57 -102 -131 -219l-22 13q46 125 80 234q9 2 37 -2t37 -9z" />
    <glyph glyph-name="tonos" unicode="&#x384;" horiz-adv-x="397" 
d="M328 659l-106 -171l-25 14q35 110 50 165q10 3 40.5 4.5t39.5 -0.5z" />
    <glyph glyph-name="dieresistonos" unicode="&#x385;" 
d="M359 513h-1q-17 0 -28 11.5t-11 30.5q0 21 13.5 37.5t36.5 16.5q18 0 28 -12t10 -31q0 -22 -14 -37.5t-34 -15.5zM335 661l-100 -172l-29 9q11 33 28 91.5t21 70.5q8 4 37.5 7.5t39.5 2.5zM144 513h-1q-17 0 -28 11.5t-11 30.5q0 21 13.5 37.5t36.5 16.5q18 0 28 -12
t10 -31q0 -22 -14 -37.5t-34 -15.5z" />
    <glyph glyph-name="Alphatonos" unicode="&#x386;" horiz-adv-x="664" 
d="M621 27l-7 -27h-236l7 27q50 5 61 16t6 45q-2 18 -25 148h-209q-40 -75 -69 -136q-21 -45 -12.5 -56.5t66.5 -16.5l-6 -27h-215l7 27q48 6 66 20.5t53 75.5l300 533l31 8l28 -178q26 -167 64 -372q9 -54 23 -68t67 -19zM421 278l-40 258h-2q-101 -185 -139 -258h181z
M279 689l-106 -171l-25 14q35 110 50 165q10 3 40.5 4.5t39.5 -0.5z" />
    <glyph glyph-name="anoteleia" unicode="&#x387;" horiz-adv-x="235" 
d="M129 214h-1q-23 0 -38.5 16.5t-15.5 41.5q0 31 18 50.5t47 19.5q24 0 39.5 -16.5t15.5 -42.5q0 -32 -19.5 -50.5t-45.5 -18.5z" />
    <glyph glyph-name="Epsilontonos" unicode="&#x388;" horiz-adv-x="559" 
d="M129 649h434q-4 -25 -19 -154l-29 -2q0 65 -13 89q-8 19 -26.5 26t-70.5 7h-78q-25 0 -31.5 -6.5t-11.5 -34.5l-43 -216h97q61 0 78.5 11t35.5 61h29l-38 -189h-29q2 55 -10 66.5t-75 11.5h-95l-33 -176q-15 -80 4 -95q17 -14 101 -14q56 0 83.5 7t48.5 27q27 26 68 96
l28 -10q-45 -116 -64 -154h-468l6 27q62 5 78 19t27 73l80 410q11 60 0.5 74t-72.5 19zM84 689l-106 -171l-25 14q35 110 50 165q10 3 40.5 4.5t39.5 -0.5z" />
    <glyph glyph-name="Etatonos" unicode="&#x389;" horiz-adv-x="742" 
d="M787 649l-7 -27q-57 -5 -71.5 -19t-26.5 -76l-77 -405q-12 -61 -1 -75.5t71 -19.5l-6 -27h-254l7 27q59 5 74.5 19.5t26.5 74.5l38 202h-327l-38 -201q-11 -62 -0.5 -76t71.5 -19l-6 -27h-248l6 27q55 5 69.5 19.5t25.5 75.5l78 405q12 62 1.5 76t-72.5 19l7 27h247
l-6 -27q-54 -5 -69 -20t-27 -75l-30 -162h326l31 162q12 62 2 75.5t-69 19.5l6 27h248zM86 689l-106 -171l-25 14q35 110 50 165q10 3 40.5 4.5t39.5 -0.5z" />
    <glyph glyph-name="Iotatonos" unicode="&#x38a;" horiz-adv-x="335" 
d="M380 649l-6 -27q-59 -5 -73 -18t-25 -68l-80 -420q-11 -58 0 -71t73 -18l-6 -27h-256l7 27q58 4 73 18t26 71l82 420q10 55 -1.5 68t-74.5 18l6 27h255zM89 689l-106 -171l-25 14q35 110 50 165q10 3 40.5 4.5t39.5 -0.5z" />
    <glyph glyph-name="Omicrontonos" unicode="&#x38c;" horiz-adv-x="708" 
d="M429 664h1q119 0 192.5 -79.5t73.5 -206.5q0 -163 -104 -278t-261 -115q-118 0 -191.5 78.5t-73.5 204.5q0 160 105 278t258 118zM423 630h-1q-75 0 -136.5 -56.5t-93 -140.5t-31.5 -173q0 -107 45.5 -174t133.5 -67q79 0 140.5 58.5t91 141.5t29.5 169q0 108 -43 175
t-135 67zM140 679l-106 -171l-25 14q35 110 50 165q10 3 40.5 4.5t39.5 -0.5z" />
    <glyph glyph-name="Upsilontonos" unicode="&#x38e;" horiz-adv-x="646" 
d="M728 633l-9 -23q-7 1 -28 1q-36 0 -81.5 -27t-88.5 -82q-53 -66 -93.5 -158t-56.5 -180l-9 -45q-11 -59 2 -73.5t80 -18.5l-5 -27h-273l5 27q64 4 81.5 19t28.5 73l10 51q33 168 4 291q-34 146 -145 146q-35 0 -55 -7l-7 24q63 40 123 40q62 0 99.5 -47.5t50.5 -120.5
q18 -75 8 -197h3q40 117 92 197q45 75 99.5 121.5t105.5 46.5q35 0 59 -31zM62 689l-106 -171l-25 14q35 110 50 165q10 3 40.5 4.5t39.5 -0.5z" />
    <glyph glyph-name="Omegatonos" unicode="&#x38f;" horiz-adv-x="735" 
d="M665 137l27 -3l-43 -134h-250l-6 19l23.5 23.5l30.5 30.5t30.5 32.5t33 40t29 41.5t28.5 48.5t21 50t15.5 56.5t4.5 59q0 103 -45 165.5t-131 62.5q-74 0 -128.5 -48t-79.5 -118.5t-25 -151.5q0 -139 79 -294l-8 -17h-235l-2 135l26 1q9 -42 22 -55t39 -13h99
q-22 29 -35.5 49t-34.5 57t-31.5 76.5t-10.5 79.5q0 140 96.5 237t238.5 97q116 0 187 -72t71 -196q0 -26 -4.5 -50.5t-14.5 -48t-20 -42.5t-27 -40.5t-28.5 -35.5t-32.5 -33.5t-30.5 -28.5t-31 -27t-25.5 -22h90q32 0 46.5 11t41.5 58zM142 679l-106 -171l-25 14
q35 110 50 165q10 3 40.5 4.5t39.5 -0.5z" />
    <glyph glyph-name="iotadieresistonos" unicode="&#x390;" horiz-adv-x="249" 
d="M201 110l12 -22q-25 -33 -70.5 -66.5t-71.5 -33.5q-41 0 -17 102q24 106 74 336l76 22l3 -8q-43 -163 -80 -344q-7 -35 3 -35q17 0 71 49zM292 520h-1q-17 0 -28 11.5t-11 30.5q0 21 13.5 37.5t36.5 16.5q18 0 28 -12t10 -31q0 -22 -14 -37.5t-34 -15.5zM268 667
l-102 -171l-28 9q11 34 29.5 95t20.5 66q8 4 37.5 7.5t39.5 2.5zM77 520h-1q-17 0 -28 11.5t-11 30.5q0 21 13.5 37.5t36.5 16.5q18 0 28 -12t10 -31q0 -22 -14 -37.5t-34 -15.5z" />
    <glyph glyph-name="Alpha" unicode="&#x391;" horiz-adv-x="664" 
d="M621 27l-7 -27h-236l7 27q50 5 61 16t6 45q-2 18 -25 148h-209q-40 -75 -69 -136q-21 -45 -12.5 -56.5t66.5 -16.5l-6 -27h-215l7 27q48 6 66 20.5t53 75.5l300 533l31 8l28 -178q26 -167 64 -372q9 -54 23 -68t67 -19zM421 278l-40 258h-2q-101 -185 -139 -258h181z" />
    <glyph glyph-name="Beta" unicode="&#x392;" horiz-adv-x="579" 
d="M131 649h234q188 0 188 -138q0 -64 -45 -103t-117 -54v-2q64 -13 105 -52t41 -104q0 -53 -31.5 -95t-83.5 -66q-71 -35 -201 -35h-214l7 27q58 5 73.5 19t26.5 74l82 418q11 54 0.5 66.5t-71.5 17.5zM242 367h51q81 0 125.5 38.5t44.5 104.5q0 58 -34 82.5t-84 24.5
q-33 0 -46 -9t-20 -45zM235 334l-39 -212q-10 -53 8 -70.5t70 -17.5q73 0 120 46t47 121q0 133 -157 133h-49z" />
    <glyph glyph-name="Gamma" unicode="&#x393;" horiz-adv-x="501" 
d="M127 649h424q-2 -20 -18 -153l-29 -3q-2 63 -16 92q-7 16 -26 23t-64 7h-73q-25 0 -31.5 -6t-11.5 -32l-87 -455q-12 -61 1.5 -74.5t86.5 -20.5l-7 -27h-270l7 27q58 7 73.5 21t26.5 74l79 404q11 63 0.5 76.5t-71.5 19.5z" />
    <glyph glyph-name="uni0394" unicode="&#x394;" horiz-adv-x="613" 
d="M546 24l-6 -24h-536l7 24l380 632l27 8zM456 48l-91 496l-284 -496h375z" />
    <glyph glyph-name="Epsilon" unicode="&#x395;" horiz-adv-x="559" 
d="M129 649h434q-4 -25 -19 -154l-29 -2q0 65 -13 89q-8 19 -26.5 26t-70.5 7h-78q-25 0 -31.5 -6.5t-11.5 -34.5l-43 -216h97q61 0 78.5 11t35.5 61h29l-38 -189h-29q2 55 -10 66.5t-75 11.5h-95l-33 -176q-15 -80 4 -95q17 -14 101 -14q56 0 83.5 7t48.5 27q27 26 68 96
l28 -10q-45 -116 -64 -154h-468l6 27q62 5 78 19t27 73l80 410q11 60 0.5 74t-72.5 19z" />
    <glyph glyph-name="Zeta" unicode="&#x396;" horiz-adv-x="588" 
d="M611 649l6 -13q-284 -340 -491 -597q67 -5 155 -5q81 0 121.5 5.5t62.5 25.5q32 27 74 111l28 -13q-45 -132 -60 -163h-499l-7 15q264 315 496 600h-158q-71 0 -96.5 -7.5t-41.5 -27.5q-24 -30 -50 -95l-29 2q25 92 41 187h21q9 -16 18.5 -20.5t31.5 -4.5h377z" />
    <glyph glyph-name="Eta" unicode="&#x397;" horiz-adv-x="742" 
d="M787 649l-7 -27q-57 -5 -71.5 -19t-26.5 -76l-77 -405q-12 -61 -1 -75.5t71 -19.5l-6 -27h-254l7 27q59 5 74.5 19.5t26.5 74.5l38 202h-327l-38 -201q-11 -62 -0.5 -76t71.5 -19l-6 -27h-248l6 27q55 5 69.5 19.5t25.5 75.5l78 405q12 62 1.5 76t-72.5 19l7 27h247
l-6 -27q-54 -5 -69 -20t-27 -75l-30 -162h326l31 162q12 62 2 75.5t-69 19.5l6 27h248z" />
    <glyph glyph-name="Theta" unicode="&#x398;" horiz-adv-x="711" 
d="M429 664h1q119 0 192.5 -80t73.5 -206q0 -162 -104 -277.5t-260 -115.5q-118 0 -191.5 78.5t-73.5 203.5q0 161 104.5 279t257.5 118zM424 630h-1q-76 0 -137 -56.5t-92.5 -140.5t-31.5 -174q0 -107 45.5 -173.5t133.5 -66.5q79 0 140 59t90.5 142t29.5 169
q0 108 -43 174.5t-134 66.5zM529 431l-35 -194h-28q2 41 -9 52.5t-46 11.5h-77q-34 0 -45.5 -10.5t-24.5 -53.5h-27l36 194h27q-3 -43 4 -53t42 -10h84q36 0 46.5 9.5t25.5 53.5h27z" />
    <glyph glyph-name="Iota" unicode="&#x399;" horiz-adv-x="335" 
d="M380 649l-6 -27q-59 -5 -73 -18t-25 -68l-80 -420q-11 -58 0 -71t73 -18l-6 -27h-256l7 27q58 4 73 18t26 71l82 420q10 55 -1.5 68t-74.5 18l6 27h255z" />
    <glyph glyph-name="Kappa" unicode="&#x39a;" horiz-adv-x="653" 
d="M715 649l-7 -26q-55 -8 -81 -19.5t-73 -48.5t-219 -186q89 -149 182 -275q28 -38 48 -50t62 -17l-7 -27h-144q-161 247 -187 290q-15 25 -28 31t-30 -2l-34 -191q-13 -67 -3 -81.5t69 -19.5l-5 -27h-246l7 27q55 5 69.5 20t27.5 81l76 397q12 62 2 76.5t-68 20.5l6 27
h242l-6 -27q-57 -6 -70.5 -20t-25.5 -77l-35 -177q34 11 75 45q100 82 202 183q22 21 20.5 29.5t-27.5 12.5l-29 4l6 27h231z" />
    <glyph glyph-name="Lambda" unicode="&#x39b;" horiz-adv-x="670" 
d="M620 27l-7 -27h-239l7 27q52 6 63.5 16.5t6.5 41.5q-15 92 -42.5 258t-31.5 191h-2q-167 -311 -223 -430q-21 -43 -11 -57.5t68 -19.5l-6 -27h-221l7 27q46 8 66 24t53 75l296 530l29 8q83 -477 97 -553q10 -51 24 -64.5t66 -19.5z" />
    <glyph glyph-name="Mu" unicode="&#x39c;" horiz-adv-x="876" 
d="M910 649l-7 -27q-65 -5 -78.5 -18t-23.5 -76q-22 -141 -54 -393q-4 -27 -5 -42t1.5 -28t5.5 -18t15 -10t22.5 -6.5t34.5 -3.5l-7 -27h-253l7 27q58 6 72.5 21.5t24.5 86.5q13 87 37.5 241t28.5 180h-2l-331 -552h-23q-50 279 -102 541h-2l-72 -263q-43 -159 -47 -192
q-5 -34 8.5 -46t67.5 -17l-6 -27h-226l7 27q43 4 62.5 16.5t31.5 44.5q24 63 72 229l56 190q21 74 10.5 91t-81.5 24l7 27h166q38 -183 109 -501l312 501h162z" />
    <glyph glyph-name="Nu" unicode="&#x39d;" horiz-adv-x="705" 
d="M766 649l-6 -27q-44 -3 -60.5 -16t-26.5 -47q-16 -50 -38 -170l-76 -397h-30l-296 530h-3l-52 -266q-23 -115 -26 -168q-1 -34 15.5 -45.5t69.5 -15.5l-6 -27h-229l7 27q40 2 59 14.5t29 44.5q16 51 41 173l52 246q7 39 6 54t-12 33q-9 16 -26 22t-58 8l6 27h143
l295 -509h4l46 249q23 120 27 172q2 34 -14.5 45.5t-72.5 15.5l7 27h225z" />
    <glyph glyph-name="Xi" unicode="&#x39e;" horiz-adv-x="577" 
d="M587 649l-20 -141h-27q-4 51 -13 64t-50 13h-227q-40 0 -54.5 -13.5t-37.5 -63.5h-27l34 141h422zM497 430l-39 -188h-28q2 41 -7.5 51.5t-47.5 10.5h-131q-38 0 -51 -10.5t-28 -52.5h-28l39 189h27q-2 -40 6 -50t42 -9h137q39 0 52 10t29 49h28zM528 161l-41 -161h-471
l22 161h27q10 -62 22 -77.5t61 -15.5h229q54 0 72.5 15.5t51.5 77.5h27z" />
    <glyph glyph-name="Omicron" unicode="&#x39f;" horiz-adv-x="708" 
d="M429 664h1q119 0 192.5 -79.5t73.5 -206.5q0 -163 -104 -278t-261 -115q-118 0 -191.5 78.5t-73.5 204.5q0 160 105 278t258 118zM423 630h-1q-75 0 -136.5 -56.5t-93 -140.5t-31.5 -173q0 -107 45.5 -174t133.5 -67q79 0 140.5 58.5t91 141.5t29.5 169q0 108 -43 175
t-135 67z" />
    <glyph glyph-name="Pi" unicode="&#x3a0;" horiz-adv-x="716" 
d="M762 649l-7 -27q-56 -5 -71.5 -20.5t-27.5 -76.5l-77 -401q-11 -61 0.5 -77t73.5 -20l-5 -27h-255l5 27q57 5 73 20.5t27 76.5l89 459q3 20 -2 25t-25 5h-237q-22 0 -28.5 -5.5t-10.5 -27.5l-88 -456q-12 -61 -0.5 -77t72.5 -20l-5 -27h-254l5 27q57 4 73 20t28 77
l78 401q12 61 0 76.5t-76 20.5l6 27h639z" />
    <glyph glyph-name="Rho" unicode="&#x3a1;" horiz-adv-x="554" 
d="M132 649h227q211 0 211 -168q0 -67 -38 -117.5t-90.5 -73.5t-110.5 -27q-13 -1 -38 -1l-67 21l-31 -158q-12 -63 0.5 -77.5t81.5 -20.5l-5 -27h-266l7 27q58 6 73 20.5t28 77.5l81 405q11 58 1 72t-71 20zM279 563l-46 -248q34 -13 73 -13q40 0 77.5 16.5t67 59.5
t29.5 106t-34.5 98.5t-99.5 35.5q-24 0 -42 -8q-17 -7 -25 -47z" />
    <glyph glyph-name="Sigma" unicode="&#x3a3;" horiz-adv-x="578" 
d="M122 649h453q-9 -73 -14 -149l-27 -2q-7 64 -22 89q-16 28 -112 28h-179l170 -263l-282 -284h278q48 0 74.5 20.5t61.5 84.5l27 -9l-65 -164h-486l4 22l309 304l-194 301z" />
    <glyph glyph-name="Tau" unicode="&#x3a4;" horiz-adv-x="603" 
d="M635 674h22q-9 -52 -23 -176l-31 -3q2 61 -11 90q-8 18 -29 24t-78 6h-61l-93 -495q-11 -60 2 -74t81 -19l-6 -27h-272l6 27q63 4 79 18.5t27 74.5l95 495h-52q-62 0 -85 -6t-37 -23q-21 -25 -50 -91l-30 1q31 99 48 178h21q7 -17 16.5 -21t31.5 -4h376q19 0 29 5t24 20z
" />
    <glyph glyph-name="Upsilon" unicode="&#x3a5;" horiz-adv-x="646" 
d="M728 633l-9 -23q-7 1 -28 1q-36 0 -81.5 -27t-88.5 -82q-53 -66 -93.5 -158t-56.5 -180l-9 -45q-11 -59 2 -73.5t80 -18.5l-5 -27h-273l5 27q64 4 81.5 19t28.5 73l10 51q33 168 4 291q-34 146 -145 146q-35 0 -55 -7l-7 24q63 40 123 40q62 0 99.5 -47.5t50.5 -120.5
q18 -75 8 -197h3q40 117 92 197q45 75 99.5 121.5t105.5 46.5q35 0 59 -31z" />
    <glyph glyph-name="Phi" unicode="&#x3a6;" horiz-adv-x="725" 
d="M560 654l-6 -26q-46 -4 -59.5 -13t-18.5 -39q40 -4 78 -18.5t74.5 -41t59 -71.5t22.5 -102q0 -86 -49.5 -146t-121.5 -85.5t-159 -27.5q-7 -34 4 -43.5t61 -13.5l-5 -27h-224l7 27q47 4 60 13.5t20 46.5q-40 4 -78.5 18t-74.5 39.5t-58 69t-22 98.5q0 83 47.5 144.5
t121 91.5t160.5 32q5 27 -6 35.5t-57 12.5l7 26h217zM310 119l83 430q-109 -3 -172.5 -71t-63.5 -167q0 -80 43.5 -129t109.5 -63zM470 545l-83 -430q106 3 171 65.5t65 165.5q0 93 -45 140t-108 59z" />
    <glyph glyph-name="Chi" unicode="&#x3a7;" horiz-adv-x="642" 
d="M680 649l-6 -27q-54 -6 -73.5 -16t-58.5 -52q-68 -77 -162 -193l111 -246q25 -56 42.5 -69t75.5 -19l-6 -27h-252l6 27l31 4q27 5 32.5 13.5t-4.5 34.5q-44 105 -93 214q-119 -151 -161 -214q-16 -23 -12 -33.5t35 -15.5l24 -3l-6 -27h-227l7 27q48 4 69.5 15.5
t58.5 49.5q60 65 195 235l-96 217q-22 49 -38.5 61t-67.5 17l6 27h232l-6 -27l-26 -4q-25 -5 -30 -11t2 -28q10 -26 82 -185q72 88 138 179q16 23 12.5 31.5t-28.5 12.5l-29 5l6 27h217z" />
    <glyph glyph-name="Psi" unicode="&#x3a8;" horiz-adv-x="694" 
d="M761 658l5 -25q-21 -11 -35 -27t-21 -32t-21 -55l-22 -62q-20 -54 -41 -83t-56 -53q-61 -43 -162 -46l-29 -153q-11 -59 0 -75t67 -20l-5 -27h-249l7 27q55 4 71.5 20t27.5 75l30 153q-97 3 -142 47q-24 24 -33.5 54.5t-8.5 80.5l1 64v51t-9.5 36.5t-30.5 25.5l12 24
q71 -10 97 -51q14 -24 13 -81l-2 -58q-3 -90 19 -123t90 -37l43 220q12 59 2.5 74.5t-62.5 19.5l6 27h231l-5 -27q-51 -4 -66 -19.5t-26 -74.5l-42 -220q77 4 111 37t67 130l20 57q18 52 42 75q39 41 106 51z" />
    <glyph glyph-name="uni03A9" unicode="&#x3a9;" horiz-adv-x="735" 
d="M665 137l27 -3l-43 -134h-250l-6 19l23.5 23.5l30.5 30.5t30.5 32.5t33 40t29 41.5t28.5 48.5t21 50t15.5 56.5t4.5 59q0 103 -45 165.5t-131 62.5q-74 0 -128.5 -48t-79.5 -118.5t-25 -151.5q0 -139 79 -294l-8 -17h-235l-2 135l26 1q9 -42 22 -55t39 -13h99
q-22 29 -35.5 49t-34.5 57t-31.5 76.5t-10.5 79.5q0 140 96.5 237t238.5 97q116 0 187 -72t71 -196q0 -26 -4.5 -50.5t-14.5 -48t-20 -42.5t-27 -40.5t-28.5 -35.5t-32.5 -33.5t-30.5 -28.5t-31 -27t-25.5 -22h90q32 0 46.5 11t41.5 58z" />
    <glyph glyph-name="Iotadieresis" unicode="&#x3aa;" horiz-adv-x="335" 
d="M380 649l-6 -27q-59 -5 -73 -18t-25 -68l-80 -420q-11 -58 0 -71t73 -18l-6 -27h-256l7 27q58 4 73 18t26 71l82 420q10 55 -1.5 68t-74.5 18l6 27h255zM176 789h1q18 0 28 -12t10 -30q0 -23 -14.5 -39t-35.5 -16q-17 0 -28 11.5t-11 29.5q0 21 14 38.5t36 17.5zM362 789
h1q18 0 28 -12t10 -30q0 -23 -14.5 -39t-35.5 -16q-17 0 -28 11.5t-11 29.5q0 21 14 38.5t36 17.5z" />
    <glyph glyph-name="Upsilondieresis" unicode="&#x3ab;" horiz-adv-x="646" 
d="M728 633l-9 -23q-7 1 -28 1q-36 0 -81.5 -27t-88.5 -82q-53 -66 -93.5 -158t-56.5 -180l-9 -45q-11 -59 2 -73.5t80 -18.5l-5 -27h-273l5 27q64 4 81.5 19t28.5 73l10 51q33 168 4 291q-34 146 -145 146q-35 0 -55 -7l-7 24q63 40 123 40q62 0 99.5 -47.5t50.5 -120.5
q18 -75 8 -197h3q40 117 92 197q45 75 99.5 121.5t105.5 46.5q35 0 59 -31zM349 788h1q18 0 28 -12t10 -30q0 -23 -14.5 -39t-35.5 -16q-17 0 -28 11.5t-11 29.5q0 21 14 38.5t36 17.5zM535 788h1q18 0 28 -12t10 -30q0 -23 -14.5 -39t-35.5 -16q-17 0 -28 11.5t-11 29.5
q0 21 14 38.5t36 17.5z" />
    <glyph glyph-name="alphatonos" unicode="&#x3ac;" horiz-adv-x="535" 
d="M498 121l21 -18q-65 -115 -126 -115q-24 0 -38 36t-23 124h-2q-47 -76 -97 -118t-95 -42q-43 0 -69.5 44t-25.5 113q1 115 80.5 209t161.5 94q45 0 66 -35t35 -118h3q25 41 75 140l53 13l9 -9q-56 -96 -132 -201q13 -105 20.5 -140t19.5 -35q21 0 64 58zM258 406h-1
q-48 0 -88.5 -75t-41.5 -168q0 -52 14 -81.5t35 -29.5q63 0 150 148q-9 99 -23.5 152.5t-44.5 53.5zM381 659l-106 -171l-25 14q35 110 50 165q10 3 40.5 4.5t39.5 -0.5z" />
    <glyph glyph-name="epsilontonos" unicode="&#x3ad;" horiz-adv-x="386" 
d="M152 237v2q-29 10 -46 32t-17 49q0 57 51.5 92.5t116.5 35.5q59 0 87.5 -22.5t29.5 -49.5q0 -16 -15 -29.5t-26 -13.5q-9 0 -12 13q-18 69 -78 69q-35 0 -57.5 -23.5t-22.5 -56.5t23 -52t63 -19q26 0 42 2l2 -7l-29 -41q-24 2 -46 2q-44 0 -73 -23t-29 -64
q0 -38 25.5 -62.5t67.5 -24.5q71 0 136 63l17 -22q-73 -99 -185 -99q-65 0 -106 34.5t-41 90.5q0 46 35 77.5t87 46.5zM349 659l-106 -171l-25 14q35 110 50 165q10 3 40.5 4.5t39.5 -0.5z" />
    <glyph glyph-name="etatonos" unicode="&#x3ae;" horiz-adv-x="509" 
d="M185 246h2q85 114 191 180q38 22 66 22q48 0 15 -138q-35 -144 -85 -394q-26 -130 -18 -159l-7 -14q-20 0 -42 19.5t-27 39.5q-4 26 51 261q8 36 27.5 118t29.5 128q7 31 8.5 47.5t-1 22t-10.5 5.5q-28 0 -95 -66t-117 -142q-21 -72 -40 -168q-43 -8 -71 -19l-7 7
q42 168 81 338q9 41 -2 41q-7 0 -26.5 -13.5t-37.5 -31.5l-15 22q39 42 80 69t62 27q37 0 9 -111zM419 659l-106 -171l-25 14q35 110 50 165q10 3 40.5 4.5t39.5 -0.5z" />
    <glyph glyph-name="iotatonos" unicode="&#x3af;" horiz-adv-x="249" 
d="M201 110l12 -22q-25 -33 -70.5 -66.5t-71.5 -33.5q-41 0 -17 102q24 106 74 336l76 22l3 -8q-43 -163 -80 -344q-7 -35 3 -35q17 0 71 49zM276 660l-106 -171l-25 14q35 110 50 165q10 3 40.5 4.5t39.5 -0.5z" />
    <glyph glyph-name="upsilondieresistonos" unicode="&#x3b0;" horiz-adv-x="484" 
d="M69 325l-18 23q31 46 69.5 73t71.5 27q52 0 23 -114q-37 -140 -42 -163q-29 -127 54 -127q64 0 112.5 77.5t49.5 200.5q0 75 -20 109v6q13 11 30 11q23 0 39 -32t16 -81q-1 -125 -85 -236t-179 -111q-53 0 -83.5 43t-10.5 124q17 77 47 184q11 45 0 46q-22 0 -74 -60z
M403 519h-1q-17 0 -28 11.5t-11 30.5q0 21 13.5 37.5t36.5 16.5q18 0 28 -12t10 -31q0 -22 -14 -37.5t-34 -15.5zM379 666l-102 -171l-28 9q11 34 29.5 95t20.5 66q8 4 37.5 7.5t39.5 2.5zM188 519h-1q-17 0 -28 11.5t-11 30.5q0 21 13.5 37.5t36.5 16.5q18 0 28 -12t10 -31
q0 -22 -14 -37.5t-34 -15.5z" />
    <glyph glyph-name="alpha" unicode="&#x3b1;" horiz-adv-x="535" 
d="M498 121l21 -18q-65 -115 -126 -115q-24 0 -38 36t-23 124h-2q-47 -76 -97 -118t-95 -42q-43 0 -69.5 44t-25.5 113q1 115 80.5 209t161.5 94q45 0 66 -35t35 -118h3q25 41 75 140l53 13l9 -9q-56 -96 -132 -201q13 -105 20.5 -140t19.5 -35q21 0 64 58zM258 406h-1
q-48 0 -88.5 -75t-41.5 -168q0 -52 14 -81.5t35 -29.5q63 0 150 148q-9 99 -23.5 152.5t-44.5 53.5z" />
    <glyph glyph-name="beta" unicode="&#x3b2;" horiz-adv-x="511" 
d="M-11 -257l-4 20q16 16 50 194q14 73 41 217t33 177q22 119 50 184t75 111q66 66 141 66q50 0 82.5 -33.5t32.5 -88.5q0 -33 -12.5 -62.5t-38.5 -56t-44 -41t-50 -37.5q131 -51 130 -170q-1 -57 -39.5 -108.5t-96.5 -86.5q-73 -43 -126 -43q-27 0 -47 18.5t-27 42.5l11 18
q44 -24 96 -24q74 0 112 43.5t37 112.5q-1 65 -42 105.5t-109 49.5l22 45q36 3 59 18q91 64 91 162q0 42 -20.5 67.5t-55.5 25.5q-34 0 -59 -22t-44 -71.5t-32 -104.5t-29 -144q-35 -187 -65 -370q-26 -166 -35 -181q-13 -15 -40 -23.5t-47 -9.5z" />
    <glyph glyph-name="gamma" unicode="&#x3b3;" horiz-adv-x="474" 
d="M253 57h2q148 189 147 290q0 34 -13 51q-4 5 -4 15q1 14 13 24.5t27 10.5q19 0 31.5 -20.5t12.5 -53.5q0 -41 -30.5 -100.5t-56 -94.5t-75.5 -100q-66 -93 -70 -99q-33 -146 -53 -197q-12 -11 -42.5 -24.5t-52.5 -15.5l-12 15q26 72 112 226q11 59 3.5 166.5t-32.5 183.5
q-15 41 -27 41q-18 0 -63 -63l-24 20q70 116 127 116q46 0 68 -117q11 -58 14.5 -142.5t-2.5 -131.5z" />
    <glyph glyph-name="delta" unicode="&#x3b4;" horiz-adv-x="467" 
d="M486 519l-11 -15q-47 74 -93 114.5t-102 40.5q-41 0 -41 -31q0 -27 98 -160q51 -66 73.5 -115t22.5 -103q0 -63 -28.5 -120t-80.5 -96q-61 -46 -128 -46q-70 0 -110.5 49.5t-40.5 128.5q0 75 38 136.5t97 99.5q47 29 79 42q-66 104 -66 153q0 50 37.5 82.5t84.5 32.5
q49 0 88.5 -34t58.5 -76t24 -83zM221 28h1q43 0 74 33.5t44 78.5t13 93q0 84 -76 187q-35 -14 -65 -44q-82 -92 -82 -208q0 -67 27.5 -103.5t63.5 -36.5z" />
    <glyph glyph-name="epsilon" unicode="&#x3b5;" horiz-adv-x="386" 
d="M152 237v2q-29 10 -46 32t-17 49q0 57 51.5 92.5t116.5 35.5q59 0 87.5 -22.5t29.5 -49.5q0 -16 -15 -29.5t-26 -13.5q-9 0 -12 13q-18 69 -78 69q-35 0 -57.5 -23.5t-22.5 -56.5t23 -52t63 -19q26 0 42 2l2 -7l-29 -41q-24 2 -46 2q-44 0 -73 -23t-29 -64
q0 -38 25.5 -62.5t67.5 -24.5q71 0 136 63l17 -22q-73 -99 -185 -99q-65 0 -106 34.5t-41 90.5q0 46 35 77.5t87 46.5z" />
    <glyph glyph-name="zeta" unicode="&#x3b6;" horiz-adv-x="382" 
d="M244 745l17 -13q-10 -15 -13 -32q-3 -21 14.5 -39.5t51.5 -22.5q81 64 120 64q16 0 16 -13q-1 -38 -39 -61.5t-84 -27.5q-81 -69 -140 -181t-59 -214q0 -52 19 -79.5t57 -41.5q8 -3 25.5 -8t25.5 -8q75 -23 75 -86q0 -73 -103 -157l-22 21q54 60 53 102q0 40 -55 56
q-24 6 -56 17q-49 19 -74 54.5t-25 99.5q0 116 68 230t166 198q-47 3 -78 24.5t-29 49.5q1 19 20.5 38t48.5 30z" />
    <glyph glyph-name="eta" unicode="&#x3b7;" horiz-adv-x="509" 
d="M185 246h2q85 114 191 180q38 22 66 22q48 0 15 -138q-35 -144 -85 -394q-26 -130 -18 -159l-7 -14q-20 0 -42 19.5t-27 39.5q-4 26 51 261q8 36 27.5 118t29.5 128q7 31 8.5 47.5t-1 22t-10.5 5.5q-28 0 -95 -66t-117 -142q-21 -72 -40 -168q-43 -8 -71 -19l-7 7
q42 168 81 338q9 41 -2 41q-7 0 -26.5 -13.5t-37.5 -31.5l-15 22q39 42 80 69t62 27q37 0 9 -111z" />
    <glyph glyph-name="theta" unicode="&#x3b8;" horiz-adv-x="477" 
d="M349 712h1q134 0 134 -211q0 -82 -19.5 -170.5t-54.5 -166t-90.5 -127t-119.5 -49.5q-41 0 -69.5 18.5t-43.5 51t-21.5 68.5t-6.5 79q0 109 34.5 224t103 199t152.5 84zM160 388h234q12 98 12 137q0 153 -72 153q-57 0 -103.5 -84t-70.5 -206zM387 341h-235
q-14 -91 -14 -155q0 -32 3.5 -59t11.5 -51.5t23 -39t36 -14.5q40 0 76.5 47.5t60 117t38.5 154.5z" />
    <glyph glyph-name="iota" unicode="&#x3b9;" horiz-adv-x="249" 
d="M201 110l12 -22q-25 -33 -70.5 -66.5t-71.5 -33.5q-41 0 -17 102q24 106 74 336l76 22l3 -8q-43 -163 -80 -344q-7 -35 3 -35q17 0 71 49z" />
    <glyph glyph-name="kappa" unicode="&#x3ba;" horiz-adv-x="487" 
d="M69 330l-13 23q41 40 83.5 67.5t63.5 27.5q30 0 11 -83l-35 -156q13 13 63 67.5t72 76.5q47 49 76.5 72t53.5 23q19 0 31.5 -12.5t12.5 -28.5q-2 -23 -22 -38q-7 -7 -17 -1q-15 11 -30 11q-19 0 -50.5 -23.5t-52 -43.5t-35.5 -38q15 -50 72 -175q21 -45 37 -45
q8 0 27 16.5t38 41.5l18 -22q-67 -102 -123 -102q-35 0 -63 70q-16 36 -61 157q-41 -41 -56 -59q-6 -16 -35 -153q-45 -8 -73 -15l-5 7q33 126 81 346q6 31 -1 31q-18 0 -68 -42z" />
    <glyph glyph-name="lambda" unicode="&#x3bb;" horiz-adv-x="487" 
d="M441 114l20 -21q-68 -105 -128 -105q-44 0 -55 109q-23 201 -27 261q-36 -85 -94.5 -197.5t-87.5 -153.5q-22 -7 -70 -19l-8 19q162 200 253 419q-5 82 -12 125q-10 62 -26.5 85t-42.5 23q-20 0 -42 -10l-7 24q18 16 45.5 27.5t48.5 11.5q29 0 47.5 -17t33.5 -69t23 -144
q19 -226 40 -371q9 -55 23 -55q21 0 66 58z" />
    <glyph glyph-name="uni03BC" unicode="&#x3bc;" horiz-adv-x="511" 
d="M467 113l14 -23q-36 -43 -78.5 -72.5t-66.5 -29.5q-39 0 -15 106q3 12 9 39.5t9 45.5h-2q-77 -108 -139 -159q-38 -32 -70 -32q-30 0 -42 44h-2q-22 -78 -19 -147q1 -36 11 -65t21 -40l1 -7q-7 -11 -23 -21t-35 -10q-17 0 -28 18.5t-10 53.5q2 45 36 200q89 395 93 412
l72 21l7 -5q-47 -194 -71 -305q-8 -40 -1.5 -61.5t24.5 -21.5q35 0 96.5 71.5t95.5 135.5q18 76 36 161l69 26h11q-45 -177 -78 -348q-6 -39 4 -39q7 0 29 16t42 36z" />
    <glyph glyph-name="nu" unicode="&#x3bd;" horiz-adv-x="449" 
d="M236 88h3q145 175 145 250q0 36 -17 55q-5 9 -2 19q2 13 13 24t26 11q20 0 33.5 -20t13.5 -49q0 -47 -37 -107t-109 -149q-102 -127 -108 -134h-26q-6 215 -28 336q-8 52 -18 52q-16 0 -58 -57l-20 20q72 108 118 108q36 0 49 -95q18 -106 22 -264z" />
    <glyph glyph-name="xi" unicode="&#x3be;" horiz-adv-x="405" 
d="M255 -176l-23 18q51 64 51 103q0 20 -15 33.5t-52 22.5q-22 6 -56 16q-59 17 -89.5 51t-30.5 91q0 121 151 206q-25 11 -42.5 36t-17.5 56q0 93 114 161q-37 3 -64.5 21t-26.5 43q1 19 19.5 35.5t44.5 25.5l16 -9q-9 -14 -10 -34q-2 -19 14.5 -33.5t45.5 -17.5
q81 52 141 52q11 0 14.5 -3.5t2.5 -12.5q-3 -37 -47 -56q-41 -15 -104 -15q-36 -20 -61.5 -54.5t-25.5 -73.5q0 -31 15 -54t42 -30q66 15 90 15q21 0 18 -15q-5 -18 -24 -38.5t-30 -20.5q-48 0 -85 9q-45 -21 -78 -68t-33 -96q0 -75 81 -101q19 -6 61 -18q94 -27 95 -91
q1 -75 -101 -154z" />
    <glyph glyph-name="omicron" unicode="&#x3bf;" horiz-adv-x="470" 
d="M306 448h1q62 0 97 -41t35 -115q0 -67 -28 -133t-79 -108q-77 -63 -154 -63q-67 0 -99.5 44.5t-32.5 110.5q0 93 43 165.5t109 106.5q59 33 108 33zM275 409h-1q-20 0 -38 -8q-37 -17 -71.5 -83t-34.5 -169q0 -56 22.5 -88.5t61.5 -32.5q17 0 33 6q42 18 75.5 91.5
t32.5 164.5q0 58 -22 88.5t-58 30.5z" />
    <glyph glyph-name="pi" unicode="&#x3c0;" horiz-adv-x="534" 
d="M535 460l27 -11q-20 -57 -37 -77q-12 -4 -71 -4q-24 -91 -51 -237q-15 -73 6 -73q24 0 72 42l13 -26q-71 -86 -136 -86q-58 0 -33 116q6 30 62 266q-89 3 -142 3q-21 -103 -53.5 -209.5t-64.5 -152.5q-38 -23 -76 -23l-6 16q44 40 90.5 156.5t62.5 213.5q-77 1 -132 -58
l-18 23q14 19 26 31.5t34.5 29t54.5 25.5t72 9q37 0 121.5 -2t123.5 -2q22 0 32 5t23 25z" />
    <glyph glyph-name="rho" unicode="&#x3c1;" horiz-adv-x="477" 
d="M-11 -257l-5 17q20 27 82 386q18 103 45 158.5t84 97.5q64 46 125 46q59 0 94 -46t35 -117q0 -137 -138 -242q-72 -55 -127 -55q-35 0 -65 41q-3 -18 -9 -55t-9 -55q-19 -126 -32 -145q-13 -14 -39 -22.5t-41 -8.5zM206 40h1q75 0 119 65.5t44 155.5q0 62 -24.5 100.5
t-71.5 38.5q-89 0 -122 -188q-10 -51 -26 -141q38 -31 80 -31z" />
    <glyph glyph-name="uni03C2" unicode="&#x3c2;" horiz-adv-x="394" 
d="M246 -152l-20 15q41 48 41 85q0 20 -14 32.5t-49 22.5q-32 8 -57 17q-100 33 -100 151q0 69 34 129t91 99q73 49 134 49q36 0 59 -15t23 -37q0 -14 -9.5 -27t-22.5 -17q-11 -4 -21 8q-31 39 -77 39q-59 0 -97.5 -57t-38.5 -136q0 -49 16.5 -78t54.5 -42q12 -3 50 -15
q49 -15 71 -33.5t22 -53.5q1 -75 -90 -136z" />
    <glyph glyph-name="sigma" unicode="&#x3c3;" horiz-adv-x="476" 
d="M322 447h1q29 0 73.5 -4t60.5 -4q32 0 54 23l18 -12q-26 -71 -67 -71q-13 0 -29 1.5t-36 4t-31 3.5l-2 -2q33 -30 44.5 -62.5t11.5 -78.5q0 -100 -70.5 -178.5t-165.5 -78.5q-64 0 -102 44t-38 122q0 118 80.5 206t197.5 87zM284 395h-1q-70 0 -114 -78t-44 -170
q0 -56 21 -89.5t57 -33.5t65 26.5t45.5 67t25 81.5t8.5 75q0 60 -15 90q-15 31 -48 31z" />
    <glyph glyph-name="tau" unicode="&#x3c4;" horiz-adv-x="434" 
d="M443 460l26 -4q-19 -54 -36 -82q-16 -5 -77 -3q-40 2 -56 2q-41 -166 -56 -247q-14 -69 10 -69q23 0 68 43l14 -25q-32 -39 -68 -63t-67 -24q-59 0 -35 114q16 72 68 274q-57 4 -95.5 -9t-74.5 -50l-19 20q13 19 25.5 32t34 30t52 26t67.5 9q14 0 71.5 -2t94.5 -2
q19 -1 29.5 4.5t23.5 25.5z" />
    <glyph glyph-name="upsilon" unicode="&#x3c5;" horiz-adv-x="484" 
d="M69 325l-18 23q31 46 69.5 73t71.5 27q52 0 23 -114q-37 -140 -42 -163q-29 -127 54 -127q64 0 112.5 77.5t49.5 200.5q0 75 -20 109v6q13 11 30 11q23 0 39 -32t16 -81q-1 -125 -85 -236t-179 -111q-53 0 -83.5 43t-10.5 124q17 77 47 184q11 45 0 46q-22 0 -74 -60z
" />
    <glyph glyph-name="phi" unicode="&#x3c6;" horiz-adv-x="574" 
d="M276 457l11 -28q-154 -77 -154 -235q0 -63 26 -103t68 -53q27 145 54 253q20 75 60 116t87 41q46 0 80.5 -44t34.5 -127q0 -109 -76.5 -189.5t-177.5 -93.5q-17 -106 -38 -215q-17 -29 -78 -37l-8 9q14 45 53 239q-81 9 -125.5 60.5t-44.5 129.5q0 99 63 168.5t165 108.5
zM405 407h-1q-37 0 -53 -86q-40 -198 -55 -287q77 4 127.5 77.5t50.5 168.5q0 61 -23.5 94t-45.5 33z" />
    <glyph glyph-name="chi" unicode="&#x3c7;" horiz-adv-x="444" 
d="M469 448l8 -13q-28 -33 -103.5 -135.5t-115.5 -163.5q11 -69 47 -265q10 -58 23 -58q24 0 70 57l21 -22q-71 -105 -126 -105q-41 0 -58 96q-19 102 -37 221q-126 -187 -211 -333h-10q-12 11 -11.5 40.5t20.5 58.5q25 38 100.5 145t102.5 147q-23 148 -36 210
q-10 49 -22 49q-18 0 -61 -58l-20 21q71 108 120 108q32 0 49 -79q6 -31 17 -99.5t13 -79.5q25 37 82.5 126.5t67.5 105.5z" />
    <glyph glyph-name="psi" unicode="&#x3c8;" horiz-adv-x="594" 
d="M619 448l9 -27q-25 -19 -39 -39t-29 -57q-3 -8 -26 -68.5t-39 -100.5q-40 -95 -109 -137q-37 -22 -75 -29q-7 -33 -22.5 -112t-21.5 -108l-29 -27q-21 12 -15 68q4 23 15.5 83t18.5 93q-71 6 -108 48.5t-31 136.5q1 22 6 74.5l7 73.5q4 59 -23 59q-18 0 -47 -23l-8 26
q57 66 109 66q59 0 47 -116q-6 -67 -14 -126q-17 -152 71 -171l85 456l58 22l8 -3l-98 -480q83 11 121 120q24 67 49 158q17 65 35 83q41 41 95 57z" />
    <glyph glyph-name="omega" unicode="&#x3c9;" horiz-adv-x="638" 
d="M485 426l1 8q14 14 41 14q28 0 52.5 -44t24.5 -113q0 -145 -110 -246q-66 -57 -119 -57q-35 0 -57.5 27.5t-26.5 70.5q-29 -42 -67.5 -70t-70.5 -28q-44 0 -74 42t-30 117q0 98 53.5 180t142.5 127l16 -23q-59 -44 -94 -116t-35 -154q0 -52 17.5 -81t42.5 -29
q32 0 60.5 38t44.5 107q15 64 21 125l74 17l6 -5q-35 -117 -38 -191q-2 -46 13 -71t42 -25q57 0 90.5 68t34.5 159q1 104 -55 153z" />
    <glyph glyph-name="iotadieresis" unicode="&#x3ca;" horiz-adv-x="249" 
d="M201 110l12 -22q-25 -33 -70.5 -66.5t-71.5 -33.5q-41 0 -17 102q24 106 74 336l76 22l3 -8q-43 -163 -80 -344q-7 -35 3 -35q17 0 71 49zM125 620h1q18 0 28 -12t10 -30q0 -23 -14.5 -39t-35.5 -16q-17 0 -28 11.5t-11 29.5q0 20 14 38t36 18zM301 620h1q18 0 28 -12
t10 -30q0 -23 -14.5 -39t-35.5 -16q-17 0 -28 11.5t-11 29.5q0 20 14 38t36 18z" />
    <glyph glyph-name="upsilondieresis" unicode="&#x3cb;" horiz-adv-x="484" 
d="M69 325l-18 23q31 46 69.5 73t71.5 27q52 0 23 -114q-37 -140 -42 -163q-29 -127 54 -127q64 0 112.5 77.5t49.5 200.5q0 75 -20 109v6q13 11 30 11q23 0 39 -32t16 -81q-1 -125 -85 -236t-179 -111q-53 0 -83.5 43t-10.5 124q17 77 47 184q11 45 0 46q-22 0 -74 -60z
M229 620h1q18 0 28 -12t10 -30q0 -23 -14.5 -39t-35.5 -16q-17 0 -28 11.5t-11 29.5q0 20 14 38t36 18zM405 620h1q18 0 28 -12t10 -30q0 -23 -14.5 -39t-35.5 -16q-17 0 -28 11.5t-11 29.5q0 20 14 38t36 18z" />
    <glyph glyph-name="omicrontonos" unicode="&#x3cc;" horiz-adv-x="470" 
d="M306 448h1q62 0 97 -41t35 -115q0 -67 -28 -133t-79 -108q-77 -63 -154 -63q-67 0 -99.5 44.5t-32.5 110.5q0 93 43 165.5t109 106.5q59 33 108 33zM275 409h-1q-20 0 -38 -8q-37 -17 -71.5 -83t-34.5 -169q0 -56 22.5 -88.5t61.5 -32.5q17 0 33 6q42 18 75.5 91.5
t32.5 164.5q0 58 -22 88.5t-58 30.5zM387 659l-106 -171l-25 14q35 110 50 165q10 3 40.5 4.5t39.5 -0.5z" />
    <glyph glyph-name="upsilontonos" unicode="&#x3cd;" horiz-adv-x="484" 
d="M69 325l-18 23q31 46 69.5 73t71.5 27q52 0 23 -114q-37 -140 -42 -163q-29 -127 54 -127q64 0 112.5 77.5t49.5 200.5q0 75 -20 109v6q13 11 30 11q23 0 39 -32t16 -81q-1 -125 -85 -236t-179 -111q-53 0 -83.5 43t-10.5 124q17 77 47 184q11 45 0 46q-22 0 -74 -60z
M412 653l-106 -171l-25 14q35 110 50 165q10 3 40.5 4.5t39.5 -0.5z" />
    <glyph glyph-name="omegatonos" unicode="&#x3ce;" horiz-adv-x="638" 
d="M485 426l1 8q14 14 41 14q28 0 52.5 -44t24.5 -113q0 -145 -110 -246q-66 -57 -119 -57q-35 0 -57.5 27.5t-26.5 70.5q-29 -42 -67.5 -70t-70.5 -28q-44 0 -74 42t-30 117q0 98 53.5 180t142.5 127l16 -23q-59 -44 -94 -116t-35 -154q0 -52 17.5 -81t42.5 -29
q32 0 60.5 38t44.5 107q15 64 21 125l74 17l6 -5q-35 -117 -38 -191q-2 -46 13 -71t42 -25q57 0 90.5 68t34.5 159q1 104 -55 153zM478 647l-106 -171l-25 14q35 110 50 165q10 3 40.5 4.5t39.5 -0.5z" />
    <glyph glyph-name="uni03D0" unicode="&#x3d0;" horiz-adv-x="474" 
d="M492 610v-1q0 -61 -45.5 -106t-118.5 -82q118 -28 118 -168q0 -102 -73 -183.5t-167 -81.5q-75 0 -114 57.5t-39 159.5q0 119 51.5 239.5t137.5 197.5q80 69 156 69q42 0 68 -25.5t26 -75.5zM420 595v1q0 35 -15.5 54t-43.5 19q-37 0 -71.5 -30.5t-59.5 -78t-42.5 -94
t-27.5 -90.5q20 10 63 29t63 28q53 25 93.5 68t40.5 94zM363 241v1q0 68 -25.5 103t-69.5 35q-59 0 -116 -43q-18 -67 -18 -140q0 -74 23.5 -123.5t68.5 -49.5q59 0 98 70.5t39 146.5z" />
    <glyph glyph-name="uni03D1" unicode="&#x3d1;" horiz-adv-x="488" 
d="M38 229l-6 24q43 40 89 40q65 0 57 -135q-7 -117 67 -117q62 0 103.5 91t55.5 238q-60 -39 -113 -39q-83 0 -130.5 49.5t-47.5 123.5q0 86 60 147t139 61q71 0 119.5 -66.5t49.5 -205.5q1 -113 -36.5 -220.5t-113.5 -176.5q-60 -55 -123 -55q-50 0 -81 36t-23 123
q7 89 -30 89q-15 0 -36 -7zM280 672h-2q-48 0 -72 -37.5t-24 -94.5q0 -68 40 -113.5t108 -45.5q42 0 75 21q2 23 2 36q0 111 -38 172.5t-89 61.5z" />
    <glyph glyph-name="uni03D5" unicode="&#x3d5;" horiz-adv-x="558" 
d="M414 665l-35 -151q-9 -43 0 -48q149 -61 149 -217q0 -108 -76.5 -180.5t-181.5 -77.5q-9 -35 -54 -245l-6 -3q-16 7 -24 33.5t1 88.5q22 112 25 126q-78 15 -122 71t-44 135q0 95 60.5 161.5t156.5 99.5l13 -29q-72 -32 -109 -84.5t-37 -136.5q0 -60 27 -102t68 -57
q22 114 125 587l50 38zM460 239v1q0 65 -32.5 110t-69.5 60q-2 -12 -19 -89t-34.5 -159t-25.5 -124q85 -3 133 54t48 147z" />
    <glyph glyph-name="uni03D6" unicode="&#x3d6;" horiz-adv-x="639" 
d="M207 491l-9 27q86 55 190 55q114 0 174 -69t60 -177q0 -87 -32.5 -160.5t-83.5 -119.5q-67 -59 -123 -59q-36 0 -61.5 28t-30.5 71q-27 -41 -68.5 -70t-73.5 -29q-45 0 -75.5 42.5t-30.5 117.5q0 99 52.5 180.5t141.5 127.5l16 -24q-59 -44 -93 -116.5t-34 -155.5
q0 -51 18.5 -78.5t44.5 -27.5q34 0 64 37.5t45 104.5q12 51 23 131l72 12l6 -4q-36 -133 -38 -192q-2 -46 15 -69.5t44 -23.5q56 -1 95.5 65t40.5 163q1 120 -56 181.5t-151 61.5q-79 0 -142 -30z" />
    <glyph glyph-name="uni03DA" unicode="&#x3da;" 
d="M393 458l24 -10q-15 -56 -42 -67q-19 -12 -47 -3q-36 12 -75 12q-62 -1 -99 -54.5t-37 -127.5q0 -92 81 -121q17 -5 42 -13q52 -13 78 -34.5t26 -62.5q1 -52 -45 -95t-86 -43q-13 0 -23 9t-10 21q0 19 19 36q7 9 15 4q12 -5 30 -5q21 0 35 12t13 29q0 37 -85 58
q-33 8 -58 17q-106 37 -106 153q0 69 34.5 128.5t90.5 97.5q72 49 129 49q34 0 64 -8q19 -4 32 18z" />
    <glyph glyph-name="uni03DE" unicode="&#x3de;" horiz-adv-x="462" 
d="M116 -194l-9 6q5 18 10 39t10.5 46t8.5 38l12 56q-53 8 -78 50.5t-25 101.5q0 93 42.5 165.5t107.5 107.5q59 32 106 32h1q62 0 95.5 -40.5t33.5 -115.5q0 -67 -28 -133.5t-79 -107.5q-50 -43 -100 -55l-13 -61q-15 -61 -22 -74q-19 -37 -73 -55zM271 409h-1
q-18 0 -36 -8q-37 -18 -71.5 -83t-34.5 -169q0 -56 21 -88t60 -32q17 0 33 6q43 18 75 90.5t31 164.5q-1 59 -21.5 89t-55.5 30z" />
    <glyph glyph-name="uni03E0" unicode="&#x3e0;" horiz-adv-x="727" 
d="M130 645l40 13q27 9 57 9q90 0 165.5 -26.5t126 -70t85.5 -101.5t50.5 -120t15.5 -126q0 -222 -140 -388l-23 18q91 162 91 342q0 49 -6 77q-149 -82 -246 -183q-47 -49 -41 -90v-9q-8 -4 -19 -4q-19 0 -32.5 18t-5.5 52.5t47 72.5t95 77t93.5 60.5t100.5 54.5
q-14 57 -37 99.5t-40 60.5q-73 -53 -185.5 -110.5t-152.5 -69.5q-27 -8 -51 0.5t-33 22.5l2 9q233 70 391 179q-49 52 -126.5 83t-163.5 31q-17 0 -53 -4z" />
    <glyph glyph-name="uni03F0" unicode="&#x3f0;" horiz-adv-x="528" 
d="M488 111l18 -22q-67 -101 -132 -101q-31 0 -45.5 33t-4.5 85q16 86 54 164l-4 3q-18 -16 -132.5 -123t-177.5 -162h-14q-21 9 -30.5 30.5t-2.5 37.5q36 18 76 48q48 61 64 151q10 53 3.5 89t-27.5 36q-18 0 -64 -44l-19 21q69 91 127 91q33 0 45.5 -31t4.5 -80
q-17 -88 -69 -183l4 -2q194 179 239 226q5 5 15 17t16 18.5t14 15t14 13t11 6.5q31 3 43 -32q4 -18 -1 -29q-9 -8 -28 -23.5t-33 -27t-21 -18.5q-25 -43 -38 -110q-12 -69 -4 -107.5t29 -38.5q29 0 70 49z" />
    <glyph glyph-name="afii10023" unicode="&#x401;" horiz-adv-x="559" 
d="M129 649h434q-4 -25 -19 -154l-29 -2q0 65 -13 89q-8 19 -26.5 26t-70.5 7h-78q-25 0 -31.5 -6.5t-11.5 -34.5l-43 -216h97q61 0 78.5 11t35.5 61h29l-38 -189h-29q2 55 -10 66.5t-75 11.5h-95l-33 -176q-15 -80 4 -95q17 -14 101 -14q56 0 83.5 7t48.5 27q27 26 68 96
l28 -10q-45 -116 -64 -154h-468l6 27q62 5 78 19t27 73l80 410q11 60 0.5 74t-72.5 19zM288 789h1q18 0 28 -12t10 -30q0 -23 -14.5 -39t-35.5 -16q-17 0 -28 11.5t-11 29.5q0 21 14 38.5t36 17.5zM474 789h1q18 0 28 -12t10 -30q0 -23 -14.5 -39t-35.5 -16q-17 0 -28 11.5
t-11 29.5q0 21 14 38.5t36 17.5z" />
    <glyph glyph-name="afii10051" unicode="&#x402;" horiz-adv-x="708" 
d="M651 674h22q-14 -72 -25 -177l-29 -4q-1 63 -15 91q-8 19 -27.5 25t-73.5 6h-82l-50 -258q76 27 116 27q83 0 130.5 -53.5t47.5 -141.5q0 -72 -30 -135.5t-78.5 -106.5t-99.5 -71.5t-102 -43.5l-11 28q95 42 162.5 126.5t67.5 200.5q0 72 -33.5 112.5t-91.5 40.5
q-44 0 -85 -16l-37 -200q-12 -63 1 -78t86 -19l-6 -27h-286l6 27q68 4 86 19t30 78l95 491h-55q-54 0 -78 -8t-42 -28q-19 -23 -49 -85l-28 3q23 73 47 177h20q5 -16 15.5 -20.5t33.5 -4.5h392q20 0 31 5t25 20z" />
    <glyph glyph-name="afii10052" unicode="&#x403;" horiz-adv-x="502" 
d="M136 649h418q0 -4 -4 -34t-7.5 -62.5t-5.5 -52.5l-28 -3q-5 73 -17 92q-18 26 -86 26h-73q-29 0 -36 -5.5t-12 -31.5l-88 -453q-12 -66 -0.5 -79.5t77.5 -18.5l-6 -27h-254l6 27q54 5 68 19t27 79l79 399q7 36 8.5 52.5t-7.5 27.5t-21.5 13t-44.5 5zM517 755l-2 -8
l-187 -63l-13 25q41 25 161 101q9 -2 24 -22.5t17 -32.5z" />
    <glyph glyph-name="afii10053" unicode="&#x404;" horiz-adv-x="630" 
d="M503 312l-337 8q-2 -26 -2 -44q0 -112 48 -184t144 -73q117 -1 186 103q21 32 38 32q15 0 19.5 -16t-4.5 -36q-18 -40 -76 -75q-68 -42 -171 -42q-127 0 -204.5 77t-77.5 211q0 176 116.5 283.5t280.5 107.5q30 0 62.5 -4.5t52 -9.5t41 -11t24.5 -7q-1 -24 -3 -75.5
t-4 -75.5l-28 -3q-5 84 -42.5 118t-115.5 34q-111 0 -183 -72t-97 -200l347 7z" />
    <glyph glyph-name="afii10054" unicode="&#x405;" horiz-adv-x="468" 
d="M38 194l27 3q6 -43 21.5 -80.5t52 -68t87.5 -30.5q54 0 88 35t34 94q0 40 -22.5 71.5t-71.5 70.5l-29 22q-31 25 -50.5 43.5t-40 55.5t-20.5 75q0 78 56.5 128.5t146.5 50.5q45 0 95 -16q40 -15 43 -16q-2 -25 -2 -77.5v-63.5l-29 -3q-15 143 -120 143q-51 0 -81.5 -34
t-30.5 -82q0 -40 23 -69.5t70 -64.5l30 -23q57 -42 86.5 -85t29.5 -98q0 -84 -64 -137t-154 -53q-55 0 -104 19.5t-68 41.5q0 11 -1 60.5t-2 87.5z" />
    <glyph glyph-name="afii10055" unicode="&#x406;" horiz-adv-x="335" 
d="M380 649l-6 -27q-59 -5 -73 -18t-25 -68l-80 -420q-11 -58 0 -71t73 -18l-6 -27h-256l7 27q58 4 73 18t26 71l82 420q10 55 -1.5 68t-74.5 18l6 27h255z" />
    <glyph glyph-name="afii10056" unicode="&#x407;" horiz-adv-x="335" 
d="M380 649l-6 -27q-59 -5 -73 -18t-25 -68l-80 -420q-11 -58 0 -71t73 -18l-6 -27h-256l7 27q58 4 73 18t26 71l82 420q10 55 -1.5 68t-74.5 18l6 27h255zM174 789h1q18 0 28 -12t10 -30q0 -23 -14.5 -39t-35.5 -16q-17 0 -28 11.5t-11 29.5q0 21 14 38.5t36 17.5zM360 789
h1q18 0 28 -12t10 -30q0 -23 -14.5 -39t-35.5 -16q-17 0 -28 11.5t-11 29.5q0 21 14 38.5t36 17.5z" />
    <glyph glyph-name="afii10057" unicode="&#x408;" horiz-adv-x="321" 
d="M375 649l-6 -27q-55 -7 -68.5 -19.5t-24.5 -71.5l-74 -401q-18 -98 -50.5 -155t-90.5 -90q-42 -25 -77 -30l-10 30q79 23 110 107q22 55 40 158l71 381q11 59 0 71.5t-72 19.5l6 27h246z" />
    <glyph glyph-name="afii10058" unicode="&#x409;" horiz-adv-x="888" 
d="M579 526l-27 -142q45 5 88 5q104 0 157.5 -44.5t53.5 -124.5q0 -68 -34.5 -116t-92.5 -74q-69 -30 -178 -30h-228l7 27q54 5 69 19.5t28 80.5l87 446q5 28 0.5 35t-27.5 7h-124q-24 0 -29.5 -4.5t-9.5 -25.5q-78 -403 -205 -550q-44 -51 -78 -51q-33 0 -55 10l2 16
q65 35 119 104q42 53 90.5 177t75.5 262q8 42 -6 53.5t-81 15.5l7 27h502l-6 -27q-64 -4 -78.5 -18t-26.5 -78zM545 351l-42 -228q-10 -51 5 -70t61 -19q87 0 137.5 50t50.5 131q0 140 -152 140h-1q-27 0 -59 -4z" />
    <glyph glyph-name="afii10059" unicode="&#x40a;" horiz-adv-x="944" 
d="M621 369h83q211 0 213 -161q1 -117 -112 -172q-75 -36 -196 -36h-220l7 26q57 5 71.5 19.5t26.5 80.5l39 204h-285l-39 -202q-12 -65 -1.5 -80.5t71.5 -20.5l-6 -27h-252l5 26q59 5 73.5 20t27.5 82l75 394q13 65 2.5 80t-69.5 20l6 27h249l-5 -27q-59 -5 -73.5 -19.5
t-27.5 -80.5l-29 -153h286l29 150q13 68 3.5 83t-67.5 20l6 27h245l-5 -27q-61 -5 -75.5 -20t-27.5 -86zM613 332l-38 -208q-10 -54 3.5 -72t58.5 -18q83 1 134.5 46.5t51.5 121.5q0 130 -152 130h-58z" />
    <glyph glyph-name="afii10060" unicode="&#x40b;" horiz-adv-x="762" 
d="M707 27l-6 -27h-237l5 27q51 5 66 19.5t27 74.5l18 95q26 130 -96 130q-49 0 -118 -30l-37 -192q-12 -61 0 -77t77 -20l-6 -27h-273l6 27q68 4 85.5 19t29.5 78l94 491h-63q-57 0 -80.5 -9t-39.5 -30q-25 -35 -44 -75l-27 1q27 90 45 172h20q6 -16 15.5 -20.5t29.5 -4.5
h408q33 0 55 25h22q-14 -67 -25 -170l-28 -3q-2 57 -11 80q-8 21 -28 27.5t-77 6.5h-91l-50 -264q96 43 156 43q77 0 114 -46q34 -44 18 -132l-18 -95q-12 -61 -2.5 -75.5t66.5 -18.5z" />
    <glyph glyph-name="afii10061" unicode="&#x40c;" horiz-adv-x="630" 
d="M276 539l-37 -179q78 3 125 41q27 21 53 56t76 113q59 94 118 94q46 0 46 -33q0 -14 -12.5 -23t-33.5 -9h-15q-10 0 -17 -2t-15.5 -8t-14.5 -12t-17 -20.5t-19.5 -26.5t-25.5 -36.5t-32 -45.5q-50 -69 -113 -97l-1 -3q31 -8 52.5 -33t39.5 -68q17 -37 56 -143
q16 -43 38 -58t62 -19l-6 -27h-77q-43 0 -64 22t-38 69q-3 9 -21 60.5t-30 83.5q-19 56 -46 76t-73 20l-38 -201q-13 -69 -2.5 -83.5t71.5 -19.5l-5 -27h-253l6 27q57 5 72.5 20t28.5 83l81 409q11 53 -0.5 65.5t-72.5 17.5l6 27h248l-6 -27q-54 -5 -69 -17.5t-25 -65.5z
M571 755l-2 -8l-187 -63l-13 25q41 25 161 101q9 -2 24 -22.5t17 -32.5z" />
    <glyph glyph-name="afii10062" unicode="&#x40e;" horiz-adv-x="605" 
d="M694 649l-5 -28q-49 -5 -67 -20t-59 -81q-23 -37 -116.5 -198.5t-123.5 -210.5q-88 -140 -170 -140q-24 0 -41.5 10.5t-23.5 26.5q-4 13 0.5 27.5t16.5 23.5q16 13 31 1q28 -24 54 -24q55 0 103 107q3 21 -6 53q-27 103 -112 362q-11 37 -25.5 47.5t-60.5 15.5l5 28h223
l-5 -28l-34 -5q-19 -4 -22.5 -14.5t4.5 -37.5l98 -326q125 218 169 306q14 28 16.5 43t-5.5 21t-27 9l-36 4l6 28h213zM507 818l28 -10q-40 -112 -143 -112h-1q-40 0 -64 20.5t-24 46.5q0 11 15 39l10 13h22q-7 -66 57 -66t100 69z" />
    <glyph glyph-name="afii10145" unicode="&#x40f;" horiz-adv-x="732" 
d="M775 649l-5 -27q-58 -4 -73.5 -18.5t-27.5 -76.5l-78 -405q-12 -62 0 -76.5t73 -18.5l-5 -27h-219q-40 0 -57 -11.5t-28 -40.5q-11 -30 -45 -146h-32q8 118 8 144q1 29 -10.5 41.5t-47.5 12.5h-220l5 27q58 4 74 19t28 77l77 404q12 62 0.5 76.5t-69.5 18.5l6 27h251
l-5 -27q-59 -4 -74 -18.5t-27 -76.5l-81 -422q-9 -47 1.5 -59t55.5 -12h161q54 0 70 10.5t25 60.5l81 423q12 60 0.5 75t-69.5 19l6 27h251z" />
    <glyph glyph-name="afii10017" unicode="&#x410;" horiz-adv-x="664" 
d="M621 27l-7 -27h-236l7 27q50 5 61 16t6 45q-2 18 -25 148h-209q-40 -75 -69 -136q-21 -45 -12.5 -56.5t66.5 -16.5l-6 -27h-215l7 27q48 6 66 20.5t53 75.5l300 533l31 8l28 -178q26 -167 64 -372q9 -54 23 -68t67 -19zM421 278l-40 258h-2q-101 -185 -139 -258h181z" />
    <glyph glyph-name="afii10018" unicode="&#x411;" horiz-adv-x="574" 
d="M131 649h416q-14 -120 -16 -142l-29 -3q-3 60 -18 86q-16 25 -86 25h-69q-29 0 -36 -5.5t-12 -31.5l-38 -198q40 5 86 5q102 0 155 -44t53 -120q0 -61 -26 -106t-71 -69t-95.5 -35t-108.5 -11h-224l6 26q54 5 69 20t28 83l77 393q12 68 1.5 81.5t-69.5 18.5zM236 347
l-42 -228q-10 -50 4 -68t57 -18q85 0 137.5 50.5t51.5 132.5q0 72 -42 103.5t-109 31.5h-1q-26 0 -56 -4z" />
    <glyph glyph-name="afii10019" unicode="&#x412;" horiz-adv-x="579" 
d="M131 649h234q188 0 188 -138q0 -64 -45 -103t-117 -54v-2q64 -13 105 -52t41 -104q0 -53 -31.5 -95t-83.5 -66q-71 -35 -201 -35h-214l7 27q58 5 73.5 19t26.5 74l82 418q11 54 0.5 66.5t-71.5 17.5zM242 367h51q81 0 125.5 38.5t44.5 104.5q0 58 -34 82.5t-84 24.5
q-33 0 -46 -9t-20 -45zM235 334l-39 -212q-10 -53 8 -70.5t70 -17.5q73 0 120 46t47 121q0 133 -157 133h-49z" />
    <glyph glyph-name="afii10020" unicode="&#x413;" horiz-adv-x="502" 
d="M136 649h418q0 -4 -4 -34t-7.5 -62.5t-5.5 -52.5l-28 -3q-5 73 -17 92q-18 26 -86 26h-73q-29 0 -36 -5.5t-12 -31.5l-88 -453q-12 -66 -0.5 -79.5t77.5 -18.5l-6 -27h-254l6 27q54 5 68 19t27 79l79 399q7 36 8.5 52.5t-7.5 27.5t-21.5 13t-44.5 5z" />
    <glyph glyph-name="afii10021" unicode="&#x414;" horiz-adv-x="640" 
d="M682 649l-6 -27q-57 -4 -72 -19.5t-28 -83.5l-85 -441q-5 -28 -2 -36t20 -8h70l-67 -208h-30l8 110q2 40 -5 52t-35 12h-339q-31 0 -43.5 -12t-37.5 -63l-47 -99h-29l42 208h47q22 0 36 19q60 83 106.5 220.5t73.5 281.5q6 36 -1.5 45.5t-41.5 15.5l-41 6l5 27h502z
M413 102l87 445q9 48 5.5 58t-31.5 10h-109q-35 0 -43 -4.5t-12 -26.5q-66 -342 -164 -524q-14 -24 13 -24h185q35 0 48 12t21 54z" />
    <glyph glyph-name="afii10022" unicode="&#x415;" horiz-adv-x="559" 
d="M129 649h434q-4 -25 -19 -154l-29 -2q0 65 -13 89q-8 19 -26.5 26t-70.5 7h-78q-25 0 -31.5 -6.5t-11.5 -34.5l-43 -216h97q61 0 78.5 11t35.5 61h29l-38 -189h-29q2 55 -10 66.5t-75 11.5h-95l-33 -176q-15 -80 4 -95q17 -14 101 -14q56 0 83.5 7t48.5 27q27 26 68 96
l28 -10q-45 -116 -64 -154h-468l6 27q62 5 78 19t27 73l80 410q11 60 0.5 74t-72.5 19z" />
    <glyph glyph-name="afii10024" unicode="&#x416;" horiz-adv-x="907" 
d="M557 533l-36 -172q44 1 69 10.5t52 30.5q26 21 51 54.5t76 111.5q62 96 123 96q21 0 32 -9.5t11 -22.5q0 -15 -13 -24.5t-34 -9.5h-14q-7 0 -12.5 -1t-11 -3t-11 -6.5t-10 -8t-11.5 -12t-12.5 -14.5t-14.5 -19t-16 -23t-19.5 -28t-22.5 -32q-50 -71 -117 -99l-1 -3
q59 -17 95 -100q11 -26 56 -145q16 -43 37.5 -58t62.5 -19l-6 -27h-78q-42 0 -63 22t-38 69q-2 5 -49 144q-20 57 -45 76.5t-71 19.5l-37 -197q-6 -31 -7 -47.5t0 -29t12.5 -18t25 -8t41.5 -4.5l-6 -27h-260l7 27q33 3 47 5.5t27 15t18.5 30.5t13.5 57l39 196
q-54 2 -87.5 -15.5t-70.5 -77.5q-25 -40 -87 -146q-30 -47 -57.5 -69.5t-64.5 -22.5h-91l7 27q40 4 62 17.5t54 60.5q15 21 38 56t39 58.5t26 36.5q55 74 134 92l1 3q-54 23 -81 110q-2 6 -5 16q-23 75 -36.5 97.5t-43.5 23.5l-26 1q-34 2 -34 31q1 14 15.5 24t39.5 10
q76 -1 102 -102q19 -73 30 -103.5t28 -52.5q18 -23 43 -33.5t71 -11.5l34 172q11 58 0 71t-70 18l5 27h248l-7 -27q-55 -5 -69.5 -18t-26.5 -71z" />
    <glyph glyph-name="afii10025" unicode="&#x417;" horiz-adv-x="499" 
d="M135 489l-27 6q22 54 43 137q28 9 62 17q56 15 98 15q69 0 118 -35t49 -107q0 -113 -160 -161v-2q57 -11 99 -49t42 -106q0 -102 -80 -160.5t-186 -58.5q-87 0 -143 47q-19 16 -30.5 37.5t-11.5 38.5q-1 18 8.5 29.5t24.5 11.5q19 0 32 -30q39 -100 124 -101
q71 -1 118 53.5t47 131.5q0 59 -26.5 96t-77.5 37q-11 0 -37.5 -4t-34.5 -4h-8q-15 0 -24 8t-9 19q0 13 12.5 22t28.5 9h9q10 0 35 -4t33 -4q51 0 87.5 43.5t36.5 100.5q0 52 -24 80.5t-70 28.5q-97 0 -158 -142z" />
    <glyph glyph-name="afii10026" unicode="&#x418;" horiz-adv-x="732" 
d="M777 649l-7 -27q-56 -5 -70.5 -19t-26.5 -77l-79 -401q-13 -64 -3 -79t70 -19l-7 -27h-240l7 27q53 5 67 19t27 79l89 441h-3l-404 -519q-10 -15 -15 -35l-3 -12h-167l6 27q55 5 70 19t27 77l80 408q12 59 2 73t-67 18l6 27h240l-6 -27q-54 -5 -68 -18t-27 -73l-87 -434
h3l399 510q15 21 17 32l2 10h168z" />
    <glyph glyph-name="afii10027" unicode="&#x419;" horiz-adv-x="732" 
d="M777 649l-7 -27q-56 -5 -70.5 -19t-26.5 -77l-79 -401q-13 -64 -3 -79t70 -19l-7 -27h-240l7 27q53 5 67 19t27 79l89 441h-3l-404 -519q-10 -15 -15 -35l-3 -12h-167l6 27q55 5 70 19t27 77l80 408q12 59 2 73t-67 18l6 27h240l-6 -27q-54 -5 -68 -18t-27 -73l-87 -434
h3l399 510q15 21 17 32l2 10h168zM571 818l28 -10q-40 -112 -143 -112h-1q-40 0 -64 20.5t-24 46.5q0 11 15 39l10 13h22q-7 -66 57 -66t100 69z" />
    <glyph glyph-name="afii10028" unicode="&#x41a;" horiz-adv-x="630" 
d="M276 539l-37 -179q78 3 125 41q27 21 53 56t76 113q59 94 118 94q46 0 46 -33q0 -14 -12.5 -23t-33.5 -9h-15q-10 0 -17 -2t-15.5 -8t-14.5 -12t-17 -20.5t-19.5 -26.5t-25.5 -36.5t-32 -45.5q-50 -69 -113 -97l-1 -3q31 -8 52.5 -33t39.5 -68q17 -37 56 -143
q16 -43 38 -58t62 -19l-6 -27h-77q-43 0 -64 22t-38 69q-3 9 -21 60.5t-30 83.5q-19 56 -46 76t-73 20l-38 -201q-13 -69 -2.5 -83.5t71.5 -19.5l-5 -27h-253l6 27q57 5 72.5 20t28.5 83l81 409q11 53 -0.5 65.5t-72.5 17.5l6 27h248l-6 -27q-54 -5 -69 -17.5t-25 -65.5z
" />
    <glyph glyph-name="afii10029" unicode="&#x41b;" horiz-adv-x="641" 
d="M685 649l-7 -27q-54 -5 -69.5 -18.5t-27.5 -73.5l-77 -402q-5 -25 -7 -39t-0.5 -26t4.5 -17.5t14.5 -10t23 -5.5t35.5 -3l-5 -27h-249l5 27q39 3 54 9.5t24.5 25t18.5 66.5l86 443q6 28 1.5 36t-27.5 8h-128q-23 0 -29 -5.5t-10 -26.5q-78 -401 -206 -549
q-43 -50 -78 -50q-28 0 -53 11l2 15q64 32 118 106q43 56 90 177t75 262q8 40 -6.5 51.5t-78.5 15.5l7 27h500z" />
    </font>
</defs>
</svg>
