<?xml version="1.0" standalone="no"?>
<!DOCTYPE svg PUBLIC "-//W3C//DTD SVG 1.1//EN" "http://www.w3.org/Graphics/SVG/1.1/DTD/svg11.dtd" >
<svg xmlns="http://www.w3.org/2000/svg" xmlns:xlink="http://www.w3.org/1999/xlink" version="1.1">
<metadata>
Created by FontForge 20170731 at Mon Oct 14 14:23:01 2002
 By ,,,
(c) 2000, 2002 Adobe Systems Incorporated. All Rights Reserved. U.S. Patent Des. 337,604. Other patents pending.
</metadata>
<defs>
<font id="MinionPro-Bold" horiz-adv-x="400" >
  <font-face 
    font-family="Minion Pro"
    font-weight="700"
    font-stretch="normal"
    units-per-em="1000"
    panose-1="2 4 7 3 6 2 1 2 2 3"
    ascent="727"
    descent="-273"
    x-height="442"
    cap-height="650"
    bbox="-318 -360 1684 917"
    underline-thickness="50"
    underline-position="-200"
    unicode-range="U+0020-FB06"
  />
<missing-glyph horiz-adv-x="500" 
d="M0 0v700h500v-700h-500zM250 395l170 255h-340zM280 350l170 -255v510zM80 50h340l-170 255zM50 605v-510l170 255z" />
    <glyph glyph-name="T_h" unicode="Th" horiz-adv-x="1105" 
d="M1086 0h-235v32q35 5 43 16t8 52v177q0 103 -73 103q-42 0 -72 -29v-251q0 -41 7.5 -52.5t38.5 -15.5v-32h-239v32q45 5 55 16t10 59v490q-59 9 -195 9h-39v-475q0 -62 14 -77t75 -20v-34h-309v34q58 5 72 20t14 77v475h-38q-62 0 -85.5 -7t-36.5 -25q-21 -26 -38 -91
h-36q2 31 6.5 97.5t5.5 94.5h22q11 -16 22.5 -20.5t34.5 -4.5h413q57 0 77.5 4.5t20.5 15.5v13q101 18 128 28v-321q64 64 133 64q66 0 102.5 -42.5t36.5 -123.5v-182q0 -47 8.5 -58t48.5 -16v-32z" />
    <glyph glyph-name="T_h.caron" unicode="&#x164;h" horiz-adv-x="1105" 
d="M1086 0h-235v32q35 5 43 16t8 52v177q0 103 -73 103q-42 0 -72 -29v-251q0 -41 7.5 -52.5t38.5 -15.5v-32h-239v32q45 5 55 16t10 59v490q-59 9 -195 9h-39v-475q0 -62 14 -77t75 -20v-34h-309v34q58 5 72 20t14 77v475h-38q-62 0 -85.5 -7t-36.5 -25q-21 -26 -38 -91
h-36q2 31 6.5 97.5t5.5 94.5h22q11 -16 22.5 -20.5t34.5 -4.5h413q57 0 77.5 4.5t20.5 15.5v13q101 18 128 28v-321q64 64 133 64q66 0 102.5 -42.5t36.5 -123.5v-182q0 -47 8.5 -58t48.5 -16v-32zM462 830l15 -26q-49 -38 -132 -123h-30q-65 70 -133 123l17 26
q66 -27 131 -59q67 33 132 59z" />
    <glyph glyph-name="T_h.commaaccent" unicode="&#x162;h" horiz-adv-x="1105" 
d="M1086 0h-235v32q35 5 43 16t8 52v177q0 103 -73 103q-42 0 -72 -29v-251q0 -41 7.5 -52.5t38.5 -15.5v-32h-239v32q45 5 55 16t10 59v490q-59 9 -195 9h-39v-475q0 -62 14 -77t75 -20v-34h-309v34q58 5 72 20t14 77v475h-38q-62 0 -85.5 -7t-36.5 -25q-21 -26 -38 -91
h-36q2 31 6.5 97.5t5.5 94.5h22q11 -16 22.5 -20.5t34.5 -4.5h413q57 0 77.5 4.5t20.5 15.5v13q101 18 128 28v-321q64 64 133 64q66 0 102.5 -42.5t36.5 -123.5v-182q0 -47 8.5 -58t48.5 -16v-32zM317 -31h1q34 0 60 -27t26 -66q0 -88 -122 -119l-11 26q64 31 64 69
q0 36 -50 49q-15 2 -15 26q0 20 14.5 31t32.5 11z" />
    <glyph glyph-name="f_b" unicode="fb" horiz-adv-x="853" 
d="M509 417l36 16q45 21 71 21q87 0 147 -63t60 -148q0 -109 -76 -182t-188 -73q-82 0 -178 36v574q-19 24 -49.5 39.5t-54.5 15.5q-34 0 -45 -38q-11 -31 -11 -138v-35h94q3 -9 -0.5 -26t-12.5 -23h-81v-281q0 -49 11 -61.5t61 -17.5v-33h-262v33q40 5 51 17.5t11 61.5v281
h-67l-4 12l29 37h42v22q0 37 13 70q23 67 88 116q57 44 123 53q53 -3 89 -25q56 10 97 25l6 -7v-279zM509 381v-272q0 -25 5 -36q6 -15 23.5 -30.5t39.5 -16.5q43 -1 75.5 48t32.5 141q0 88 -38.5 131t-92.5 43q-26 0 -45 -8z" />
    <glyph glyph-name="f_f_b" unicode="ffb" horiz-adv-x="1140" 
d="M796 696v-280q24 12 37 17q45 21 70 21q87 0 147 -63t60 -148q0 -109 -76 -182t-188 -73q-82 0 -178 36v571q-45 61 -99 61q-34 0 -49 -41q-12 -30 -12 -138v-35h94q5 -8 1.5 -25t-14.5 -23h-81v-289q0 -46 11 -56.5t56 -15.5v-33h-244v33q33 5 41 16t8 57v288h-160v-289
q0 -44 9 -55.5t43 -16.5v-33h-242v33q43 5 53 15.5t10 55.5v290h-67l-5 12l30 36h42v16q0 34 20 77q27 56 85 95q63 46 141 52q83 -3 123 -45q66 60 145 66q51 -1 88 -25q59 13 95 25zM380 442v20q0 58 28 106q-42 67 -108 67q-25 0 -43 -17t-26 -44q-11 -36 -11 -101v-31
h160zM796 379v-269q0 -25 5 -35q6 -15 23.5 -30.5t39.5 -15.5q43 -1 75.5 49t32.5 137t-38.5 130t-92.5 43q-27 0 -45 -9z" />
    <glyph glyph-name="f_f_h" unicode="ffh" horiz-adv-x="1147" 
d="M1128 0h-235v33q36 4 43.5 14t7.5 50v181q0 103 -72 103q-44 0 -75 -31v-252q0 -40 7 -50t39 -15v-33h-224v33q34 5 42 15t8 53v496q-42 59 -97 59q-36 0 -52 -47q-11 -33 -11 -132v-35h93q5 -8 2 -25t-14 -23h-81v-295q0 -41 10.5 -51t53.5 -15v-33h-241v33
q32 5 40.5 15.5t8.5 51.5v294h-160v-293q0 -42 9 -52.5t43 -15.5v-33h-240v33q40 5 50 15.5t10 52.5v293h-64l-5 12l29 36h40v16q0 30 21 79q32 56 85 93q65 48 143 52q76 -1 123 -44q65 57 142 65q53 -3 87 -23q51 8 97 23l6 -6v-307q64 64 135 64q66 0 102.5 -43
t36.5 -125v-188q0 -41 8.5 -51t48.5 -14v-33zM381 442v22q0 63 28 106q-40 64 -110 64q-51 0 -68 -66q-10 -40 -10 -95v-31h160z" />
    <glyph glyph-name="f_f_j" unicode="ffj" horiz-adv-x="859" 
d="M506 442h102q122 0 183 12v-327q0 -95 -28 -161q-27 -63 -71.5 -121t-68.5 -75q-20 -15 -36 -15q-12 0 -26 16.5t-14 39.5q0 25 23 27q68 3 77 20q9 18 12 71q4 77 4 186v208q0 49 -7 59.5t-42 10.5h-108v-289q0 -44 10.5 -55t54.5 -17v-32h-242v32q32 5 40.5 16t8.5 57
v288h-158v-290q0 -44 9 -55t44 -16v-32h-244v32q42 5 52.5 16t10.5 56v289h-67l-6 12l31 37h42v17q0 37 19 76q28 58 86 100q67 46 137 52q91 -3 132 -54q81 68 161 72q72 -1 116 -45q25 -25 13 -55q-9 -20 -32 -35q-27 -19 -43 -2q-3 3 -16 19.5t-24 29t-31.5 24
t-41.5 11.5q-39 0 -53 -60q-9 -37 -9 -113v-37zM378 442v20q0 29 10 60q10 29 18 42q-12 25 -44 50.5t-72 25.5q-45 0 -60 -58q-10 -37 -10 -109v-31h158z" />
    <glyph glyph-name="f_f_k" unicode="ffk" horiz-adv-x="1112" 
d="M1134 0l-175 -1q-52 63 -137 197q-11 17 -18 17q-6 2 -10 2v-111q0 -44 10.5 -55t55.5 -16v-33h-244v33q36 5 44.5 15.5t8.5 55.5v491q-20 26 -46.5 42.5t-51.5 16.5q-36 0 -52 -47q-11 -33 -11 -130v-35h96q3 -10 -1 -27.5t-13 -21.5h-82v-295q0 -40 10 -50t49 -15v-33
h-239v33q34 5 43 15.5t9 50.5v294h-159v-291q0 -42 8.5 -53t43.5 -16v-33h-243v33q43 5 53 15.5t10 53.5v291h-67l-6 12l31 37h42v14q0 42 24 85q26 51 80 88q65 50 146 53q82 -1 121 -44q65 57 143 65q57 -1 85 -24q66 13 97 24l5 -6v-453q37 10 61 37q34 39 59 83
q12 17 6 28.5t-36 15.5v31l216 9v-31q-78 -13 -122 -52q-33 -30 -74 -82q22 -36 71.5 -102t74.5 -93q24 -26 41 -37.5t43 -17.5v-33zM380 442v22q0 62 28 106q-46 66 -109 66q-51 0 -69 -68q-9 -33 -9 -95v-31h159z" />
    <glyph glyph-name="f_f_t" unicode="fft" horiz-adv-x="924" 
d="M916 37l-84 -38q-27 -11 -40 -11q-123 0 -123 126v281h-160v-297q0 -41 11 -50.5t56 -14.5v-33h-244v33q34 5 41.5 15t7.5 51v296h-160v-297q0 -39 9 -49.5t44 -15.5v-33h-245v33q44 5 54 15t10 50v297h-68l-6 12l31 35h43v17q0 38 21 78q26 51 82 91q67 50 147 54
q74 -1 121 -44q69 61 139 65q63 -3 95 -35q19 -19 8 -42q-8 -21 -31 -37q-19 -13 -33 0q-21 22 -49.5 40.5t-47.5 18.5q-24 0 -33 -31q-8 -27 -4 -140l1 -35h160v59l114 82l14 -8v-133h100q9 -8 6.5 -24.5t-14.5 -22.5h-92v-245q0 -51 17 -71.5t37 -20.5q23 0 54 12z
M381 442v22q0 56 26 105q-16 24 -46 45.5t-66 21.5q-43 0 -64 -57q-11 -33 -11 -106v-31h161z" />
    <glyph glyph-name="f_h" unicode="fh" horiz-adv-x="859" 
d="M840 0h-235v33q35 4 43 15.5t8 52.5v176q0 53 -20.5 77.5t-52.5 24.5q-44 0 -74 -30v-248q0 -41 7.5 -52.5t38.5 -15.5v-33h-230v33q39 5 47.5 15.5t8.5 54.5v493q-17 24 -46.5 40t-57.5 16q-33 0 -44 -36q-12 -32 -12 -141v-33h93q6 -8 2.5 -25.5t-14.5 -23.5h-81v-288
q0 -45 8.5 -56t47.5 -16v-33h-246v33q43 6 52.5 16.5t9.5 55.5v288h-63l-4 12l29 37h38v19q0 35 13 72q27 70 86 115q62 46 126 55q54 -3 87 -24q67 13 99 24l5 -6v-307q64 64 135 64q67 0 103 -42.5t36 -122.5v-184q0 -46 8.5 -56.5t48.5 -15.5v-33z" />
    <glyph glyph-name="f_j" unicode="fj" horiz-adv-x="575" 
d="M221 442h102q122 0 183 12v-328q0 -95 -29 -160q-27 -63 -71 -121t-68 -75q-20 -15 -37 -15q-11 0 -26 17t-15 38q0 27 23 27q66 0 78 21q9 18 12 71q5 145 5 187v208q0 47 -7.5 58.5t-43.5 11.5h-106v-295q0 -41 10.5 -51.5t51.5 -15.5v-32h-251v32q43 6 52 16t9 51v295
h-65l-5 12l31 36h39v22q0 44 24 94q23 46 78 87q70 54 149 58q75 -3 114 -45q24 -28 10 -55q-10 -20 -31 -33q-28 -16 -42 3q-1 1 -8 10.5t-11 14.5t-12.5 14.5t-16 15t-17.5 11.5t-21.5 9t-23.5 3q-40 0 -55 -62q-9 -36 -9 -116v-31z" />
    <glyph glyph-name="f_k" unicode="fk" horiz-adv-x="826" 
d="M846 0l-175 -1q-65 84 -136 197q-13 17 -19 17q-3 2 -10 2v-110q0 -45 10 -56t53 -16v-33h-241v33q37 5 45 15.5t8 56.5v493q-17 24 -46.5 39.5t-55.5 15.5q-35 0 -47 -40q-11 -34 -11 -139v-32h93q5 -8 1.5 -26.5t-13.5 -22.5h-81v-282q0 -49 9 -61t48 -17v-33h-249v33
q44 5 54 17t10 61v282h-67l-4 11l29 38h42v19q0 39 13 72q23 66 90 117q60 44 121 53q57 -3 87 -23q64 11 96 23l6 -6v-453q36 8 63 38q40 48 61 85q12 16 6.5 26.5t-38.5 14.5v31l215 9v-31q-83 -15 -121 -50q-29 -27 -75 -84q21 -33 70.5 -100t74.5 -95q24 -27 41 -38.5
t43 -16.5v-33z" />
    <glyph glyph-name="f_t" unicode="ft" horiz-adv-x="637" 
d="M628 37l-84 -38q-23 -11 -40 -11q-123 0 -123 126v280h-160v-293q0 -43 9.5 -53t52.5 -15v-33h-254v33q44 5 54 15.5t10 52.5v293h-68l-5 12l31 36h42v18q0 36 14 75q20 63 85 114q53 45 122 54q64 -3 94 -33q19 -19 8 -42q-7 -20 -33 -38q-19 -13 -33 0
q-20 21 -47.5 37.5t-46.5 16.5q-25 0 -33 -29q-10 -33 -3 -142l1 -31h160v64l114 77l14 -7v-134h100q9 -8 6.5 -25t-14.5 -23h-92v-244q0 -52 17.5 -72t37.5 -20q23 0 54 12z" />
    <glyph glyph-name="f_f" unicode="ff" horiz-adv-x="615" 
d="M92 442v17q0 41 22 85q26 51 77 88q64 47 134 54q85 -2 131 -50q64 60 135 69q59 0 90 -35q17 -20 7 -44q-8 -19 -31 -36q-21 -15 -36 2q-2 2 -13.5 13t-17.5 16t-16.5 12.5t-19.5 11t-17 3.5q-26 0 -33 -32q-6 -31 0 -138l2 -36h116q5 -8 1.5 -25.5t-13.5 -23.5h-104
v-288q0 -44 12.5 -55.5t63.5 -17.5v-32h-252v32q31 5 39.5 17t8.5 56v288h-158v-288q0 -43 9.5 -55.5t43.5 -17.5v-32h-245v32q42 5 53 17t11 56v288h-68l-5 12l30 37h43zM378 442v19q0 28 7 58q6 22 16 41q-15 30 -46 55t-67 25q-43 0 -57 -54q-11 -38 -11 -113v-31h158z
" />
    <glyph glyph-name="f_i" unicode="fi" horiz-adv-x="581" 
d="M566 0h-236v33q32 4 40 16t8 57v217q0 47 -8 58.5t-44 11.5h-105v-289q0 -42 11 -54t47 -17v-33h-247v33q40 4 50.5 16t10.5 55v289h-67l-5 13l30 36h42v22q0 46 24 94q23 46 78 87q71 55 148 58q77 -3 116 -47q22 -28 9 -55q-9 -22 -31 -33q-27 -17 -42 3l-9 13
q-9 12 -13.5 17.5t-16 17t-20.5 17t-23 10.5t-28 5q-42 0 -55 -59q-9 -40 -9 -119v-31h99q125 0 186 12v-348q0 -45 9.5 -57t50.5 -16v-33z" />
    <glyph glyph-name="f_l" unicode="fl" horiz-adv-x="581" 
d="M568 0h-234v33q29 4 36.5 16t7.5 56v503q-13 20 -35.5 35t-45.5 15q-35 0 -55 -33q-22 -38 -22 -116v-67h104q3 -10 -0.5 -27t-13.5 -22h-90v-290q0 -43 8.5 -54t46.5 -16v-33h-246v33q43 6 53 16.5t10 53.5v290h-68l-4 14l30 35h42v17q0 50 23 99q30 58 81 93
q66 49 136 52q56 0 104 -24q8 2 28 9t33 11l9 -5v-589q0 -44 9.5 -55t52.5 -17v-33z" />
    <glyph glyph-name="f_f_i" unicode="ffi" horiz-adv-x="867" 
d="M851 0h-236v32q30 4 38.5 16t8.5 52v224q0 47 -8 58.5t-44 11.5h-105v-289q0 -45 9.5 -56.5t43.5 -16.5v-32h-230v32q32 5 40.5 17t8.5 56v289h-157v-291q0 -43 9 -54.5t43 -16.5v-32h-241v32q40 5 50.5 17t10.5 55v290h-65l-6 12l31 36h40v17q0 42 18 78q28 58 86 99
q68 48 135 53q95 -3 134 -53q79 67 163 71q73 -1 120 -48q26 -27 12 -54q-9 -21 -31 -35q-28 -18 -44 -2q-2 2 -16 20t-25.5 30.5t-33 24.5t-42.5 12q-41 0 -55 -61q-8 -33 -8 -115v-37h100q124 0 185 12v-354q0 -40 9.5 -51t51.5 -17v-32zM377 442v20q0 34 9 62
q10 29 19 42q-13 26 -45 51t-71 25q-44 0 -60 -58q-9 -34 -9 -111v-31h157z" />
    <glyph glyph-name="f_f_l" unicode="ffl" horiz-adv-x="867" 
d="M853 0h-234v32q28 4 35.5 15t7.5 53v508q-27 52 -82 52q-33 0 -54 -32t-21 -117v-69h105q3 -9 -0.5 -26t-13.5 -22h-91v-289q0 -46 9.5 -57t47.5 -16v-32h-234v32q32 5 40.5 16t8.5 57v289h-157v-290q0 -45 8.5 -56t43.5 -16v-32h-239v32q40 6 49.5 17t9.5 56v289h-64
l-5 12l30 36h39v19q0 39 21 81q28 52 83 91q71 51 143 54q82 -1 128 -45q74 59 149 62q60 1 108 -26q10 3 28.5 11t26.5 11l11 -5v-595q0 -42 10.5 -52.5t52.5 -15.5v-32zM377 442v20q0 21 11 65q4 15 19 46q-38 67 -111 67q-50 0 -67 -66q-9 -34 -9 -105v-27h157z" />
    <glyph glyph-name=".notdef" horiz-adv-x="500" 
d="M0 0v700h500v-700h-500zM250 395l170 255h-340zM280 350l170 -255v510zM80 50h340l-170 255zM50 605v-510l170 255z" />
    <glyph glyph-name=".null" horiz-adv-x="0" 
 />
    <glyph glyph-name="nonmarkingreturn" horiz-adv-x="333" 
 />
    <glyph glyph-name="space" unicode=" " horiz-adv-x="217" 
 />
    <glyph glyph-name="exclam" unicode="!" horiz-adv-x="285" 
d="M141 665h1q81 0 81 -43q0 -10 -10 -73q-22 -126 -49 -330q-2 -9 -23 -9.5t-23 9.5q-24 182 -50 330q-9 57 -9 73q0 43 82 43zM143 -12h-1q-33 0 -54 22t-21 57q0 34 21.5 56t54.5 22t54.5 -22t21.5 -56q0 -35 -21.5 -57t-54.5 -22z" />
    <glyph glyph-name="quotedbl" unicode="&#x22;" horiz-adv-x="380" 
d="M147 708l10 -7q-3 -48 -37 -260l-37 -18q-7 37 -18.5 102t-18.5 103.5t-10 45.5zM331 708l9 -7q-4 -69 -37 -260l-37 -18q-7 37 -18.5 102t-18.5 103.5t-10 45.5z" />
    <glyph glyph-name="numbersign" unicode="#" horiz-adv-x="500" 
d="M468 469l-11 -82h-95l-30 -121h84l-13 -82h-90l-41 -169h-49l40 169h-96l-40 -169h-50l40 169h-96l11 82h105l28 121h-89l10 82h99l35 145h51l-36 -145h97l34 145h49l-34 -145h87zM312 387h-96l-29 -121h96z" />
    <glyph glyph-name="dollar" unicode="$" horiz-adv-x="500" 
d="M275 380l38 -14q149 -55 149 -168q-1 -79 -51 -127.5t-136 -58.5v-83h-41v80q-97 1 -165 42q-10 29 -27 142l32 5q54 -137 160 -147v210l-31 12q-147 59 -147 166q0 69 47 116t131 58v75h41v-72q48 0 93 -12q25 -7 36 -9q17 -89 23 -133l-32 -5q-10 30 -21 51t-37 41.5
t-62 25.5v-195zM234 396v179q-39 -6 -59.5 -30.5t-20.5 -56.5q0 -60 80 -92zM275 247v-194q37 6 59.5 30.5t22.5 66.5q0 57 -69 90z" />
    <glyph glyph-name="percent" unicode="%" horiz-adv-x="764" 
d="M601 624l-409 -661l-37 26l408 661zM196 635h1q74 0 114.5 -54.5t40.5 -119.5q0 -67 -40 -121.5t-116 -54.5q-51 0 -87.5 28.5t-52 67t-15.5 79.5t15.5 79.5t52 67t87.5 28.5zM198 599h-2q-30 0 -43.5 -44.5t-13.5 -92.5q0 -50 14 -95.5t45 -45.5q30 0 43 45.5t13 94.5
q0 138 -56 138zM570 338h1q74 0 114 -54.5t40 -120.5t-39.5 -120.5t-115.5 -54.5q-75 0 -115.5 54.5t-40.5 120.5t40.5 120.5t115.5 54.5zM570 303h-1q-31 0 -44 -43.5t-13 -94.5t13.5 -96t45.5 -45q31 0 43.5 45t12.5 95q0 53 -12.5 96t-44.5 43z" />
    <glyph glyph-name="ampersand" unicode="&#x26;" horiz-adv-x="715" 
d="M732 426v-34q-46 -4 -68.5 -17.5t-50.5 -49.5q-13 -16 -84 -117q99 -96 173 -210l-6 -12q-67 0 -113.5 12t-58.5 24q-6 6 -33 35t-46 48q-91 -119 -193 -119q-95 0 -152 57.5t-57 128.5q0 31 8 54t30.5 46.5t41 37.5t60.5 44q-67 64 -67 142q0 68 54 118t128 50
q75 0 122 -41.5t47 -104.5q0 -46 -42 -82q-27 -23 -80 -59q64 -53 155 -140q28 40 49 87q17 33 6.5 47t-61.5 21l1 34h237zM289 625h-1q-28 0 -47.5 -26.5t-19.5 -61.5q0 -37 21 -66.5t74 -70.5q50 42 50 124q0 41 -20.5 71t-56.5 30zM300 77h1q31 0 64.5 17t52.5 41
q-70 72 -209 193q-42 -45 -42 -110q0 -68 39 -104.5t94 -36.5z" />
    <glyph glyph-name="quotesingle" unicode="'" horiz-adv-x="199" 
d="M147 708l10 -7q-6 -59 -37 -260l-37 -18q-47 245 -49 251z" />
    <glyph glyph-name="parenleft" unicode="(" horiz-adv-x="352" 
d="M314 -144l-26 -28q-212 154 -212 443v1q0 290 212 442l26 -27q-68 -68 -105.5 -177.5t-37.5 -238.5q0 -128 39.5 -241.5t103.5 -173.5z" />
    <glyph glyph-name="parenright" unicode=")" horiz-adv-x="352" 
d="M275 271v-1q0 -288 -211 -442l-26 26q67 65 104.5 176.5t37.5 240.5q0 127 -40 242t-102 176l26 25q211 -153 211 -443z" />
    <glyph glyph-name="asterisk" unicode="*" horiz-adv-x="405" 
d="M372 483l-131 -28l34 -138l-27 -11l-72 128l-123 -74l-17 26l100 96l-104 105l18 25l123 -78l60 131l29 -7l-24 -140l133 -6z" />
    <glyph glyph-name="plus" unicode="+" horiz-adv-x="577" 
d="M530 221h-204v-221h-74v221h-205v65h205v199h74v-199h204v-65z" />
    <glyph glyph-name="comma" unicode="," horiz-adv-x="254" 
d="M100 161h1q41 0 78.5 -36.5t37.5 -90.5q0 -65 -49.5 -107.5t-120.5 -59.5l-12 35q90 37 90 97q0 26 -19.5 46.5t-53.5 27.5q-5 1 -9.5 11t-4.5 25q0 23 18.5 37.5t43.5 14.5z" />
    <glyph glyph-name="hyphen" unicode="-" horiz-adv-x="342" 
d="M302 265l-15 -71h-246l15 71h246z" />
    <glyph glyph-name="period" unicode="." horiz-adv-x="254" 
d="M127 -12h-1q-31 0 -52 21.5t-21 55.5q0 32 21 53.5t53 21.5t53 -21.5t21 -53.5q0 -34 -21 -55.5t-53 -21.5z" />
    <glyph glyph-name="slash" unicode="/" horiz-adv-x="327" 
d="M304 665l-217 -710h-70l217 710h70z" />
    <glyph glyph-name="zero" unicode="0" horiz-adv-x="500" 
d="M251 635h1q60 0 104.5 -29.5t68.5 -78.5t35.5 -103t11.5 -112q0 -59 -11.5 -113t-35.5 -103t-69.5 -78.5t-105.5 -29.5t-105 29.5t-69.5 78.5t-36 103t-11.5 112q0 59 12 114t37 103.5t70 77.5t104 29zM249 594h-1q-83 0 -83 -279q0 -118 21 -202t66 -84q83 0 83 285
q0 120 -20.5 200t-65.5 80z" />
    <glyph glyph-name="one" unicode="1" horiz-adv-x="500" 
d="M409 0h-307v34q58 4 73 20t15 71v363q0 40 -7 50t-38 13l-51 3v29q84 13 228 52v-510q0 -54 14.5 -70.5t72.5 -20.5v-34z" />
    <glyph glyph-name="two" unicode="2" horiz-adv-x="500" 
d="M440 175l33 -11q-9 -33 -22 -90t-17 -74h-401v26q122 120 161 165q109 129 109 234q0 54 -27 86.5t-77 32.5q-73 0 -134 -88l-29 23l64 94q60 62 150 62q77 0 129.5 -48.5t52.5 -129.5q0 -57 -32 -110t-107 -125l-120 -114h162q46 0 62 10t43 57z" />
    <glyph glyph-name="three" unicode="3" horiz-adv-x="500" 
d="M306 382v-2q70 -13 109 -56.5t39 -101.5q0 -57 -34.5 -105t-83 -74.5t-92 -40.5t-70.5 -14q-70 0 -111 33q-24 18 -24 40q0 24 30 45q18 16 37 1q21 -18 31.5 -26.5t40.5 -22.5t57 -14q40 0 64.5 34t24.5 101q0 65 -36.5 97.5t-83.5 32.5q-28 0 -54 -7l-7 34
q144 47 144 130q0 46 -24.5 68.5t-61.5 22.5q-63 0 -119 -75l-26 24l50 67q56 62 141 62h1q76 0 119.5 -37.5t43.5 -97.5q0 -38 -32 -67q-15 -14 -73 -51z" />
    <glyph glyph-name="four" unicode="4" horiz-adv-x="500" 
d="M486 174h-90v-62q0 -46 13 -59.5t68 -18.5v-34h-298v34q61 5 75.5 19.5t14.5 62.5v58h-254v41q181 256 309 414h72v-398h90v-57zM269 231v262h-2q-94 -130 -177 -262h179z" />
    <glyph glyph-name="five" unicode="5" horiz-adv-x="500" 
d="M152 515l-27 -153q89 32 129 32q92 0 146.5 -50t54.5 -118q0 -99 -101 -170q-92 -66 -188 -68q-63 0 -103 32q-25 20 -25 41q0 27 32 51q16 11 36 -6q67 -61 129 -61q45 0 68.5 35.5t23.5 93.5q0 68 -40 108t-108 40q-52 0 -109 -19l45 320h318l6 -10l-32 -98h-255z" />
    <glyph glyph-name="six" unicode="6" horiz-adv-x="500" 
d="M179 359l50 23q42 20 59 20q86 0 139 -51t53 -136q0 -96 -64.5 -161.5t-162.5 -65.5q-97 0 -161 69.5t-64 185.5q0 76 24.5 140.5t65.5 108.5t85 72.5t91 44.5q61 20 149 32l7 -38q-57 -12 -107 -36q-130 -66 -164 -208zM235 331h-1q-31 0 -62 -11q-6 -26 -6 -81
q0 -95 32.5 -152.5t74.5 -57.5q76 0 76 142q0 71 -32 115.5t-82 44.5z" />
    <glyph glyph-name="seven" unicode="7" horiz-adv-x="500" 
d="M476 623l9 -12q-26 -55 -90 -188t-110 -232t-87 -191l-103 -12l-8 13q151 224 304 514h-213q-50 0 -66.5 -10.5t-37.5 -56.5h-35q8 46 16.5 104.5t10.5 69.5z" />
    <glyph glyph-name="eight" unicode="8" horiz-adv-x="500" 
d="M261 635h1q81 0 132 -44t51 -111q0 -42 -33 -74q-35 -31 -73 -55q63 -34 98 -73.5t35 -99.5q0 -88 -70 -139t-153 -51q-98 0 -157.5 46t-59.5 123q0 48 42 88q23 21 92 61q-109 60 -109 155q0 73 57.5 123.5t146.5 50.5zM247 595h-1q-33 0 -53.5 -27t-20.5 -61
q0 -47 31.5 -76.5t97.5 -60.5q37 33 37 105q0 59 -28.5 89.5t-62.5 30.5zM259 28h1q41 0 66.5 30t24.5 79q0 26 -8 45.5t-31 38t-42.5 30t-65.5 36.5q-23 -17 -37.5 -48.5t-14.5 -69.5q0 -67 33 -104t74 -37z" />
    <glyph glyph-name="nine" unicode="9" horiz-adv-x="500" 
d="M252 635h1q104 0 161 -72t57 -181q0 -131 -68 -225.5t-180 -138.5q-29 -12 -82.5 -22t-87.5 -11l-6 36q108 19 182.5 89.5t94.5 163.5l-49 -26q-34 -17 -58 -17q-88 0 -140.5 53.5t-52.5 135.5q0 35 14.5 71.5t42 69t72.5 53.5t99 21zM233 595h-1q-38 0 -57 -40t-19 -95
q0 -67 33 -113.5t86 -46.5q25 0 55 13q5 34 5 74q0 85 -24.5 146.5t-77.5 61.5z" />
    <glyph glyph-name="colon" unicode=":" horiz-adv-x="254" 
d="M128 419h1q31 0 51.5 -21.5t20.5 -54.5q0 -32 -21 -53.5t-52 -21.5t-52 21.5t-21 53.5q0 34 20.5 55t52.5 21zM128 -12h-1q-31 0 -51.5 21.5t-20.5 54.5q0 32 21 53.5t52 21.5q32 0 53 -21.5t21 -53.5q0 -34 -21 -55t-53 -21z" />
    <glyph glyph-name="semicolon" unicode=";" horiz-adv-x="254" 
d="M128 419h1q31 0 51.5 -21.5t20.5 -54.5q0 -32 -21 -53.5t-52 -21.5t-52 21.5t-21 53.5q0 34 20.5 55t52.5 21zM101 162h1q41 0 78.5 -36.5t37.5 -90.5q0 -65 -49.5 -107.5t-120.5 -60.5l-10 35q88 37 88 97q0 27 -19 47t-54 27q-5 1 -9.5 11t-4.5 25q0 23 18.5 38
t43.5 15z" />
    <glyph glyph-name="less" unicode="&#x3c;" horiz-adv-x="548" 
d="M497 0l-444 219v68l444 219v-70l-371 -182v-2l371 -182v-70z" />
    <glyph glyph-name="equal" unicode="=" horiz-adv-x="577" 
d="M531 313h-484v65h484v-65zM531 130h-484v65h484v-65z" />
    <glyph glyph-name="greater" unicode="&#x3e;" horiz-adv-x="548" 
d="M497 219l-443 -219v70l370 182v2l-370 182v70l443 -219v-68z" />
    <glyph glyph-name="question" unicode="?" horiz-adv-x="399" 
d="M229 226l-23 -24q-48 18 -87.5 54.5t-39.5 79.5q0 62 97 122q7 4 19 12t18.5 12t16.5 10.5t16 10.5t13 9.5t11.5 9.5t8.5 8.5t5.5 8.5t1.5 7q0 37 -45 37q-29 0 -59 -17.5t-50.5 -35.5t-26.5 -18q-19 0 -39 21.5t-20 47.5q0 22 23 42t56.5 31t55.5 11h1q66 0 123 -53.5
t57 -122.5q0 -33 -12 -57t-47 -49q-4 -3 -19 -13t-23.5 -15.5t-21.5 -16t-20 -18t-12.5 -17t-5.5 -17.5q0 -25 28 -60zM189 -12h-1q-32 0 -53.5 22t-21.5 57q0 33 22 55.5t54 22.5q33 0 55 -22.5t22 -55.5q0 -35 -22 -57t-55 -22z" />
    <glyph glyph-name="at" unicode="@" horiz-adv-x="766" 
d="M552 -16l13 -31q-88 -53 -194 -53q-134 0 -225.5 81t-90.5 228q1 166 114 267t266 101q132 0 211 -74.5t79 -178.5q0 -106 -71 -179t-178 -73q-38 0 -47.5 16.5t-2.5 55.5l8 46l-2 1q-28 -40 -77.5 -79t-85.5 -39q-22 0 -37 23t-14 66q2 103 79 183q31 31 79.5 53
t94.5 22q23 0 54 -9q15 -4 37 -4q-21 -78 -48 -220q-5 -24 -5 -38.5t4.5 -21.5t13.5 -6q52 1 97 54t45 148q0 98 -66.5 154t-166.5 56q-132 0 -218 -91t-85 -229q0 -49 15 -94t45 -84t83.5 -62t122.5 -23q90 0 153 34zM422 375h-1q-31 0 -56 -27q-19 -21 -32.5 -63.5
t-15.5 -87.5q-3 -49 19 -49q14 0 45.5 28.5t59.5 77.5q19 54 30 109q-22 12 -49 12z" />
    <glyph glyph-name="A" unicode="A" horiz-adv-x="706" 
d="M687 0h-286v35q43 7 52 19.5t-4 45.5q-19 57 -40 113h-192q-25 -71 -36 -107q-13 -36 -2.5 -50.5t63.5 -20.5v-35h-224v35q50 6 68.5 23t43.5 80l205 514l51 13q177 -483 191 -521q26 -67 44 -85t66 -24v-35zM390 266l-74 217h-3q-16 -43 -45 -123t-34 -94h156z" />
    <glyph glyph-name="B" unicode="B" horiz-adv-x="637" 
d="M401 353v-4q192 -23 192 -156q0 -99 -93 -150q-76 -43 -211 -43h-254v35q58 5 72 20.5t14 78.5v383q0 63 -13 78t-67 20v35h292q111 0 165 -34q59 -38 59 -114q0 -65 -45.5 -100.5t-110.5 -48.5zM253 363h23q72 0 105.5 29.5t33.5 91.5q0 64 -31.5 94.5t-76.5 30.5
q-33 0 -45 -12q-9 -9 -9 -44v-190zM253 323v-187q0 -55 16.5 -75t56.5 -19q48 1 83.5 36.5t35.5 103.5q0 141 -172 141h-20z" />
    <glyph glyph-name="C" unicode="C" horiz-adv-x="676" 
d="M625 186l35 -15q-26 -99 -56 -160q-113 -26 -186 -26q-96 0 -170.5 29t-118 77.5t-65.5 106t-22 119.5q0 155 109 251.5t287 96.5q60 0 182 -27q15 -91 23 -163l-37 -7q-43 153 -187 153q-104 0 -164.5 -83.5t-60.5 -200.5q0 -136 66 -220.5t169 -84.5q118 0 196 154z
" />
    <glyph glyph-name="D" unicode="D" horiz-adv-x="761" 
d="M41 650h300q197 0 287 -87q89 -82 89 -212q0 -173 -125 -268q-110 -83 -303 -83h-257v35q60 5 74.5 20.5t14.5 78.5v382q0 63 -13 78.5t-67 20.5v35zM255 540v-401q0 -55 17 -75.5t68 -20.5q102 0 164 77.5t62 209.5q0 144 -75 217q-62 62 -163 62q-49 0 -63 -14
q-10 -11 -10 -55z" />
    <glyph glyph-name="E" unicode="E" horiz-adv-x="581" 
d="M535 173l36 -7q-14 -90 -35 -166h-510v35q65 5 80 20t15 78v384q0 64 -13 78.5t-68 19.5v35h471q0 -8 2 -31.5t4 -58t4 -60.5l-37 -5q-16 62 -40 86q-24 25 -100 25h-48q-28 0 -34.5 -5.5t-6.5 -29.5v-212h67q65 0 83 12t28 63h36v-201h-36q-10 53 -28 64.5t-83 11.5h-67
v-174q0 -38 5 -57t19 -25q23 -10 90 -10q82 0 110 32q29 32 56 98z" />
    <glyph glyph-name="F" unicode="F" horiz-adv-x="554" 
d="M524 497l-35 -6q-15 59 -40 86q-28 29 -104 29h-50q-27 0 -33 -5.5t-6 -29.5v-221h82q66 0 84 12t26 61h36v-199h-36q-8 51 -26 63.5t-84 12.5h-82v-158q0 -70 14.5 -86t80.5 -21v-35h-311v35q56 5 69 21.5t13 85.5v369q0 67 -13 83t-69 21v35h473q4 -76 11 -153z" />
    <glyph glyph-name="G" unicode="G" horiz-adv-x="727" 
d="M703 311v-35q-38 -8 -47 -20t-9 -61v-79q0 -64 6 -95q-154 -36 -228 -36q-174 0 -277.5 91t-103.5 242q0 83 32 150t87 109.5t126 65t151 22.5q69 0 195 -28q6 -64 16 -165l-38 -8q-17 81 -68 120t-125 39q-94 0 -159 -78.5t-65 -209.5q0 -58 14.5 -112t42.5 -98.5
t75 -71.5t106 -27q39 0 56 12q23 14 23 56v95q0 30 -2 42.5t-14 23.5t-32 14t-62 7v35h300z" />
    <glyph glyph-name="H" unicode="H" horiz-adv-x="783" 
d="M746 650v-35q-59 -5 -71.5 -19.5t-12.5 -78.5v-385q0 -62 13 -77t71 -20v-35h-305v35q60 5 73.5 20t13.5 78v186h-273v-186q0 -63 13 -78t69 -20v-35h-298v35q56 5 69 20t13 78v384q0 63 -13.5 78t-72.5 20v35h300v-35q-55 -5 -67.5 -20t-12.5 -78v-147h273v147
q0 63 -13 78t-70 20v35h301z" />
    <glyph glyph-name="I" unicode="I" horiz-adv-x="378" 
d="M338 0h-301v35q57 5 70.5 20.5t13.5 77.5v384q0 63 -13.5 78t-70.5 20v35h301v-35q-57 -5 -70 -20t-13 -78v-384q0 -62 13 -77.5t70 -20.5v-35z" />
    <glyph glyph-name="J" unicode="J" horiz-adv-x="366" 
d="M337 650v-35q-53 -5 -65.5 -20t-12.5 -78v-330q0 -103 -19.5 -169.5t-82.5 -117.5q-55 -47 -122 -62l-15 36q80 34 94 122q11 67 11 194v327q0 63 -14 78t-72 20v35h298z" />
    <glyph glyph-name="K" unicode="K" horiz-adv-x="703" 
d="M699 0h-201q-86 118 -197 279q-26 38 -49 35v-180q0 -64 13.5 -79t72.5 -20v-35h-299v35q55 5 68.5 20.5t13.5 78.5v382q0 63 -13.5 78.5t-70.5 20.5v35h294v-35q-54 -5 -66.5 -20t-12.5 -79v-170q34 10 76 53q77 79 140 162q19 23 14 35.5t-39 16.5l-18 2v35h260v-35
q-50 -5 -84.5 -19t-73.5 -51q-35 -32 -146 -148q96 -143 210 -288q30 -38 53.5 -53.5t54.5 -20.5v-35z" />
    <glyph glyph-name="L" unicode="L" horiz-adv-x="551" 
d="M512 179l36 -10q-22 -119 -37 -169h-487v35q66 5 81.5 20t15.5 78v383q0 63 -14 78.5t-72 20.5v35h305v-35q-58 -5 -71.5 -20.5t-13.5 -78.5v-391q0 -36 4.5 -51.5t19.5 -22.5q21 -8 75 -8q73 0 103 34t55 102z" />
    <glyph glyph-name="M" unicode="M" horiz-adv-x="888" 
d="M860 0h-295v35q56 6 68 22t11 85l-2 385h-4l-222 -520h-27l-205 510h-4l-12 -261q-7 -109 0 -162q3 -32 20.5 -43t69.5 -16v-35h-241v35q41 4 59 17t23 41q11 56 21 189l16 198q6 85 -7.5 107t-77.5 28v35h207l193 -438l196 438h201v-35q-59 -6 -71.5 -21t-10.5 -78
l9 -374q2 -69 14.5 -85t70.5 -22v-35z" />
    <glyph glyph-name="N" unicode="N" horiz-adv-x="740" 
d="M724 650v-34q-41 -2 -58.5 -15.5t-21.5 -46.5q-9 -93 -9 -167v-397h-48l-416 499h-3v-225q0 -82 8 -162q4 -35 23 -49.5t73 -17.5v-35h-245v35q42 3 61 17.5t22 45.5q10 85 10 166v209q0 52 -3 71t-17 36q-14 18 -32.5 25.5t-51.5 10.5v34h185l383 -439h3v176
q0 88 -8 165q-4 33 -24.5 47t-74.5 17v34h244z" />
    <glyph glyph-name="O" unicode="O" horiz-adv-x="766" 
d="M393 664h1q139 0 235 -93.5t96 -239.5q0 -157 -99 -251.5t-245 -94.5q-149 0 -244 96.5t-95 241.5q0 138 94.5 239.5t256.5 101.5zM375 622h-1q-77 0 -127.5 -76.5t-50.5 -202.5q0 -134 55 -225t148 -91q75 0 123.5 72t48.5 205q0 147 -54 232.5t-142 85.5z" />
    <glyph glyph-name="P" unicode="P" horiz-adv-x="599" 
d="M42 650h276q119 0 175 -39q74 -50 74 -147q0 -94 -58.5 -145.5t-146.5 -62.5q-15 -2 -41 -2l-68 17v-138q0 -63 15 -78.5t79 -20.5v-34h-310v34q57 5 70.5 20.5t13.5 78.5v383q0 63 -13 78.5t-66 20.5v35zM253 570v-260q24 -10 54 -10q16 0 33.5 6.5t37.5 22.5t32.5 50.5
t12.5 81.5q0 78 -36 114t-88 36q-25 0 -37 -10q-9 -8 -9 -31z" />
    <glyph glyph-name="Q" unicode="Q" horiz-adv-x="758" 
d="M734 -137l-8 -27q-73 -12 -147 8q-82 20 -236 143q-51 3 -111.5 30t-100.5 70q-89 97 -89 232q0 91 38.5 168t120 127.5t192.5 50.5q139 0 235 -93.5t96 -238.5q0 -121 -63.5 -208.5t-157.5 -116.5q139 -98 231 -145zM358 30l82 26q6 -4 26 -19q41 17 73 85.5t32 180.5
q0 148 -54.5 234t-144.5 86q-80 0 -128.5 -80t-48.5 -200t43 -205.5t120 -107.5z" />
    <glyph glyph-name="R" unicode="R" horiz-adv-x="659" 
d="M660 23l-6 -32q-2 0 -12.5 0.5t-17.5 0.5q-90 4 -131 25.5t-74 71.5q-7 12 -82 148q-23 43 -66 43h-19v-146q0 -62 14 -78t71 -21v-35h-302v35q57 5 71.5 21.5t14.5 77.5v384q0 60 -13.5 76t-68.5 21v35h281q123 0 179 -38q67 -45 67 -132q0 -113 -125 -163
q35 -70 82 -142q51 -81 76 -109q31 -32 61 -43zM252 320h26q68 0 98 26q48 40 48 119q0 73 -35 109t-83 36q-35 0 -45 -10q-9 -8 -9 -37v-243z" />
    <glyph glyph-name="S" unicode="S" horiz-adv-x="505" 
d="M442 495l-35 -8q-43 137 -139 137q-42 0 -69.5 -28t-27.5 -71q0 -40 28 -68.5t96 -62.5q87 -42 132 -89.5t45 -116.5q0 -87 -67.5 -145t-175.5 -58q-54 0 -101 14q-32 9 -60 22q-15 36 -30 169l35 12q9 -27 23 -55t35.5 -57t52 -47t64.5 -18q46 0 73 29t27 77
q0 41 -29.5 72.5t-89.5 63.5q-86 44 -130 89.5t-44 112.5q0 85 62.5 140.5t166.5 55.5q61 0 139 -26q2 -21 9 -71t10 -73z" />
    <glyph glyph-name="T" unicode="T" horiz-adv-x="641" 
d="M616 481l-36 -2q-18 78 -44 104q-24 23 -102 23h-45v-473q0 -63 15.5 -78t82.5 -20v-35h-326v35q64 5 79 20t15 78v473h-34q-58 0 -80.5 -6.5t-34.5 -20.5q-21 -21 -42 -101h-37q2 31 6.5 100t5.5 97h25q11 -16 22.5 -20.5t34.5 -4.5h402q35 0 57 25h25q2 -77 11 -194z
" />
    <glyph glyph-name="U" unicode="U" horiz-adv-x="729" 
d="M723 650v-35q-76 -4 -84 -59q-9 -56 -9 -139v-109q0 -173 -72 -250q-70 -73 -185 -73q-111 0 -177 51q-83 65 -83 236v236q0 69 -13.5 85.5t-70.5 21.5v35h301v-35q-56 -5 -69.5 -21.5t-13.5 -85.5v-218q0 -114 41 -175.5t121 -61.5q171 0 171 257v107q0 79 -10 139
q-5 28 -26.5 42t-70.5 17v35h250z" />
    <glyph glyph-name="V" unicode="V" horiz-adv-x="711" 
d="M702 650v-36q-50 -5 -72 -24.5t-51 -89.5q-81 -192 -202 -511h-50q-85 228 -203 528q-23 58 -42.5 75t-66.5 22v36h298v-36q-52 -8 -62 -20.5t4 -44.5q7 -19 144 -377h3q95 251 125 349q19 51 9.5 68.5t-68.5 24.5v36h234z" />
    <glyph glyph-name="W" unicode="W" horiz-adv-x="979" 
d="M969 650v-35q-51 -8 -70.5 -26.5t-40.5 -80.5q-82 -242 -165 -519h-52q-18 50 -75 203.5t-89 240.5h-2q-17 -52 -48 -142.5t-56 -164t-46 -137.5h-52q-12 41 -69.5 231.5t-90.5 294.5q-18 58 -36.5 76t-63.5 24v35h295v-35q-54 -6 -64.5 -21t2.5 -53q56 -197 101 -344h2
q90 266 144 447h48q84 -229 168 -451h3q55 179 93 338q13 45 0 62t-71 22v35h235z" />
    <glyph glyph-name="X" unicode="X" horiz-adv-x="693" 
d="M700 0h-321v35q46 8 53 21.5t-9 36.5q-6 10 -107 180q-80 -121 -109 -176q-17 -33 -8 -43.5t60 -18.5v-35h-251v35q78 9 119 55q92 116 163 222q-121 198 -142 232q-21 36 -47 51t-76 20v35h301v-35q-38 -8 -45.5 -19t4.5 -28q31 -58 90 -151q49 63 90 140q16 27 7.5 38
t-55.5 20v35h241v-35q-49 -6 -75.5 -19.5t-56.5 -49.5q-35 -41 -125 -165q20 -32 76.5 -122t89.5 -141q31 -48 55.5 -63t77.5 -20v-35z" />
    <glyph glyph-name="Y" unicode="Y" horiz-adv-x="655" 
d="M646 650v-35q-46 -5 -68.5 -21.5t-51.5 -62.5q-64 -102 -112 -196q-18 -32 -18 -69v-129q0 -67 14.5 -82.5t82.5 -20.5v-34h-325v34q65 5 79.5 20.5t14.5 82.5v112q0 27 -13 54q-33 67 -124 228q-27 48 -47 63t-62 21v35h285v-35q-46 -6 -54 -18t7 -39q16 -31 35 -67
t43 -81t37 -70q91 179 104 212q15 30 4.5 43.5t-63.5 19.5v35h232z" />
    <glyph glyph-name="Z" unicode="Z" horiz-adv-x="619" 
d="M574 193l33 -8q-22 -138 -36 -185h-531l-11 18q124 186 381 587h-126q-71 0 -97.5 -8t-39.5 -27q-26 -39 -39 -95l-33 1q2 41 6 108.5t5 90.5h26q11 -17 21.5 -21t36.5 -4h406l8 -15q-357 -556 -374 -584q50 -6 124 -6q140 0 177 33q34 32 63 115z" />
    <glyph glyph-name="bracketleft" unicode="[" horiz-adv-x="351" 
d="M302 -162h-185v866h185v-36q-75 -7 -90 -20.5t-15 -73.5v-608q0 -59 14.5 -72t90.5 -20v-36z" />
    <glyph glyph-name="backslash" unicode="\" horiz-adv-x="332" 
d="M304 -45h-70l-206 710h70z" />
    <glyph glyph-name="bracketright" unicode="]" horiz-adv-x="351" 
d="M234 -162h-185v36q75 7 90 20.5t15 72.5v608q0 59 -15 72.5t-90 20.5v36h185v-866z" />
    <glyph glyph-name="asciicircum" unicode="^" horiz-adv-x="559" 
d="M506 213l-77 1l-151 334l-152 -335h-73l194 410h65z" />
    <glyph glyph-name="underscore" unicode="_" horiz-adv-x="500" 
d="M500 -125h-500v50h500v-50z" />
    <glyph glyph-name="grave" unicode="`" 
d="M241 496l-31 -13q-82 101 -130 157l4 14q11 8 48.5 15t53.5 5q13 -41 55 -178z" />
    <glyph glyph-name="a" unicode="a" horiz-adv-x="466" 
d="M465 45l-109 -57q-38 0 -61 21q-17 15 -25 36q-87 -57 -105 -57q-60 0 -97.5 39t-37.5 89q0 38 18 59t58 37q13 5 45 16.5t49.5 18t37 15.5t27.5 16v30q0 46 -16.5 72t-43.5 26q-21 0 -34 -18q-15 -19 -28 -69q-9 -34 -42 -34q-21 0 -42 15.5t-21 34.5q0 21 35 48
q82 56 166 71q59 0 98 -29q52 -39 52 -132v-165q0 -59 32 -59q16 0 34 8zM265 79v160q-5 -3 -24 -14t-31 -17q-47 -24 -47 -69q0 -37 19.5 -56.5t40.5 -19.5t42 16z" />
    <glyph glyph-name="b" unicode="b" horiz-adv-x="534" 
d="M196 417l37 18q41 19 64 19q89 0 148 -62.5t59 -148.5q0 -109 -75 -182t-185 -73q-80 0 -176 36v542q0 44 -9.5 55.5t-51.5 14.5v31q105 12 189 36v-286zM196 382v-274q0 -20 5 -33q6 -15 23 -30.5t38 -16.5q43 -1 73 47t30 137t-37 133t-90 44q-21 0 -42 -7z" />
    <glyph glyph-name="c" unicode="c" horiz-adv-x="422" 
d="M399 120l19 -24q-35 -49 -81 -78.5t-91 -29.5q-98 0 -157.5 63.5t-59.5 149.5q0 55 27 105.5t74 85.5q85 62 169 62h1q56 0 86 -25q20 -13 18 -36q0 -21 -14.5 -38t-28.5 -17q-10 0 -22 11q-59 52 -101 52q-34 0 -59 -35.5t-25 -109.5q0 -47 15.5 -83.5t38.5 -55.5
t44.5 -28.5t39.5 -9.5q59 0 107 41z" />
    <glyph glyph-name="d" unicode="d" horiz-adv-x="547" 
d="M541 58v-32q-147 -25 -197 -39v58l-61 -39q-29 -18 -50 -18q-46 0 -91 22.5t-79 74.5t-34 122q0 103 79 175t195 72q4 0 41 -5v121q0 40 -10.5 50.5t-56.5 15.5v31q116 13 195 36v-577q0 -42 7.5 -51.5t39.5 -14.5zM344 80v281q-24 51 -73 51q-11 0 -25.5 -7t-32.5 -24
t-30 -55.5t-12 -91.5q0 -83 38 -126.5t80 -43.5q28 0 55 16z" />
    <glyph glyph-name="e" unicode="e" horiz-adv-x="437" 
d="M400 123l17 -24q-40 -60 -89.5 -85.5t-90.5 -25.5q-97 0 -152 61.5t-55 152.5q0 107 74 181q71 71 153 71h1q68 0 115.5 -49t47.5 -112q-2 -32 -29 -36q-50 -8 -239 -16q3 -77 40.5 -119t94.5 -42q62 0 112 43zM238 414h-1q-30 0 -52.5 -34t-27.5 -92q23 1 62.5 2t57.5 1
q12 0 16.5 4t4.5 16q1 40 -16 71.5t-44 31.5z" />
    <glyph glyph-name="f" unicode="f" horiz-adv-x="331" 
d="M52 442h40v22q0 28 13 67q20 63 85 118q55 46 119 54q53 -3 82 -30q19 -19 8 -44q-6 -17 -30 -36q-20 -14 -34 0q-47 49 -84 49q-24 0 -31 -26q-7 -24 -2 -139l2 -35h115q3 -9 -0.5 -26t-13.5 -22h-101v-286q0 -47 13 -59t69 -17v-32h-272v32q43 5 52.5 16.5t9.5 59.5
v286h-65l-5 12z" />
    <glyph glyph-name="g" unicode="g" horiz-adv-x="492" 
d="M494 439l4 -7q-5 -16 -17.5 -34.5t-25.5 -26.5l-57 4q26 -33 26 -76q0 -74 -55.5 -115t-134.5 -41q-12 0 -50 5q-14 -16 -14 -28q0 -15 16 -26.5t49 -11.5q16 0 46 1t46 1q27 0 51 -5t49 -17t39.5 -38t14.5 -63q0 -84 -82.5 -144.5t-184.5 -60.5q-90 0 -138.5 37
t-48.5 84q0 30 31 55q10 9 75 50q-48 18 -75 55q-16 26 -14 54q57 24 102 66q-46 15 -72 50.5t-26 82.5q0 78 59 121t134 43h1q54 0 107 -27q41 2 145 12zM236 417h-1q-24 0 -41.5 -29.5t-17.5 -81.5q0 -56 17.5 -91t51.5 -35q60 0 60 114q0 53 -17.5 88t-51.5 35zM243 -21
h-1q-66 0 -84 -21q-23 -23 -23 -50q0 -39 36 -68t93 -29q56 0 88.5 26.5t32.5 67.5q0 50 -56 66q-36 8 -86 8z" />
    <glyph glyph-name="h" unicode="h" horiz-adv-x="550" 
d="M531 0h-235v32q35 5 43 16t8 53v176q0 103 -72 103q-43 0 -72 -28v-251q0 -42 7.5 -53.5t38.5 -15.5v-32h-237v32q43 4 53 15t10 58v465q0 45 -8 53.5t-48 13.5v30q73 8 184 36v-313q64 64 133 64q66 0 102 -42t36 -124v-183q0 -46 8.5 -56.5t48.5 -16.5v-32z" />
    <glyph glyph-name="i" unicode="i" horiz-adv-x="295" 
d="M148 660h1q30 0 50.5 -20.5t20.5 -49.5t-21 -49.5t-51 -20.5q-28 0 -49 21t-21 49q0 29 21 49.5t49 20.5zM285 0h-257v32q44 5 54 17t10 65v198q0 48 -9 59.5t-46 17.5v29q95 11 183 36v-340q0 -52 10 -64.5t55 -17.5v-32z" />
    <glyph glyph-name="j" unicode="j" horiz-adv-x="288" 
d="M148 660h1q30 0 50.5 -20.5t20.5 -49.5t-21 -49.5t-51 -20.5q-28 0 -49 21t-21 49q0 29 21 49.5t49 20.5zM32 388v30q70 8 189 36v-325q0 -94 -28 -162q-27 -63 -71.5 -121t-68.5 -75q-20 -15 -35 -15q-12 0 -26 16.5t-14 38.5q0 12 6.5 19.5t17.5 7.5q64 3 75 20
q9 18 12 71q4 79 4 188v188q0 52 -9.5 64t-51.5 19z" />
    <glyph glyph-name="k" unicode="k" horiz-adv-x="513" 
d="M535 0l-176 -2q-30 37 -129 197q-12 16 -20 18q-3 1 -10 1v-107q0 -47 10.5 -58t55.5 -17v-32h-257v32q46 6 56 16.5t10 58.5v463q0 41 -10 52t-50 16v29q92 10 185 36v-459q29 6 58 39q26 29 59 86q9 16 2.5 26t-33.5 14v30l216 9v-30q-90 -16 -125 -52q-30 -30 -71 -82
q19 -31 69.5 -101t75.5 -100q23 -27 40 -36.5t44 -14.5v-32z" />
    <glyph glyph-name="l" unicode="l" horiz-adv-x="278" 
d="M270 0h-260v32q45 7 55 18.5t10 59.5v457q0 45 -9 55t-51 15v30q96 10 188 36v-593q0 -50 10 -61.5t57 -16.5v-32z" />
    <glyph glyph-name="m" unicode="m" horiz-adv-x="843" 
d="M823 0h-235v32q34 5 42.5 16t8.5 57v173q0 98 -70 98q-37 0 -77 -34q2 -22 2 -40v-202q0 -42 8.5 -52.5t43.5 -15.5v-32h-231v32q36 5 43.5 14.5t7.5 53.5v182q0 94 -69 94q-36 0 -77 -32v-244q0 -42 8 -52.5t37 -15.5v-32h-235v32q44 5 53.5 15.5t9.5 57.5v210
q0 44 -8 56.5t-43 17.5v29q85 13 176 38v-76q2 1 26 18t37 25q51 31 87 31q41 0 70.5 -21.5t43.5 -56.5q14 10 38 26.5t34 23.5q41 28 78 28q65 0 100 -42t35 -119v-193q0 -42 8.5 -52t47.5 -16v-32z" />
    <glyph glyph-name="n" unicode="n" horiz-adv-x="566" 
d="M549 0h-233v32q32 5 39.5 16.5t7.5 64.5v170q0 94 -69 94q-34 0 -74 -31v-242q0 -46 7.5 -56.5t39.5 -15.5v-32h-241v32q48 7 57 17t9 60v208q0 44 -8 54.5t-45 18.5v28q87 11 181 38v-73q9 6 29.5 21t32.5 22q44 28 78 28q61 0 96 -42.5t35 -117.5v-189q0 -46 9 -57
t49 -16v-32z" />
    <glyph glyph-name="o" unicode="o" horiz-adv-x="525" 
d="M268 454h1q101 0 164 -66t63 -159q0 -114 -68.5 -177.5t-163.5 -63.5q-111 0 -172.5 66.5t-61.5 155.5q0 113 73 178.5t165 65.5zM255 415h-1q-33 0 -57 -43.5t-24 -124.5q0 -95 28 -157.5t74 -62.5q35 0 56.5 36t21.5 136q0 104 -25.5 160t-72.5 56z" />
    <glyph glyph-name="p" unicode="p" horiz-adv-x="547" 
d="M212 391l69 44q32 19 55 19q84 0 132.5 -57.5t48.5 -135.5q0 -105 -70 -177t-173 -96q-32 0 -62 12v-127q0 -44 12.5 -55t69.5 -16v-32h-278v32q47 4 57.5 15.5t10.5 54.5v449q0 40 -10 51t-48 16v30q62 10 186 46v-73zM212 355v-278q15 -15 39 -27t42 -12
q41 0 66.5 47.5t25.5 124.5q0 85 -33.5 126.5t-76.5 41.5q-35 0 -63 -23z" />
    <glyph glyph-name="q" unicode="q" horiz-adv-x="536" 
d="M534 -230h-274v32q54 6 66.5 16.5t12.5 55.5v148l-80 -34q-111 0 -170.5 65t-59.5 148q0 106 83 180t197 73q42 -3 72 -14q18 -6 33 -6q19 0 51 12l5 -4q-3 -60 -3 -106v-463q0 -45 10 -55.5t57 -15.5v-32zM339 58v314q-32 41 -68 41q-38 0 -69.5 -46.5t-31.5 -131.5
q0 -83 42.5 -134t90.5 -51q20 0 36 8z" />
    <glyph glyph-name="r" unicode="r" horiz-adv-x="404" 
d="M220 348h2q62 106 113 106q29 0 48 -18.5t19 -44.5q0 -25 -14 -45t-35 -28q-19 -7 -31 5q-26 20 -46 20q-33 0 -56 -53v-186q0 -46 12 -57t70 -15v-32h-274v32q42 5 53 16t11 56v219q0 37 -9 47.5t-45 18.5v28q103 14 182 38v-107z" />
    <glyph glyph-name="s" unicode="s" horiz-adv-x="383" 
d="M338 322l-30 -9q-45 102 -106 102q-20 0 -35.5 -15.5t-15.5 -38.5q0 -44 74 -77q69 -30 102 -62t33 -86q0 -69 -54.5 -108.5t-124.5 -39.5q-37 0 -72.5 10.5t-53.5 23.5q-5 14 -10 57t-5 78l29 2q19 -54 53.5 -93t76.5 -39q24 0 39 15.5t15 38.5q0 24 -16 43.5t-59 40.5
q-25 12 -41 21t-39.5 27.5t-35.5 43.5t-12 55q0 60 45.5 100.5t122.5 41.5q55 0 96 -18q16 -38 24 -114z" />
    <glyph glyph-name="t" unicode="t" horiz-adv-x="339" 
d="M329 37l-82 -38q-27 -11 -40 -11q-123 0 -123 126v280h-63l-5 12l28 36h40v73l114 78l14 -7v-144h98q9 -8 7.5 -25t-13.5 -23h-92v-247q0 -87 56 -87q24 0 51 12z" />
    <glyph glyph-name="u" unicode="u" horiz-adv-x="555" 
d="M542 56v-32q-42 -6 -90 -16q-37 -7 -93 -20l-9 7v60q-32 -26 -50 -37q-44 -30 -86 -30q-62 0 -96.5 38t-34.5 104v207q0 33 -6 43t-26 15l-23 6v30q20 1 90 7q56 5 96 11q-3 -42 -3 -151v-145q0 -45 19.5 -66.5t48.5 -21.5q43 0 71 28v243q0 34 -5.5 44t-26.5 15l-31 6
v30q27 1 100 7q55 5 91 11v-325q0 -39 7.5 -51t34.5 -15z" />
    <glyph glyph-name="v" unicode="v" horiz-adv-x="465" 
d="M483 442v-32q-37 -7 -52 -19.5t-31 -48.5q-45 -101 -146 -353h-39q-128 318 -144 355q-14 33 -28.5 45.5t-50.5 20.5v32h247v-32q-34 -7 -41 -16.5t2 -35.5q70 -189 78 -209q40 101 73 206q10 24 1 36.5t-49 18.5v32h180z" />
    <glyph glyph-name="w" unicode="w" horiz-adv-x="683" 
d="M699 442v-32q-35 -6 -47.5 -17t-28.5 -51q-29 -75 -128 -353h-38q-15 37 -55.5 132.5t-61.5 146.5q-22 -54 -60.5 -152t-50.5 -127h-38q-22 68 -63.5 190.5t-56.5 167.5q-12 36 -24.5 47.5t-43.5 15.5v32h247v-32q-42 -7 -51.5 -17t-1.5 -35q11 -36 31.5 -103.5
t27.5 -91.5h2q3 7 104 274h39q24 -62 114 -276h2q44 136 56 190q7 30 -3 41t-55 18v32h184z" />
    <glyph glyph-name="x" unicode="x" horiz-adv-x="482" 
d="M494 0h-249v32q28 4 33 14.5t-9 32.5l-50 86q-12 -16 -32 -49.5t-20 -34.5q-13 -22 -7 -32t36 -17v-32h-189v32q40 7 61 19.5t47 42.5q17 20 81 105l-88 145q-22 37 -37.5 48.5t-54.5 17.5v32h236v-32q-25 -6 -30.5 -14.5t5.5 -24.5l47 -78q5 8 49 77q11 18 5 26t-35 14
v32h183v-32q-41 -7 -57.5 -15t-43.5 -35q-23 -25 -79 -101l97 -154q24 -38 45.5 -53t55.5 -20v-32z" />
    <glyph glyph-name="y" unicode="y" horiz-adv-x="465" 
d="M483 442v-32q-36 -6 -50 -18.5t-33 -54.5q-15 -31 -116 -275q-71 -168 -105 -280q-9 -27 -37 -27q-23 0 -47 19t-24 44q0 22 28 39q56 30 81 72q15 28 19 41q7 21 -3 47q-83 231 -126 331q-14 32 -28.5 44t-48.5 18v32h247v-32q-33 -7 -40 -15t1 -32l75 -222
q34 85 75 214q8 25 -2 36.5t-46 18.5v32h180z" />
    <glyph glyph-name="z" unicode="z" horiz-adv-x="445" 
d="M410 152l29 -14q-46 -134 -47 -138h-355l-13 16q83 132 225 383h-52q-50 0 -74 -14.5t-46 -56.5l-17 -33l-30 13q23 82 40 155h22q11 -22 61 -21h245l9 -14q-33 -56 -220 -384h64q54 0 84 16t58 64z" />
    <glyph glyph-name="braceleft" unicode="{" horiz-adv-x="357" 
d="M311 -129v-39q-170 0 -170 140q0 27 3 93.5t2 102.5q0 16 -2 26.5t-10 25t-27.5 23t-49.5 10.5l-1 36q31 2 51 10.5t27.5 23t9.5 24.5t2 27q0 32 -3 97.5t-2 95.5q0 143 170 143v-39q-88 -9 -88 -96q0 -30 6 -95t6 -91q0 -99 -91 -116v-4q91 -18 91 -116
q0 -26 -6.5 -90.5t-5.5 -92.5q0 -44 18 -69t70 -30z" />
    <glyph glyph-name="bar" unicode="|" horiz-adv-x="270" 
d="M177 -250h-84v1000h84v-1000z" />
    <glyph glyph-name="braceright" unicode="}" horiz-adv-x="357" 
d="M302 289v-36q-31 -2 -51 -11t-28 -24t-10 -27t-2 -32q0 -28 3 -93t3 -97q0 -137 -170 -137v37q52 6 71 32t19 68q0 24 -6.5 84t-6.5 96q0 102 91 120v4q-91 18 -91 116q0 35 6.5 98t6.5 91q0 84 -90 95v37q34 0 60.5 -5t53.5 -18.5t41.5 -42.5t14.5 -73q0 -32 -3 -95.5
t-3 -91.5q0 -21 2 -32.5t9.5 -27.5t27.5 -24.5t52 -10.5z" />
    <glyph glyph-name="asciitilde" unicode="~" horiz-adv-x="577" 
d="M483 322l46 -29q-42 -107 -133 -107q-46 0 -125 42q-48 28 -83 28q-53 0 -92 -74l-44 35q52 102 140 102q49 0 107 -33q63 -36 103 -36q49 0 81 72z" />
    <glyph glyph-name="uni00A0" unicode="&#xa0;" horiz-adv-x="217" 
 />
    <glyph glyph-name="exclamdown" unicode="&#xa1;" horiz-adv-x="285" 
d="M142 458h1q32 0 53.5 -22t21.5 -57q0 -34 -22 -56t-54 -22q-33 0 -54.5 22t-21.5 56q0 35 21.5 57t54.5 22zM143 -220h-1q-81 0 -81 44q0 18 10 71q24 129 50 331q1 9 22 9t23 -9q26 -198 49 -331q10 -53 10 -71q0 -44 -82 -44z" />
    <glyph glyph-name="cent" unicode="&#xa2;" horiz-adv-x="500" 
d="M436 230l18 -26q-61 -89 -145 -103v-96h-40v93q-102 4 -162.5 63t-60.5 138q0 115 100 185q56 39 123 49v82h40v-78q7 1 17 1q61 0 96 -23q15 -11 15 -30t-14 -35t-25 -16q-7 0 -18 11q-38 42 -71 48v-313q74 1 127 50zM269 187v309q-40 -4 -73 -41t-33 -108
q0 -69 30.5 -108.5t75.5 -51.5z" />
    <glyph glyph-name="sterling" unicode="&#xa3;" horiz-adv-x="500" 
d="M404 289h-153q1 -5 1 -15q0 -45 -33 -84.5t-79 -64.5q64 2 111 -18q106 -44 139 -44q38 0 38 24q0 22 -7 39q-5 12 3 24q22 28 40 28q12 0 19 -12t7 -29q0 -65 -86 -128q-51 -36 -103 -36q-17 0 -37.5 6.5t-34 13t-39 20.5t-33.5 18q-40 22 -67 22q-11 0 -20 -11t-13 -28
q-4 -16 -16 -16q-14 0 -21.5 11.5t-1.5 32.5q4 12 14.5 27.5t27 35t22.5 28.5q39 50 39 112q0 25 -3 44h-95v46h88q-8 58 -8 83q0 44 23 90.5t72 81.5q59 41 116 45q62 -1 98 -37q18 -22 4 -46q-12 -18 -26 -27q-15 -9 -33 2q-16 13 -19.5 15.5t-18 12.5t-22 13t-19 7
t-21.5 4q-42 0 -42 -64q0 -22 4 -47.5t14.5 -71.5t13.5 -61h157v-46z" />
    <glyph glyph-name="currency" unicode="&#xa4;" horiz-adv-x="500" 
d="M471 136l-50 -49l-68 74q-43 -36 -109 -36t-110 37l-67 -75l-49 49l71 67q-43 46 -43 122q0 75 43 122l-71 67l49 49l68 -75q43 37 109 37h1q65 0 109 -37l67 75l50 -49l-71 -67q43 -47 43 -122q0 -76 -43 -122zM245 459h-1q-48 0 -80 -38.5t-32 -95.5q0 -60 31.5 -97
t81.5 -37t81 37t31 97q0 58 -31.5 96t-80.5 38z" />
    <glyph glyph-name="yen" unicode="&#xa5;" horiz-adv-x="500" 
d="M489 623v-34q-34 -4 -49 -16t-39 -52q-33 -56 -93 -182h125v-42h-132v-29v-37h133v-41h-133v-54q0 -67 14 -82.5t76 -19.5v-34h-303v34q59 4 72.5 19.5t13.5 83.5v53h-134v41h134v25v41h-134v42h122q-28 74 -72 175q-20 45 -35.5 57.5t-48.5 17.5v34h247v-34l-23 -5
q-18 -4 -22.5 -11t1.5 -22q51 -146 67 -187q56 116 75 168q10 25 6.5 36.5t-25.5 15.5l-26 5v34h183z" />
    <glyph glyph-name="brokenbar" unicode="&#xa6;" horiz-adv-x="270" 
d="M177 325h-84v350h84v-350zM177 -175h-84v350h84v-350z" />
    <glyph glyph-name="section" unicode="&#xa7;" horiz-adv-x="482" 
d="M429 204q-1 -93 -101 -210q-67 -76 -149 -98q-44 0 -72 22q-19 16 -19 30q0 8 11 24t19 21q13 9 24 2q33 -27 84 -27q23 0 39.5 12t16.5 30t-12.5 34.5t-48.5 48.5q-18 19 -57 55.5t-54 52.5q-67 65 -67 153q0 105 84 193q74 77 151 96q41 0 72 -27q12 -12 12 -26
q-1 -20 -27 -43q-10 -6 -21 3q-33 27 -83 27q-23 0 -38.5 -11.5t-15.5 -26.5q0 -30 38 -60q17 -14 56 -45.5t55 -44.5q50 -40 77 -82.5t26 -102.5zM100 416v-1q0 -75 89 -157q101 -93 122 -123q21 -33 24 -77h2q29 48 29 95q2 78 -89 150q-65 52 -105 92q-46 49 -44 98l-2 2
q-26 -39 -26 -79z" />
    <glyph glyph-name="dieresis" unicode="&#xa8;" 
d="M97 636h1q28 0 47.5 -19.5t19.5 -47.5q0 -27 -20 -46.5t-48 -19.5q-27 0 -47 19.5t-20 46.5q0 28 20 47.5t47 19.5zM302 636h1q28 0 47.5 -19.5t19.5 -47.5q0 -27 -20 -46.5t-48 -19.5q-27 0 -47 19.5t-20 46.5q0 28 20 47.5t47 19.5z" />
    <glyph glyph-name="copyright" unicode="&#xa9;" horiz-adv-x="699" 
d="M349 631h1q131 0 219.5 -89.5t88.5 -217.5q0 -127 -88.5 -216t-220.5 -89t-220 89t-88 216q0 128 88 217.5t220 89.5zM350 592h-1q-110 0 -182.5 -77t-72.5 -190t72.5 -190t183.5 -77t183.5 77t72.5 190t-72.5 190t-183.5 77zM475 261l27 -6q-3 -11 -12 -43.5t-13 -42.5
q-60 -20 -110 -20q-91 0 -141 51.5t-50 120.5q0 82 58 130.5t140 48.5q62 0 106 -18q4 -55 11 -89l-26 -6q-15 40 -36 60.5t-58 20.5q-48 0 -76.5 -39t-28.5 -100q0 -64 32 -105t77 -41q65 0 100 78z" />
    <glyph glyph-name="ordfeminine" unicode="&#xaa;" horiz-adv-x="345" 
d="M335 279l-77 -38q-42 0 -58 40q-68 -40 -82 -40q-39 0 -64 26t-25 58q0 49 57 71q99 34 111 41v15q0 23 -12 37.5t-32 14.5q-29 0 -46 -58q-7 -21 -27 -21q-17 0 -31.5 10.5t-14.5 25.5q0 18 25 33q56 38 122 48q41 0 70 -19q32 -25 32 -69v-120q0 -37 22 -37q8 0 24 6z
M197 310v97q-21 -9 -43 -20q-30 -15 -30 -43q0 -23 13.5 -34.5t29.5 -11.5q15 0 30 12z" />
    <glyph glyph-name="guillemotleft" unicode="&#xab;" horiz-adv-x="456" 
d="M237 51l-32 -19q-70 97 -158 193q80 84 158 191l32 -19l-83 -172zM412 51l-31 -19q-75 98 -159 193q77 81 159 191l31 -19l-83 -172z" />
    <glyph glyph-name="logicalnot" unicode="&#xac;" horiz-adv-x="577" 
d="M531 101h-74v209h-410v65h484v-274z" />
    <glyph glyph-name="uni00AD" unicode="&#xad;" horiz-adv-x="342" 
d="M302 265l-15 -71h-246l15 71h246z" />
    <glyph glyph-name="registered" unicode="&#xae;" horiz-adv-x="319" 
d="M160 659h1q56 0 94.5 -39.5t38.5 -94.5q0 -53 -38.5 -92t-95.5 -39q-56 0 -94 38t-38 93t38 94.5t94 39.5zM161 635h-1q-45 0 -74 -31.5t-29 -78.5q0 -45 30 -76t74 -31q45 0 74.5 31t29.5 76q0 47 -29.5 78.5t-74.5 31.5zM238 469l-4 -12q-35 0 -50 21q-12 16 -20 30
q-5 7 -13 7h-4v-22q0 -14 3 -16.5t16 -3.5v-15h-70v15q15 1 17.5 3.5t2.5 16.5v70q0 14 -2.5 16.5t-16.5 3.5v15h71q50 0 50 -37q0 -24 -28 -36q12 -21 32 -44q8 -8 16 -12zM147 533h9q10 0 18 5q11 8 11 20q0 25 -25 25q-8 0 -10.5 -2.5t-2.5 -10.5v-37z" />
    <glyph glyph-name="macron" unicode="&#xaf;" 
d="M325 527h-250v68h250v-68z" />
    <glyph glyph-name="degree" unicode="&#xb0;" horiz-adv-x="331" 
d="M165 665h1q56 0 95.5 -36t39.5 -94q0 -60 -39 -95.5t-97 -35.5t-97 35.5t-39 95.5q0 58 39.5 94t96.5 36zM166 622h-1q-32 0 -52.5 -24.5t-20.5 -62.5t21 -62.5t53 -24.5t52 24t20 60q0 40 -20 65t-52 25z" />
    <glyph glyph-name="plusminus" unicode="&#xb1;" horiz-adv-x="577" 
d="M530 304h-204v-193h-74v193h-205v65h205v181h74v-181h204v-65zM530 0h-483v65h483v-65z" />
    <glyph glyph-name="two.superior" unicode="&#xb2;" horiz-adv-x="348" 
d="M295 506l25 -7q-12 -37 -27 -101h-258v26q159 120 159 199q0 31 -15.5 48.5t-42.5 17.5q-42 0 -81 -49l-21 19l35 49q17 21 45.5 34t56.5 13q54 0 88.5 -29.5t34.5 -80.5q0 -35 -24 -64t-85 -78l-43 -34v-2h90q26 0 37 6.5t26 32.5z" />
    <glyph glyph-name="three.superior" unicode="&#xb3;" horiz-adv-x="348" 
d="M208 606v-2q97 -14 97 -82q0 -41 -35.5 -73t-76 -45.5t-70.5 -13.5q-47 0 -74 22q-14 14 -7 33t26 31q10 6 22 -3q49 -42 75 -42q18 0 31 16t13 49q0 36 -18.5 53t-47.5 17q-18 0 -40 -6l-7 29q86 28 86 69q0 17 -12.5 27.5t-31.5 10.5q-36 0 -70 -38l-18 18l34 44
q35 35 90 35h1q49 0 77 -23.5t28 -55.5q0 -24 -20 -40q-19 -15 -52 -30z" />
    <glyph glyph-name="acute" unicode="&#xb4;" 
d="M337 663l-134 -180l-31 13q7 22 26.5 89t23.5 77q7 6 51.5 10.5t57.5 1.5z" />
    <glyph glyph-name="mu" unicode="&#xb5;" horiz-adv-x="538" 
d="M526 69l12 -28q-39 -53 -114 -53t-90 69h-2q-59 -69 -112 -69q-52 0 -78 43h-3v-15q0 -51 12.5 -130t23.5 -117l-15 -13q-22 2 -49.5 14t-42.5 28q-1 10 -1 49.5t0.5 109.5t0.5 112v261q0 68 -3 101l128 24q3 -29 3 -114v-172q0 -51 21.5 -76t50.5 -25q34 0 63 32v331
l127 24v-329q0 -65 37 -65q17 0 31 8z" />
    <glyph glyph-name="paragraph" unicode="&#xb6;" horiz-adv-x="519" 
d="M479 536l-31 -32l-86 -10v-470q0 -116 -74 -189q-25 -25 -55.5 -39t-41.5 -14q-46 0 -74 24q-14 14 -12 31q5 21 23 34q12 9 24 3q34 -24 71 -24q35 0 56.5 32.5t21.5 124.5v135l-70 -31q-8 -2 -17 -2q-56 0 -115.5 59.5t-59.5 148.5q0 102 74 169q71 63 161 63h200z" />
    <glyph glyph-name="periodcentered" unicode="&#xb7;" horiz-adv-x="254" 
d="M127 157h-1q-31 0 -52.5 21.5t-21.5 56.5q0 33 21.5 54.5t53.5 21.5t54 -21.5t22 -54.5q0 -35 -21.5 -56.5t-54.5 -21.5z" />
    <glyph glyph-name="cedilla" unicode="&#xb8;" 
d="M253 0l-24 -25q-15 -18 7 -40q39 -38 39 -68q0 -67 -124 -102l-13 25q28 12 44 29t16 31q0 16 -22 34q-21 20 -22.5 35t16.5 38l37 43h46z" />
    <glyph glyph-name="one.superior" unicode="&#xb9;" horiz-adv-x="348" 
d="M289 398h-219v29q38 3 49.5 15t11.5 50v154q0 30 -5.5 38.5t-29.5 10.5l-25 2v29q74 6 158 29v-263q0 -39 11 -50.5t49 -14.5v-29z" />
    <glyph glyph-name="ordmasculine" unicode="&#xba;" horiz-adv-x="377" 
d="M192 542h1q72 0 115 -43t42 -106q-1 -73 -47.5 -112.5t-116.5 -39.5q-76 0 -119.5 43.5t-41.5 102.5q1 71 52 113t115 42zM183 508h-1q-20 0 -34 -25.5t-15 -78.5q-2 -54 15.5 -91t44.5 -37q20 0 35.5 24.5t16.5 77.5q2 57 -15 93.5t-47 36.5z" />
    <glyph glyph-name="guillemotright" unicode="&#xbb;" horiz-adv-x="456" 
d="M48 396l31 20q86 -111 159 -192q-84 -90 -159 -192l-31 18l83 174zM219 396l32 20q77 -105 158 -192q-86 -92 -158 -192l-32 18l83 174z" />
    <glyph glyph-name="onequarter" unicode="&#xbc;" horiz-adv-x="784" 
d="M620 622l-411 -662l-37 27l410 661zM295 278h-219v30q38 4 49.5 15.5t11.5 49.5v153q0 29 -5.5 37.5t-29.5 11.5l-25 2v29q77 8 158 29v-262q0 -38 11 -49.5t49 -15.5v-30zM709 97h-56v-20q0 -28 9.5 -36.5t41.5 -11.5v-29h-205v29q41 3 52 11t11 37v20h-156v24
q131 174 185 236h62v-219h56v-41zM562 138v133h-1q-33 -42 -93 -133h94z" />
    <glyph glyph-name="onehalf" unicode="&#xbd;" horiz-adv-x="789" 
d="M601 622l-411 -662l-36 27l409 661zM286 278h-218v29q38 4 49 15.5t11 50.5v153q0 29 -5.5 37.5t-29.5 11.5l-25 2v29q76 7 158 29v-262q0 -39 11 -50.5t49 -15.5v-29zM698 109l25 -8q-4 -11 -25 -101h-264v21q93 79 125 118q40 50 40 86q0 30 -16.5 48t-43.5 18
q-40 0 -79 -47l-21 18l34 48q15 20 43.5 33.5t58.5 13.5q54 0 89 -28.5t35 -78.5q0 -35 -25.5 -67t-86.5 -78l-44 -34v-2h89q28 0 40 7t26 33z" />
    <glyph glyph-name="threequarters" unicode="&#xbe;" horiz-adv-x="789" 
d="M620 622l-411 -662l-36 27l410 661zM241 488v-2q97 -14 97 -83q0 -40 -36 -72.5t-77 -46.5t-71 -14q-49 0 -72 21q-14 14 -7 33q8 20 23 29q10 6 22 -3q47 -40 76 -40q19 0 32.5 16.5t13.5 50.5q0 38 -20 55.5t-46 17.5q-18 0 -40 -6l-7 26q85 28 85 70q0 17 -11.5 27.5
t-30.5 10.5q-32 0 -67 -41l-20 20l33 44q36 34 89 34h1q49 0 77 -23t28 -55q0 -24 -18 -39q-13 -10 -54 -30zM708 97h-56v-21q0 -28 9.5 -36.5t41.5 -11.5v-28h-206v28q41 3 52.5 11.5t11.5 36.5v21h-155v24q115 157 185 236h61v-219h56v-41zM561 138v131h-2
q-24 -30 -93 -131h95z" />
    <glyph glyph-name="questiondown" unicode="&#xbf;" horiz-adv-x="399" 
d="M207 458h1q32 0 53.5 -22t21.5 -56t-22 -56.5t-54 -22.5q-33 0 -55 22.5t-22 56.5t22 56t55 22zM171 219l22 24q48 -18 87.5 -54.5t39.5 -79.5q0 -60 -97 -122q-8 -5 -23.5 -14.5t-23.5 -14.5t-19.5 -12.5t-17.5 -12.5t-12.5 -11t-9 -11t-2.5 -9q0 -37 45 -37q29 0 59 17
t50 34t26 17q18 0 38 -21.5t20 -47.5q0 -21 -23 -42q-23 -20 -56.5 -31t-55.5 -11h-1q-66 0 -123 54t-57 122q0 34 11.5 58t47.5 48q6 4 23.5 16t28 20t24 19t20 21.5t6.5 20.5q0 27 -27 60z" />
    <glyph glyph-name="Agrave" unicode="&#xc0;" horiz-adv-x="706" 
d="M687 0h-286v35q43 7 52 19.5t-4 45.5q-19 57 -40 113h-192q-25 -71 -36 -107q-13 -36 -2.5 -50.5t63.5 -20.5v-35h-224v35q50 6 68.5 23t43.5 80l205 514l51 13q177 -483 191 -521q26 -67 44 -85t66 -24v-35zM390 266l-74 217h-3q-16 -43 -45 -123t-34 -94h156zM420 714
l-14 -30l-207 58l-3 12q3 17 20.5 45.5t30.5 37.5q29 -20 86.5 -61t86.5 -62z" />
    <glyph glyph-name="Aacute" unicode="&#xc1;" horiz-adv-x="706" 
d="M687 0h-286v35q43 7 52 19.5t-4 45.5q-19 57 -40 113h-192q-25 -71 -36 -107q-13 -36 -2.5 -50.5t63.5 -20.5v-35h-224v35q50 6 68.5 23t43.5 80l205 514l51 13q177 -483 191 -521q26 -67 44 -85t66 -24v-35zM390 266l-74 217h-3q-16 -43 -45 -123t-34 -94h156zM525 755
l-4 -12l-206 -60l-14 28q145 103 173 122q14 -5 31.5 -32t19.5 -46z" />
    <glyph glyph-name="Acircumflex" unicode="&#xc2;" horiz-adv-x="706" 
d="M687 0h-286v35q43 7 52 19.5t-4 45.5q-19 57 -40 113h-192q-25 -71 -36 -107q-13 -36 -2.5 -50.5t63.5 -20.5v-35h-224v35q50 6 68.5 23t43.5 80l205 514l51 13q177 -483 191 -521q26 -67 44 -85t66 -24v-35zM390 266l-74 217h-3q-16 -43 -45 -123t-34 -94h156zM513 710
l-16 -26q-33 13 -132 61q-90 -45 -131 -61l-16 26q63 51 132 123h31q51 -55 132 -123z" />
    <glyph glyph-name="Atilde" unicode="&#xc3;" horiz-adv-x="706" 
d="M687 0h-286v35q43 7 52 19.5t-4 45.5q-19 57 -40 113h-192q-25 -71 -36 -107q-13 -36 -2.5 -50.5t63.5 -20.5v-35h-224v35q50 6 68.5 23t43.5 80l205 514l51 13q177 -483 191 -521q26 -67 44 -85t66 -24v-35zM390 266l-74 217h-3q-16 -43 -45 -123t-34 -94h156zM310 798
h1q21 0 63 -18q39 -17 61 -17q28 0 49 42l30 -15q-31 -98 -93 -98q-17 0 -70 21q-30 15 -52 15q-27 0 -50 -44l-30 20q34 94 91 94z" />
    <glyph glyph-name="Adieresis" unicode="&#xc4;" horiz-adv-x="706" 
d="M687 0h-286v35q43 7 52 19.5t-4 45.5q-19 57 -40 113h-192q-25 -71 -36 -107q-13 -36 -2.5 -50.5t63.5 -20.5v-35h-224v35q50 6 68.5 23t43.5 80l205 514l51 13q177 -483 191 -521q26 -67 44 -85t66 -24v-35zM390 266l-74 217h-3q-16 -43 -45 -123t-34 -94h156zM464 828
h1q28 0 47.5 -19.5t19.5 -47.5q0 -27 -20 -46.5t-48 -19.5q-27 0 -47 19.5t-20 46.5q0 28 20 47.5t47 19.5zM254 828h1q28 0 47.5 -19.5t19.5 -47.5q0 -27 -20 -46.5t-48 -19.5q-27 0 -47 19.5t-20 46.5q0 28 20 47.5t47 19.5z" />
    <glyph glyph-name="Aring" unicode="&#xc5;" horiz-adv-x="706" 
d="M687 0h-286v35q43 7 52 19.5t-4 45.5q-19 57 -40 113h-192q-25 -71 -36 -107q-13 -36 -2.5 -50.5t63.5 -20.5v-35h-224v35q50 6 68.5 23t43.5 80l205 514l51 13q177 -483 191 -521q26 -67 44 -85t66 -24v-35zM390 266l-74 217h-3q-16 -43 -45 -123t-34 -94h156zM361 863
h1q37 0 65.5 -25t28.5 -64q0 -40 -29 -65.5t-66 -25.5q-38 0 -66.5 25.5t-28.5 65.5t28 64.5t67 24.5zM362 825h-1q-20 0 -33 -14.5t-13 -36.5q0 -23 13.5 -38t33.5 -15t32 14.5t12 38.5q0 22 -12 36.5t-32 14.5z" />
    <glyph glyph-name="AE" unicode="&#xc6;" horiz-adv-x="882" 
d="M839 175l33 -9q-13 -81 -37 -166h-501v35q61 5 75.5 23t14.5 87v146h-168q-38 -78 -81 -175q-19 -43 -9 -58t65 -23v-35h-245v35q48 6 72 24t52 69q94 171 226 435q12 23 9 32.5t-26 12.5l-59 8l-1 34h553q3 -59 11 -147l-36 -5q-17 63 -38 84q-23 24 -102 24h-52
q-28 0 -34 -5t-6 -30v-232h65q67 0 86 12t27 62h37v-202h-37q-8 54 -26.5 66.5t-86.5 13.5h-65v-152q0 -44 5 -62t20 -25q19 -8 90 -8q80 0 109 32q37 39 60 99zM424 340v258q-10 0 -22 -3q-11 -22 -53.5 -108.5t-70.5 -146.5h146z" />
    <glyph glyph-name="Ccedilla" unicode="&#xc7;" horiz-adv-x="676" 
d="M623 185l37 -14q-31 -112 -55 -158q-91 -24 -166 -26l-11 -12q-8 -9 -6.5 -17.5t15.5 -23.5q38 -44 38 -71q0 -65 -125 -106l-17 31q29 14 45 30.5t16 29.5q0 12 -21 36q-19 21 -22 34t10 31l29 37q-89 4 -157.5 34t-109 78t-61 103.5t-20.5 115.5q-1 155 108.5 251.5
t291.5 96.5q67 0 178 -26q15 -104 22 -163l-37 -9q-26 84 -71 119t-114 35q-102 0 -163 -82t-61 -201q0 -137 62.5 -222t161.5 -85q127 0 203 154z" />
    <glyph glyph-name="Egrave" unicode="&#xc8;" horiz-adv-x="581" 
d="M535 173l36 -7q-14 -90 -35 -166h-510v35q65 5 80 20t15 78v384q0 64 -13 78.5t-68 19.5v35h471q0 -8 2 -31.5t4 -58t4 -60.5l-37 -5q-16 62 -40 86q-24 25 -100 25h-48q-28 0 -34.5 -5.5t-6.5 -29.5v-212h67q65 0 83 12t28 63h36v-201h-36q-10 53 -28 64.5t-83 11.5h-67
v-174q0 -38 5 -57t19 -25q23 -10 90 -10q82 0 110 32q29 32 56 98zM360 714l-14 -30l-207 58l-3 12q3 17 20.5 45.5t30.5 37.5q29 -20 86.5 -61t86.5 -62z" />
    <glyph glyph-name="Eacute" unicode="&#xc9;" horiz-adv-x="581" 
d="M535 173l36 -7q-14 -90 -35 -166h-510v35q65 5 80 20t15 78v384q0 64 -13 78.5t-68 19.5v35h471q0 -8 2 -31.5t4 -58t4 -60.5l-37 -5q-16 62 -40 86q-24 25 -100 25h-48q-28 0 -34.5 -5.5t-6.5 -29.5v-212h67q65 0 83 12t28 63h36v-201h-36q-10 53 -28 64.5t-83 11.5h-67
v-174q0 -38 5 -57t19 -25q23 -10 90 -10q82 0 110 32q29 32 56 98zM456 755l-4 -12l-206 -60l-14 28q145 103 173 122q14 -5 31.5 -32t19.5 -46z" />
    <glyph glyph-name="Ecircumflex" unicode="&#xca;" horiz-adv-x="581" 
d="M535 173l36 -7q-14 -90 -35 -166h-510v35q65 5 80 20t15 78v384q0 64 -13 78.5t-68 19.5v35h471q0 -8 2 -31.5t4 -58t4 -60.5l-37 -5q-16 62 -40 86q-24 25 -100 25h-48q-28 0 -34.5 -5.5t-6.5 -29.5v-212h67q65 0 83 12t28 63h36v-201h-36q-10 53 -28 64.5t-83 11.5h-67
v-174q0 -38 5 -57t19 -25q23 -10 90 -10q82 0 110 32q29 32 56 98zM442 710l-16 -26q-33 13 -132 61q-90 -45 -131 -61l-16 26q63 51 132 123h31q51 -55 132 -123z" />
    <glyph glyph-name="Edieresis" unicode="&#xcb;" horiz-adv-x="581" 
d="M535 173l36 -7q-14 -90 -35 -166h-510v35q65 5 80 20t15 78v384q0 64 -13 78.5t-68 19.5v35h471q0 -8 2 -31.5t4 -58t4 -60.5l-37 -5q-16 62 -40 86q-24 25 -100 25h-48q-28 0 -34.5 -5.5t-6.5 -29.5v-212h67q65 0 83 12t28 63h36v-201h-36q-10 53 -28 64.5t-83 11.5h-67
v-174q0 -38 5 -57t19 -25q23 -10 90 -10q82 0 110 32q29 32 56 98zM399 828h1q28 0 47.5 -19.5t19.5 -47.5q0 -27 -20 -46.5t-48 -19.5q-27 0 -47 19.5t-20 46.5q0 28 20 47.5t47 19.5zM189 828h1q28 0 47.5 -19.5t19.5 -47.5q0 -27 -20 -46.5t-48 -19.5q-27 0 -47 19.5
t-20 46.5q0 28 20 47.5t47 19.5z" />
    <glyph glyph-name="Igrave" unicode="&#xcc;" horiz-adv-x="378" 
d="M338 0h-301v35q57 5 70.5 20.5t13.5 77.5v384q0 63 -13.5 78t-70.5 20v35h301v-35q-57 -5 -70 -20t-13 -78v-384q0 -62 13 -77.5t70 -20.5v-35zM258 714l-14 -30l-207 58l-3 12q3 17 20.5 45.5t30.5 37.5q29 -20 86.5 -61t86.5 -62z" />
    <glyph glyph-name="Iacute" unicode="&#xcd;" horiz-adv-x="378" 
d="M338 0h-301v35q57 5 70.5 20.5t13.5 77.5v384q0 63 -13.5 78t-70.5 20v35h301v-35q-57 -5 -70 -20t-13 -78v-384q0 -62 13 -77.5t70 -20.5v-35zM347 755l-4 -12l-206 -60l-14 28q145 103 173 122q14 -5 31.5 -32t19.5 -46z" />
    <glyph glyph-name="Icircumflex" unicode="&#xce;" horiz-adv-x="378" 
d="M338 0h-301v35q57 5 70.5 20.5t13.5 77.5v384q0 63 -13.5 78t-70.5 20v35h301v-35q-57 -5 -70 -20t-13 -78v-384q0 -62 13 -77.5t70 -20.5v-35zM336 710l-16 -26q-33 13 -132 61q-90 -45 -131 -61l-16 26q63 51 132 123h31q51 -55 132 -123z" />
    <glyph glyph-name="Idieresis" unicode="&#xcf;" horiz-adv-x="378" 
d="M338 0h-301v35q57 5 70.5 20.5t13.5 77.5v384q0 63 -13.5 78t-70.5 20v35h301v-35q-57 -5 -70 -20t-13 -78v-384q0 -62 13 -77.5t70 -20.5v-35zM293 828h1q28 0 47.5 -19.5t19.5 -47.5q0 -27 -20 -46.5t-48 -19.5q-27 0 -47 19.5t-20 46.5q0 28 20 47.5t47 19.5zM83 828
h1q28 0 47.5 -19.5t19.5 -47.5q0 -27 -20 -46.5t-48 -19.5q-27 0 -47 19.5t-20 46.5q0 28 20 47.5t47 19.5z" />
    <glyph glyph-name="Eth" unicode="&#xd0;" horiz-adv-x="760" 
d="M52 650h300q188 0 279 -88q87 -82 87 -210q0 -175 -124 -268q-112 -84 -297 -84h-253v34q59 6 73.5 22.5t14.5 80.5v178h-94v50h94v148q0 64 -13 80.5t-67 21.5v35zM266 315v-178q0 -54 14.5 -73t65.5 -19q97 0 159.5 78.5t62.5 208.5q0 145 -72 219q-56 56 -157 56
q-52 0 -64 -14q-9 -8 -9 -49v-179h141v-50h-141z" />
    <glyph glyph-name="Ntilde" unicode="&#xd1;" horiz-adv-x="740" 
d="M724 650v-34q-41 -2 -58.5 -15.5t-21.5 -46.5q-9 -93 -9 -167v-397h-48l-416 499h-3v-225q0 -82 8 -162q4 -35 23 -49.5t73 -17.5v-35h-245v35q42 3 61 17.5t22 45.5q10 85 10 166v209q0 52 -3 71t-17 36q-14 18 -32.5 25.5t-51.5 10.5v34h185l383 -439h3v176
q0 88 -8 165q-4 33 -24.5 47t-74.5 17v34h244zM324 798h1q21 0 63 -18q39 -17 61 -17q28 0 49 42l30 -15q-31 -98 -93 -98q-17 0 -70 21q-30 15 -52 15q-27 0 -50 -44l-30 20q34 94 91 94z" />
    <glyph glyph-name="Ograve" unicode="&#xd2;" horiz-adv-x="766" 
d="M393 664h1q139 0 235 -93.5t96 -239.5q0 -157 -99 -251.5t-245 -94.5q-149 0 -244 96.5t-95 241.5q0 138 94.5 239.5t256.5 101.5zM375 622h-1q-77 0 -127.5 -76.5t-50.5 -202.5q0 -134 55 -225t148 -91q75 0 123.5 72t48.5 205q0 147 -54 232.5t-142 85.5zM456 722
l-14 -30l-207 58l-3 12q3 17 20.5 45.5t30.5 37.5q29 -21 86.5 -62t86.5 -61z" />
    <glyph glyph-name="Oacute" unicode="&#xd3;" horiz-adv-x="766" 
d="M393 664h1q139 0 235 -93.5t96 -239.5q0 -157 -99 -251.5t-245 -94.5q-149 0 -244 96.5t-95 241.5q0 138 94.5 239.5t256.5 101.5zM375 622h-1q-77 0 -127.5 -76.5t-50.5 -202.5q0 -134 55 -225t148 -91q75 0 123.5 72t48.5 205q0 147 -54 232.5t-142 85.5zM536 763
l-4 -12l-206 -60l-14 28q145 103 173 122q14 -5 31.5 -32t19.5 -46z" />
    <glyph glyph-name="Ocircumflex" unicode="&#xd4;" horiz-adv-x="766" 
d="M393 664h1q139 0 235 -93.5t96 -239.5q0 -157 -99 -251.5t-245 -94.5q-149 0 -244 96.5t-95 241.5q0 138 94.5 239.5t256.5 101.5zM375 622h-1q-77 0 -127.5 -76.5t-50.5 -202.5q0 -134 55 -225t148 -91q75 0 123.5 72t48.5 205q0 147 -54 232.5t-142 85.5zM530 718
l-16 -26q-33 13 -132 61q-90 -45 -131 -61l-16 26q63 51 132 123h31q51 -55 132 -123z" />
    <glyph glyph-name="Otilde" unicode="&#xd5;" horiz-adv-x="766" 
d="M393 664h1q139 0 235 -93.5t96 -239.5q0 -157 -99 -251.5t-245 -94.5q-149 0 -244 96.5t-95 241.5q0 138 94.5 239.5t256.5 101.5zM375 622h-1q-77 0 -127.5 -76.5t-50.5 -202.5q0 -134 55 -225t148 -91q75 0 123.5 72t48.5 205q0 147 -54 232.5t-142 85.5zM333 806h1
q21 0 63 -18q39 -17 61 -17q28 0 49 42l30 -15q-31 -98 -93 -98q-18 0 -70 21q-30 15 -52 15q-27 0 -50 -44l-30 20q34 94 91 94z" />
    <glyph glyph-name="Odieresis" unicode="&#xd6;" horiz-adv-x="766" 
d="M393 664h1q139 0 235 -93.5t96 -239.5q0 -157 -99 -251.5t-245 -94.5q-149 0 -244 96.5t-95 241.5q0 138 94.5 239.5t256.5 101.5zM375 622h-1q-77 0 -127.5 -76.5t-50.5 -202.5q0 -134 55 -225t148 -91q75 0 123.5 72t48.5 205q0 147 -54 232.5t-142 85.5zM487 832h1
q28 0 47.5 -19.5t19.5 -47.5q0 -27 -20 -46.5t-48 -19.5q-27 0 -47 19.5t-20 46.5q0 28 20 47.5t47 19.5zM277 832h1q28 0 47.5 -19.5t19.5 -47.5q0 -27 -20 -46.5t-48 -19.5q-27 0 -47 19.5t-20 46.5q0 28 20 47.5t47 19.5z" />
    <glyph glyph-name="multiply" unicode="&#xd7;" horiz-adv-x="577" 
d="M519 61l-50 -51l-181 186l-182 -186l-48 51l180 185l-180 184l48 51l182 -185l181 187l50 -50l-182 -187z" />
    <glyph glyph-name="Oslash" unicode="&#xd8;" horiz-adv-x="771" 
d="M652 674l-49 -77q57 -47 91.5 -114.5t34.5 -147.5q0 -157 -99.5 -253.5t-250.5 -96.5q-98 0 -172 44l-57 -81l-31 26l53 77q-60 46 -95 117.5t-35 154.5q0 61 22.5 120.5t64 109.5t111 81t154.5 31q100 0 174 -44l52 76zM237 141l279 405q-51 77 -138 77
q-79 0 -133.5 -77.5t-54.5 -208.5q0 -113 47 -196zM539 509l-278 -407q23 -36 59.5 -55.5t76.5 -19.5q80 0 131.5 73.5t51.5 210.5q0 118 -41 198z" />
    <glyph glyph-name="Ugrave" unicode="&#xd9;" horiz-adv-x="729" 
d="M723 650v-35q-76 -4 -84 -59q-9 -56 -9 -139v-109q0 -173 -72 -250q-70 -73 -185 -73q-111 0 -177 51q-83 65 -83 236v236q0 69 -13.5 85.5t-70.5 21.5v35h301v-35q-56 -5 -69.5 -21.5t-13.5 -85.5v-218q0 -114 41 -175.5t121 -61.5q171 0 171 257v107q0 79 -10 139
q-5 28 -26.5 42t-70.5 17v35h250zM453 714l-14 -30l-207 58l-3 12q3 17 20.5 45.5t30.5 37.5q29 -20 86.5 -61t86.5 -62z" />
    <glyph glyph-name="Uacute" unicode="&#xda;" horiz-adv-x="729" 
d="M723 650v-35q-76 -4 -84 -59q-9 -56 -9 -139v-109q0 -173 -72 -250q-70 -73 -185 -73q-111 0 -177 51q-83 65 -83 236v236q0 69 -13.5 85.5t-70.5 21.5v35h301v-35q-56 -5 -69.5 -21.5t-13.5 -85.5v-218q0 -114 41 -175.5t121 -61.5q171 0 171 257v107q0 79 -10 139
q-5 28 -26.5 42t-70.5 17v35h250zM545 755l-4 -12l-206 -60l-14 28q145 103 173 122q14 -5 31.5 -32t19.5 -46z" />
    <glyph glyph-name="Ucircumflex" unicode="&#xdb;" horiz-adv-x="729" 
d="M723 650v-35q-76 -4 -84 -59q-9 -56 -9 -139v-109q0 -173 -72 -250q-70 -73 -185 -73q-111 0 -177 51q-83 65 -83 236v236q0 69 -13.5 85.5t-70.5 21.5v35h301v-35q-56 -5 -69.5 -21.5t-13.5 -85.5v-218q0 -114 41 -175.5t121 -61.5q171 0 171 257v107q0 79 -10 139
q-5 28 -26.5 42t-70.5 17v35h250zM533 710l-16 -26q-33 13 -132 61q-90 -45 -131 -61l-16 26q63 51 132 123h31q51 -55 132 -123z" />
    <glyph glyph-name="Udieresis" unicode="&#xdc;" horiz-adv-x="729" 
d="M723 650v-35q-76 -4 -84 -59q-9 -56 -9 -139v-109q0 -173 -72 -250q-70 -73 -185 -73q-111 0 -177 51q-83 65 -83 236v236q0 69 -13.5 85.5t-70.5 21.5v35h301v-35q-56 -5 -69.5 -21.5t-13.5 -85.5v-218q0 -114 41 -175.5t121 -61.5q171 0 171 257v107q0 79 -10 139
q-5 28 -26.5 42t-70.5 17v35h250zM489 828h1q28 0 47.5 -19.5t19.5 -47.5q0 -27 -20 -46.5t-48 -19.5q-27 0 -47 19.5t-20 46.5q0 28 20 47.5t47 19.5zM279 828h1q28 0 47.5 -19.5t19.5 -47.5q0 -27 -20 -46.5t-48 -19.5q-27 0 -47 19.5t-20 46.5q0 28 20 47.5t47 19.5z" />
    <glyph glyph-name="Yacute" unicode="&#xdd;" horiz-adv-x="655" 
d="M646 650v-35q-46 -5 -68.5 -21.5t-51.5 -62.5q-64 -102 -112 -196q-18 -32 -18 -69v-129q0 -67 14.5 -82.5t82.5 -20.5v-34h-325v34q65 5 79.5 20.5t14.5 82.5v112q0 27 -13 54q-33 67 -124 228q-27 48 -47 63t-62 21v35h285v-35q-46 -6 -54 -18t7 -39q16 -31 35 -67
t43 -81t37 -70q91 179 104 212q15 30 4.5 43.5t-63.5 19.5v35h232zM510 755l-4 -12l-206 -60l-14 28q145 103 173 122q14 -5 31.5 -32t19.5 -46z" />
    <glyph glyph-name="Thorn" unicode="&#xde;" horiz-adv-x="593" 
d="M330 650v-35q-52 -6 -65 -22.5t-13 -83.5q28 1 82 1q225 0 225 -174q0 -84 -62.5 -135.5t-168.5 -52.5l-76 16v-45q0 -49 16 -63.5t76 -20.5v-35h-305v35q54 4 68 20.5t14 71.5v398q0 55 -12.5 70t-63.5 20v35h285zM252 432v-227q16 -8 46 -8q14 0 31.5 6t38 19.5
t34 43.5t13.5 71q0 69 -34.5 100.5t-85.5 31.5q-26 0 -36 -10q-7 -6 -7 -27z" />
    <glyph glyph-name="germandbls" unicode="&#xdf;" horiz-adv-x="572" 
d="M93 442v11q0 48 18 90q28 67 94 114q63 44 129 47q84 -1 130.5 -45t46.5 -111q0 -20 -10 -31q-46 -34 -67.5 -60.5t-20.5 -53.5q0 -18 10 -36.5t20 -29t35 -35.5q70 -66 70 -137q0 -65 -63 -121t-133 -56q-34 0 -59 15q-26 16 -16 41q9 19 21 27q12 9 21 1q40 -35 77 -35
q16 0 29.5 14t13.5 41q0 47 -52 101q-46 48 -66.5 78t-20.5 63q0 9 1.5 17.5t3.5 15t7 15t7.5 13t10.5 13t11 12t13 13.5l13 13q6 7 14.5 14.5t13.5 13t7 8.5q5 8 5 33q1 55 -30.5 98t-76.5 43q-19 0 -32.5 -9t-22 -28.5t-14 -39t-7.5 -51t-2.5 -53.5t-0.5 -57v-313
q0 -43 7 -55t33 -17v-33h-230v33q42 4 52 16t10 55v287h-62l-5 13l27 38h40z" />
    <glyph glyph-name="agrave" unicode="&#xe0;" horiz-adv-x="466" 
d="M465 45l-109 -57q-38 0 -61 21q-17 15 -25 36q-87 -57 -105 -57q-60 0 -97.5 39t-37.5 89q0 38 18 59t58 37q13 5 45 16.5t49.5 18t37 15.5t27.5 16v30q0 46 -16.5 72t-43.5 26q-21 0 -34 -18q-15 -19 -28 -69q-9 -34 -42 -34q-21 0 -42 15.5t-21 34.5q0 21 35 48
q82 56 166 71q59 0 98 -29q52 -39 52 -132v-165q0 -59 32 -59q16 0 34 8zM265 79v160q-5 -3 -24 -14t-31 -17q-47 -24 -47 -69q0 -37 19.5 -56.5t40.5 -19.5t42 16zM271 496l-31 -13q-82 101 -130 157l4 14q11 8 48.5 15t53.5 5q13 -41 55 -178z" />
    <glyph glyph-name="aacute" unicode="&#xe1;" horiz-adv-x="466" 
d="M465 45l-109 -57q-38 0 -61 21q-17 15 -25 36q-87 -57 -105 -57q-60 0 -97.5 39t-37.5 89q0 38 18 59t58 37q13 5 45 16.5t49.5 18t37 15.5t27.5 16v30q0 46 -16.5 72t-43.5 26q-21 0 -34 -18q-15 -19 -28 -69q-9 -34 -42 -34q-21 0 -42 15.5t-21 34.5q0 21 35 48
q82 56 166 71q59 0 98 -29q52 -39 52 -132v-165q0 -59 32 -59q16 0 34 8zM265 79v160q-5 -3 -24 -14t-31 -17q-47 -24 -47 -69q0 -37 19.5 -56.5t40.5 -19.5t42 16zM356 663l-134 -180l-31 13q7 22 26.5 89t23.5 77q7 6 51.5 10.5t57.5 1.5z" />
    <glyph glyph-name="acircumflex" unicode="&#xe2;" horiz-adv-x="466" 
d="M465 45l-109 -57q-38 0 -61 21q-17 15 -25 36q-87 -57 -105 -57q-60 0 -97.5 39t-37.5 89q0 38 18 59t58 37q13 5 45 16.5t49.5 18t37 15.5t27.5 16v30q0 46 -16.5 72t-43.5 26q-21 0 -34 -18q-15 -19 -28 -69q-9 -34 -42 -34q-21 0 -42 15.5t-21 34.5q0 21 35 48
q82 56 166 71q59 0 98 -29q52 -39 52 -132v-165q0 -59 32 -59q16 0 34 8zM265 79v160q-5 -3 -24 -14t-31 -17q-47 -24 -47 -69q0 -37 19.5 -56.5t40.5 -19.5t42 16zM352 505l-28 -22q-17 14 -33.5 29.5t-36 34.5t-29.5 28q-7 -6 -28 -27.5t-37 -36t-33 -28.5l-27 22
q57 85 106 173h38q43 -78 108 -173z" />
    <glyph glyph-name="atilde" unicode="&#xe3;" horiz-adv-x="466" 
d="M465 45l-109 -57q-38 0 -61 21q-17 15 -25 36q-87 -57 -105 -57q-60 0 -97.5 39t-37.5 89q0 38 18 59t58 37q13 5 45 16.5t49.5 18t37 15.5t27.5 16v30q0 46 -16.5 72t-43.5 26q-21 0 -34 -18q-15 -19 -28 -69q-9 -34 -42 -34q-21 0 -42 15.5t-21 34.5q0 21 35 48
q82 56 166 71q59 0 98 -29q52 -39 52 -132v-165q0 -59 32 -59q16 0 34 8zM265 79v160q-5 -3 -24 -14t-31 -17q-47 -24 -47 -69q0 -37 19.5 -56.5t40.5 -19.5t42 16zM173 625h1q19 0 62 -20q39 -21 58 -21q26 0 50 47l28 -14q-31 -107 -87 -107q-25 0 -67 22q-35 19 -56 19
q-30 0 -52 -50l-29 19q34 105 92 105z" />
    <glyph glyph-name="adieresis" unicode="&#xe4;" horiz-adv-x="466" 
d="M465 45l-109 -57q-38 0 -61 21q-17 15 -25 36q-87 -57 -105 -57q-60 0 -97.5 39t-37.5 89q0 38 18 59t58 37q13 5 45 16.5t49.5 18t37 15.5t27.5 16v30q0 46 -16.5 72t-43.5 26q-21 0 -34 -18q-15 -19 -28 -69q-9 -34 -42 -34q-21 0 -42 15.5t-21 34.5q0 21 35 48
q82 56 166 71q59 0 98 -29q52 -39 52 -132v-165q0 -59 32 -59q16 0 34 8zM265 79v160q-5 -3 -24 -14t-31 -17q-47 -24 -47 -69q0 -37 19.5 -56.5t40.5 -19.5t42 16zM122 636h1q28 0 47.5 -19.5t19.5 -47.5q0 -27 -20 -46.5t-48 -19.5q-27 0 -47 19.5t-20 46.5q0 28 20 47.5
t47 19.5zM327 636h1q28 0 47.5 -19.5t19.5 -47.5q0 -27 -20 -46.5t-48 -19.5q-27 0 -47 19.5t-20 46.5q0 28 20 47.5t47 19.5z" />
    <glyph glyph-name="aring" unicode="&#xe5;" horiz-adv-x="466" 
d="M465 45l-109 -57q-38 0 -61 21q-17 15 -25 36q-87 -57 -105 -57q-60 0 -97.5 39t-37.5 89q0 38 18 59t58 37q13 5 45 16.5t49.5 18t37 15.5t27.5 16v30q0 46 -16.5 72t-43.5 26q-21 0 -34 -18q-15 -19 -28 -69q-9 -34 -42 -34q-21 0 -42 15.5t-21 34.5q0 21 35 48
q82 56 166 71q59 0 98 -29q52 -39 52 -132v-165q0 -59 32 -59q16 0 34 8zM265 79v160q-5 -3 -24 -14t-31 -17q-47 -24 -47 -69q0 -37 19.5 -56.5t40.5 -19.5t42 16zM226 669h1q37 0 66 -25.5t29 -64.5q0 -41 -29.5 -67t-66.5 -26q-39 0 -67.5 26t-28.5 67q0 40 29 65t67 25z
M227 629h-1q-19 0 -32 -14.5t-13 -36.5q0 -23 13 -37.5t33 -14.5t32 14.5t12 38.5q0 22 -12 36t-32 14z" />
    <glyph glyph-name="ae" unicode="&#xe6;" horiz-adv-x="671" 
d="M271 280v25q0 45 -20 72.5t-45 27.5q-20 0 -34 -17t-26 -67q-10 -34 -43 -34q-19 0 -40.5 15t-21.5 33q0 25 36 49q79 53 164 70q45 0 81 -24q27 -20 35 -39q28 29 64.5 46t68.5 17q70 0 118 -49.5t48 -112.5q0 -18 -6 -26t-22 -12q-28 -7 -245 -16q-1 -78 38.5 -119.5
t99.5 -41.5q53 0 109 42l19 -25q-40 -58 -89.5 -82t-86.5 -24q-110 0 -163 85l-30 -26q-71 -59 -116 -59q-59 0 -96 39t-37 86q0 38 18 61.5t58 38.5q10 4 42.5 15.5t50.5 18t39.5 16.5t31.5 17zM468 412h-1q-29 0 -51.5 -34.5t-27.5 -93.5q62 0 122 3q12 0 17.5 5t5.5 19
q0 39 -18 70t-47 31zM225 67h1q40 0 67 35q-23 54 -23 139q-40 -20 -61 -32q-46 -27 -46 -69q0 -35 19 -54t43 -19z" />
    <glyph glyph-name="ccedilla" unicode="&#xe7;" horiz-adv-x="422" 
d="M401 121l19 -24q-62 -88 -149 -104l-14 -19q-12 -13 14 -40q35 -43 35 -71q0 -31 -32 -58t-91 -45l-15 28q62 33 62 60q0 16 -20 36q-19 21 -21.5 34t11.5 31l31 39q-92 7 -146.5 66t-54.5 146q0 55 27 105.5t75 85.5q85 63 169 63q56 0 89 -25q16 -12 16 -32
q-1 -22 -16 -40.5t-27 -18.5q-11 0 -23 11q-54 51 -102 51q-33 0 -57.5 -36t-24.5 -111q0 -88 46.5 -132t90.5 -44q54 0 108 44z" />
    <glyph glyph-name="egrave" unicode="&#xe8;" horiz-adv-x="437" 
d="M400 123l17 -24q-40 -60 -89.5 -85.5t-90.5 -25.5q-97 0 -152 61.5t-55 152.5q0 107 74 181q71 71 153 71h1q68 0 115.5 -49t47.5 -112q-2 -32 -29 -36q-50 -8 -239 -16q3 -77 40.5 -119t94.5 -42q62 0 112 43zM238 414h-1q-30 0 -52.5 -34t-27.5 -92q23 1 62.5 2t57.5 1
q12 0 16.5 4t4.5 16q1 40 -16 71.5t-44 31.5zM275 496l-31 -13q-82 101 -130 157l4 14q11 8 48.5 15t53.5 5q13 -41 55 -178z" />
    <glyph glyph-name="eacute" unicode="&#xe9;" horiz-adv-x="437" 
d="M400 123l17 -24q-40 -60 -89.5 -85.5t-90.5 -25.5q-97 0 -152 61.5t-55 152.5q0 107 74 181q71 71 153 71h1q68 0 115.5 -49t47.5 -112q-2 -32 -29 -36q-50 -8 -239 -16q3 -77 40.5 -119t94.5 -42q62 0 112 43zM238 414h-1q-30 0 -52.5 -34t-27.5 -92q23 1 62.5 2t57.5 1
q12 0 16.5 4t4.5 16q1 40 -16 71.5t-44 31.5zM367 663l-134 -180l-31 13q7 22 26.5 89t23.5 77q7 6 51.5 10.5t57.5 1.5z" />
    <glyph glyph-name="ecircumflex" unicode="&#xea;" horiz-adv-x="437" 
d="M400 123l17 -24q-40 -60 -89.5 -85.5t-90.5 -25.5q-97 0 -152 61.5t-55 152.5q0 107 74 181q71 71 153 71h1q68 0 115.5 -49t47.5 -112q-2 -32 -29 -36q-50 -8 -239 -16q3 -77 40.5 -119t94.5 -42q62 0 112 43zM238 414h-1q-30 0 -52.5 -34t-27.5 -92q23 1 62.5 2t57.5 1
q12 0 16.5 4t4.5 16q1 40 -16 71.5t-44 31.5zM361 504l-28 -22q-17 14 -33.5 29.5t-36 34.5t-29.5 28q-7 -6 -28 -27.5t-37 -36t-33 -28.5l-27 22q57 85 106 173h38q43 -78 108 -173z" />
    <glyph glyph-name="edieresis" unicode="&#xeb;" horiz-adv-x="437" 
d="M400 123l17 -24q-40 -60 -89.5 -85.5t-90.5 -25.5q-97 0 -152 61.5t-55 152.5q0 107 74 181q71 71 153 71h1q68 0 115.5 -49t47.5 -112q-2 -32 -29 -36q-50 -8 -239 -16q3 -77 40.5 -119t94.5 -42q62 0 112 43zM238 414h-1q-30 0 -52.5 -34t-27.5 -92q23 1 62.5 2t57.5 1
q12 0 16.5 4t4.5 16q1 40 -16 71.5t-44 31.5zM129 636h1q28 0 47.5 -19.5t19.5 -47.5q0 -27 -20 -46.5t-48 -19.5q-27 0 -47 19.5t-20 46.5q0 28 20 47.5t47 19.5zM334 636h1q28 0 47.5 -19.5t19.5 -47.5q0 -27 -20 -46.5t-48 -19.5q-27 0 -47 19.5t-20 46.5q0 28 20 47.5
t47 19.5z" />
    <glyph glyph-name="igrave" unicode="&#xec;" horiz-adv-x="295" 
d="M283 0h-254v33q42 5 52.5 20t10.5 69v190q0 46 -8 58t-47 18v30q96 11 183 36v-332q0 -57 9 -70t54 -19v-33zM184 496l-31 -13q-82 101 -130 157l4 14q11 8 48.5 15t53.5 5q13 -41 55 -178z" />
    <glyph glyph-name="iacute" unicode="&#xed;" horiz-adv-x="295" 
d="M283 0h-254v33q42 5 52.5 20t10.5 69v190q0 46 -8 58t-47 18v30q96 11 183 36v-332q0 -57 9 -70t54 -19v-33zM279 663l-134 -180l-31 13q7 22 26.5 89t23.5 77q7 6 51.5 10.5t57.5 1.5z" />
    <glyph glyph-name="icircumflex" unicode="&#xee;" horiz-adv-x="295" 
d="M283 0h-254v33q42 5 52.5 20t10.5 69v190q0 46 -8 58t-47 18v30q96 11 183 36v-332q0 -57 9 -70t54 -19v-33zM272 504l-28 -22q-17 14 -33.5 29.5t-36 34.5t-29.5 28q-7 -6 -28 -27.5t-37 -36t-33 -28.5l-27 22q57 85 106 173h38q43 -78 108 -173z" />
    <glyph glyph-name="idieresis" unicode="&#xef;" horiz-adv-x="295" 
d="M283 0h-254v33q42 5 52.5 20t10.5 69v190q0 46 -8 58t-47 18v30q96 11 183 36v-332q0 -57 9 -70t54 -19v-33zM41 636h1q28 0 47.5 -19.5t19.5 -47.5q0 -27 -20 -46.5t-48 -19.5q-27 0 -47 19.5t-20 46.5q0 28 20 47.5t47 19.5zM246 636h1q28 0 47.5 -19.5t19.5 -47.5
q0 -27 -20 -46.5t-48 -19.5q-27 0 -47 19.5t-20 46.5q0 28 20 47.5t47 19.5z" />
    <glyph glyph-name="eth" unicode="&#xf0;" horiz-adv-x="522" 
d="M466 656l-124 -63q144 -133 144 -324q0 -142 -66 -211.5t-165 -69.5q-106 0 -166.5 68t-58.5 160q1 110 72 174t168 64h1q27 0 49 -9q-15 53 -56 106l-145 -73l-19 37l137 67q-72 72 -166 87q-6 6 -2.5 18t11.5 16q123 -7 227 -80l139 71zM265 415h-1q-39 0 -65.5 -45
t-26.5 -125q-1 -99 25 -157.5t71 -58.5q80 0 82 201q2 116 -23 150q-26 35 -62 35z" />
    <glyph glyph-name="ntilde" unicode="&#xf1;" horiz-adv-x="566" 
d="M549 0h-233v32q32 5 39.5 16.5t7.5 64.5v170q0 94 -69 94q-34 0 -74 -31v-242q0 -46 7.5 -56.5t39.5 -15.5v-32h-241v32q48 7 57 17t9 60v208q0 44 -8 54.5t-45 18.5v28q87 11 181 38v-73q9 6 29.5 21t32.5 22q44 28 78 28q61 0 96 -42.5t35 -117.5v-189q0 -46 9 -57
t49 -16v-32zM231 625h1q19 0 62 -20q39 -21 58 -21q26 0 50 47l28 -14q-31 -107 -87 -107q-25 0 -67 22q-35 19 -56 19q-30 0 -52 -50l-29 19q34 105 92 105z" />
    <glyph glyph-name="ograve" unicode="&#xf2;" horiz-adv-x="525" 
d="M268 454h1q101 0 164 -66t63 -159q0 -114 -68.5 -177.5t-163.5 -63.5q-111 0 -172.5 66.5t-61.5 155.5q0 113 73 178.5t165 65.5zM255 415h-1q-33 0 -57 -43.5t-24 -124.5q0 -95 28 -157.5t74 -62.5q35 0 56.5 36t21.5 136q0 104 -25.5 160t-72.5 56zM299 496l-31 -13
q-82 101 -130 157l4 14q11 8 48.5 15t53.5 5q13 -41 55 -178z" />
    <glyph glyph-name="oacute" unicode="&#xf3;" horiz-adv-x="525" 
d="M268 454h1q101 0 164 -66t63 -159q0 -114 -68.5 -177.5t-163.5 -63.5q-111 0 -172.5 66.5t-61.5 155.5q0 113 73 178.5t165 65.5zM255 415h-1q-33 0 -57 -43.5t-24 -124.5q0 -95 28 -157.5t74 -62.5q35 0 56.5 36t21.5 136q0 104 -25.5 160t-72.5 56zM393 663l-134 -180
l-31 13q7 22 26.5 89t23.5 77q7 6 51.5 10.5t57.5 1.5z" />
    <glyph glyph-name="ocircumflex" unicode="&#xf4;" horiz-adv-x="525" 
d="M268 454h1q101 0 164 -66t63 -159q0 -114 -68.5 -177.5t-163.5 -63.5q-111 0 -172.5 66.5t-61.5 155.5q0 113 73 178.5t165 65.5zM255 415h-1q-33 0 -57 -43.5t-24 -124.5q0 -95 28 -157.5t74 -62.5q35 0 56.5 36t21.5 136q0 104 -25.5 160t-72.5 56zM389 504l-28 -22
q-17 14 -33.5 29.5t-36 34.5t-29.5 28q-7 -6 -28 -27.5t-37 -36t-33 -28.5l-27 22q57 85 106 173h38q43 -78 108 -173z" />
    <glyph glyph-name="otilde" unicode="&#xf5;" horiz-adv-x="525" 
d="M268 454h1q101 0 164 -66t63 -159q0 -114 -68.5 -177.5t-163.5 -63.5q-111 0 -172.5 66.5t-61.5 155.5q0 113 73 178.5t165 65.5zM255 415h-1q-33 0 -57 -43.5t-24 -124.5q0 -95 28 -157.5t74 -62.5q35 0 56.5 36t21.5 136q0 104 -25.5 160t-72.5 56zM207 625h1
q19 0 62 -20q39 -21 58 -21q26 0 50 47l28 -14q-31 -107 -87 -107q-25 0 -67 22q-35 19 -56 19q-30 0 -52 -50l-29 19q34 105 92 105z" />
    <glyph glyph-name="odieresis" unicode="&#xf6;" horiz-adv-x="525" 
d="M268 454h1q101 0 164 -66t63 -159q0 -114 -68.5 -177.5t-163.5 -63.5q-111 0 -172.5 66.5t-61.5 155.5q0 113 73 178.5t165 65.5zM255 415h-1q-33 0 -57 -43.5t-24 -124.5q0 -95 28 -157.5t74 -62.5q35 0 56.5 36t21.5 136q0 104 -25.5 160t-72.5 56zM160 636h1
q28 0 47.5 -19.5t19.5 -47.5q0 -27 -20 -46.5t-48 -19.5q-27 0 -47 19.5t-20 46.5q0 28 20 47.5t47 19.5zM365 636h1q28 0 47.5 -19.5t19.5 -47.5q0 -27 -20 -46.5t-48 -19.5q-27 0 -47 19.5t-20 46.5q0 28 20 47.5t47 19.5z" />
    <glyph glyph-name="divide" unicode="&#xf7;" horiz-adv-x="577" 
d="M290 349h-1q-22 0 -40 18t-18 42t18.5 42.5t40.5 18.5q25 0 43 -18.5t18 -42.5q0 -25 -18 -42.5t-43 -17.5zM531 221h-484v65h484v-65zM289 159h1q23 0 41 -18t18 -42t-18.5 -42.5t-41.5 -18.5q-25 0 -42.5 18.5t-17.5 42.5q0 25 17.5 42.5t42.5 17.5z" />
    <glyph glyph-name="oslash" unicode="&#xf8;" horiz-adv-x="531" 
d="M443 457l-33 -49q91 -64 91 -177q0 -115 -69.5 -179t-166.5 -64q-59 0 -118 27l-35 -51l-29 23l34 50q-42 31 -64.5 77.5t-22.5 96.5q0 111 74 177t167 66q60 0 109 -26l35 50zM180 127l153 234q-29 52 -76 52q-34 0 -64 -43.5t-30 -133.5q0 -61 17 -109zM352 323
l-154 -236q29 -59 77 -59q94 0 94 182q0 66 -17 113z" />
    <glyph glyph-name="ugrave" unicode="&#xf9;" horiz-adv-x="555" 
d="M542 56v-32q-42 -6 -90 -16q-37 -7 -93 -20l-9 7v60q-32 -26 -50 -37q-44 -30 -86 -30q-62 0 -96.5 38t-34.5 104v207q0 33 -6 43t-26 15l-23 6v30q20 1 90 7q56 5 96 11q-3 -42 -3 -151v-145q0 -45 19.5 -66.5t48.5 -21.5q43 0 71 28v243q0 34 -5.5 44t-26.5 15l-31 6
v30q27 1 100 7q55 5 91 11v-325q0 -39 7.5 -51t34.5 -15zM315 496l-31 -13q-82 101 -130 157l4 14q11 8 48.5 15t53.5 5q13 -41 55 -178z" />
    <glyph glyph-name="uacute" unicode="&#xfa;" horiz-adv-x="555" 
d="M542 56v-32q-42 -6 -90 -16q-37 -7 -93 -20l-9 7v60q-32 -26 -50 -37q-44 -30 -86 -30q-62 0 -96.5 38t-34.5 104v207q0 33 -6 43t-26 15l-23 6v30q20 1 90 7q56 5 96 11q-3 -42 -3 -151v-145q0 -45 19.5 -66.5t48.5 -21.5q43 0 71 28v243q0 34 -5.5 44t-26.5 15l-31 6
v30q27 1 100 7q55 5 91 11v-325q0 -39 7.5 -51t34.5 -15zM403 663l-134 -180l-31 13q7 22 26.5 89t23.5 77q7 6 51.5 10.5t57.5 1.5z" />
    <glyph glyph-name="ucircumflex" unicode="&#xfb;" horiz-adv-x="555" 
d="M542 56v-32q-42 -6 -90 -16q-37 -7 -93 -20l-9 7v60q-32 -26 -50 -37q-44 -30 -86 -30q-62 0 -96.5 38t-34.5 104v207q0 33 -6 43t-26 15l-23 6v30q20 1 90 7q56 5 96 11q-3 -42 -3 -151v-145q0 -45 19.5 -66.5t48.5 -21.5q43 0 71 28v243q0 34 -5.5 44t-26.5 15l-31 6
v30q27 1 100 7q55 5 91 11v-325q0 -39 7.5 -51t34.5 -15zM401 504l-28 -22q-17 14 -33.5 29.5t-36 34.5t-29.5 28q-7 -6 -28 -27.5t-37 -36t-33 -28.5l-27 22q57 85 106 173h38q43 -78 108 -173z" />
    <glyph glyph-name="udieresis" unicode="&#xfc;" horiz-adv-x="555" 
d="M542 56v-32q-42 -6 -90 -16q-37 -7 -93 -20l-9 7v60q-32 -26 -50 -37q-44 -30 -86 -30q-62 0 -96.5 38t-34.5 104v207q0 33 -6 43t-26 15l-23 6v30q20 1 90 7q56 5 96 11q-3 -42 -3 -151v-145q0 -45 19.5 -66.5t48.5 -21.5q43 0 71 28v243q0 34 -5.5 44t-26.5 15l-31 6
v30q27 1 100 7q55 5 91 11v-325q0 -39 7.5 -51t34.5 -15zM167 636h1q28 0 47.5 -19.5t19.5 -47.5q0 -27 -20 -46.5t-48 -19.5q-27 0 -47 19.5t-20 46.5q0 28 20 47.5t47 19.5zM372 636h1q28 0 47.5 -19.5t19.5 -47.5q0 -27 -20 -46.5t-48 -19.5q-27 0 -47 19.5t-20 46.5
q0 28 20 47.5t47 19.5z" />
    <glyph glyph-name="yacute" unicode="&#xfd;" horiz-adv-x="465" 
d="M483 442v-32q-36 -6 -50 -18.5t-33 -54.5q-15 -31 -116 -275q-71 -168 -105 -280q-9 -27 -37 -27q-23 0 -47 19t-24 44q0 22 28 39q56 30 81 72q15 28 19 41q7 21 -3 47q-83 231 -126 331q-14 32 -28.5 44t-48.5 18v32h247v-32q-33 -7 -40 -15t1 -32l75 -222
q34 85 75 214q8 25 -2 36.5t-46 18.5v32h180zM384 663l-134 -180l-31 13q7 22 26.5 89t23.5 77q7 6 51.5 10.5t57.5 1.5z" />
    <glyph glyph-name="thorn" unicode="&#xfe;" horiz-adv-x="538" 
d="M200 703v-303q62 33 87 46q18 8 41 8q85 0 133 -59t48 -136q0 -104 -71 -176.5t-174 -94.5q-32 0 -64 12v-112q0 -53 14 -67.5t73 -18.5v-32h-280v32q44 4 54.5 16.5t10.5 65.5v680q0 44 -10 57t-54 18v28q100 10 192 36zM200 363v-289q41 -37 74 -37q42 0 73.5 45.5
t31.5 128.5q0 84 -36 126.5t-81 42.5q-24 0 -62 -17z" />
    <glyph glyph-name="ydieresis" unicode="&#xff;" horiz-adv-x="465" 
d="M483 442v-32q-36 -6 -50 -18.5t-33 -54.5q-15 -31 -116 -275q-71 -168 -105 -280q-9 -27 -37 -27q-23 0 -47 19t-24 44q0 22 28 39q56 30 81 72q15 28 19 41q7 21 -3 47q-83 231 -126 331q-14 32 -28.5 44t-48.5 18v32h247v-32q-33 -7 -40 -15t1 -32l75 -222
q34 85 75 214q8 25 -2 36.5t-46 18.5v32h180zM142 636h1q28 0 47.5 -19.5t19.5 -47.5q0 -27 -20 -46.5t-48 -19.5q-27 0 -47 19.5t-20 46.5q0 28 20 47.5t47 19.5zM347 636h1q28 0 47.5 -19.5t19.5 -47.5q0 -27 -20 -46.5t-48 -19.5q-27 0 -47 19.5t-20 46.5q0 28 20 47.5
t47 19.5z" />
    <glyph glyph-name="Amacron" unicode="&#x100;" horiz-adv-x="706" 
d="M687 0h-286v35q43 7 52 19.5t-4 45.5q-19 57 -40 113h-192q-25 -71 -36 -107q-13 -36 -2.5 -50.5t63.5 -20.5v-35h-224v35q50 6 68.5 23t43.5 80l205 514l51 13q177 -483 191 -521q26 -67 44 -85t66 -24v-35zM390 266l-74 217h-3q-16 -43 -45 -123t-34 -94h156zM486 711
h-245v68h245v-68z" />
    <glyph glyph-name="amacron" unicode="&#x101;" horiz-adv-x="466" 
d="M465 45l-109 -57q-38 0 -61 21q-17 15 -25 36q-87 -57 -105 -57q-60 0 -97.5 39t-37.5 89q0 38 18 59t58 37q13 5 45 16.5t49.5 18t37 15.5t27.5 16v30q0 46 -16.5 72t-43.5 26q-21 0 -34 -18q-15 -19 -28 -69q-9 -34 -42 -34q-21 0 -42 15.5t-21 34.5q0 21 35 48
q82 56 166 71q59 0 98 -29q52 -39 52 -132v-165q0 -59 32 -59q16 0 34 8zM265 79v160q-5 -3 -24 -14t-31 -17q-47 -24 -47 -69q0 -37 19.5 -56.5t40.5 -19.5t42 16zM343 527h-250v68h250v-68z" />
    <glyph glyph-name="Abreve" unicode="&#x102;" horiz-adv-x="706" 
d="M687 0h-286v35q43 7 52 19.5t-4 45.5q-19 57 -40 113h-192q-25 -71 -36 -107q-13 -36 -2.5 -50.5t63.5 -20.5v-35h-224v35q50 6 68.5 23t43.5 80l205 514l51 13q177 -483 191 -521q26 -67 44 -85t66 -24v-35zM390 266l-74 217h-3q-16 -43 -45 -123t-34 -94h156zM460 828
h30q0 -137 -127 -137q-126 0 -127 137h30q14 -65 97 -65t97 65z" />
    <glyph glyph-name="abreve" unicode="&#x103;" horiz-adv-x="466" 
d="M465 45l-109 -57q-38 0 -61 21q-17 15 -25 36q-87 -57 -105 -57q-60 0 -97.5 39t-37.5 89q0 38 18 59t58 37q13 5 45 16.5t49.5 18t37 15.5t27.5 16v30q0 46 -16.5 72t-43.5 26q-21 0 -34 -18q-15 -19 -28 -69q-9 -34 -42 -34q-21 0 -42 15.5t-21 34.5q0 21 35 48
q82 56 166 71q59 0 98 -29q52 -39 52 -132v-165q0 -59 32 -59q16 0 34 8zM265 79v160q-5 -3 -24 -14t-31 -17q-47 -24 -47 -69q0 -37 19.5 -56.5t40.5 -19.5t42 16zM311 650h32q0 -153 -122 -153h-1q-121 0 -121 153h32q16 -77 90 -77t90 77z" />
    <glyph glyph-name="Aogonek" unicode="&#x104;" horiz-adv-x="706" 
d="M687 0h-205q-22 -19 -39 -52t-17 -62q0 -26 16 -39.5t42 -13.5q17 0 39 8l8 -31l-63 -32q-20 -11 -37 -11q-43 0 -66 24.5t-23 61.5q0 32 20.5 68t38.5 54.5t52 50.5q14 13 8 32q-46 134 -54 155h-190q-33 -93 -36 -103q-14 -39 -4 -54.5t64 -21.5v-34h-222v34
q46 5 67 25t47 83q67 170 203 510q11 3 50 13q117 -325 189 -517q30 -69 49 -90t63 -27v-31zM390 265l-73 217h-3q-75 -202 -80 -217h156z" />
    <glyph glyph-name="aogonek" unicode="&#x105;" horiz-adv-x="467" 
d="M456 76l10 -30q-4 -2 -24.5 -12t-27.5 -14q-44 -22 -77.5 -61.5t-33.5 -78.5q0 -45 51 -45q20 0 42 11l8 -31l-61 -35q-19 -12 -37 -12q-41 0 -64 21.5t-23 55.5q0 67 101 148q-14 6 -29 20.5t-21 31.5q-87 -57 -105 -57q-60 0 -97.5 39t-37.5 89q0 38 18 59t58 37
q7 3 35.5 12.5t41 14.5t33 13t32 14t18.5 12v30q0 46 -16.5 72t-44.5 26q-21 0 -34 -18q-13 -16 -27 -69q-9 -34 -42 -34q-21 0 -41.5 15.5t-20.5 34.5q0 22 34 48q81 56 167 71q58 0 97 -29q52 -39 52 -132v-166q0 -59 32 -59q16 0 34 8zM266 80v159q-6 -3 -25 -14.5
t-31 -17.5q-47 -23 -47 -68q0 -37 19.5 -56t40.5 -19q20 0 43 16z" />
    <glyph glyph-name="Cacute" unicode="&#x106;" horiz-adv-x="676" 
d="M625 186l35 -15q-26 -99 -56 -160q-113 -26 -186 -26q-96 0 -170.5 29t-118 77.5t-65.5 106t-22 119.5q0 155 109 251.5t287 96.5q60 0 182 -27q15 -91 23 -163l-37 -7q-43 153 -187 153q-104 0 -164.5 -83.5t-60.5 -200.5q0 -136 66 -220.5t169 -84.5q118 0 196 154z
M541 770l-4 -12l-206 -60l-14 28q145 102 173 122q14 -5 31.5 -32t19.5 -46z" />
    <glyph glyph-name="cacute" unicode="&#x107;" horiz-adv-x="422" 
d="M399 120l19 -24q-35 -49 -81 -78.5t-91 -29.5q-98 0 -157.5 63.5t-59.5 149.5q0 55 27 105.5t74 85.5q85 62 169 62h1q56 0 86 -25q20 -13 18 -36q0 -21 -14.5 -38t-28.5 -17q-10 0 -22 11q-59 52 -101 52q-34 0 -59 -35.5t-25 -109.5q0 -47 15.5 -83.5t38.5 -55.5
t44.5 -28.5t39.5 -9.5q59 0 107 41zM376 663l-134 -180l-31 13q7 22 26.5 89t23.5 77q7 6 51.5 10.5t57.5 1.5z" />
    <glyph glyph-name="Ccircumflex" unicode="&#x108;" horiz-adv-x="676" 
d="M625 186l35 -15q-26 -99 -56 -160q-113 -26 -186 -26q-96 0 -170.5 29t-118 77.5t-65.5 106t-22 119.5q0 155 109 251.5t287 96.5q60 0 182 -27q15 -91 23 -163l-37 -7q-43 153 -187 153q-104 0 -164.5 -83.5t-60.5 -200.5q0 -136 66 -220.5t169 -84.5q118 0 196 154z
M557 722l-16 -26q-33 13 -132 61q-90 -45 -131 -61l-16 26q63 50 132 123h31q51 -55 132 -123z" />
    <glyph glyph-name="ccircumflex" unicode="&#x109;" horiz-adv-x="422" 
d="M399 120l19 -24q-35 -49 -81 -78.5t-91 -29.5q-98 0 -157.5 63.5t-59.5 149.5q0 55 27 105.5t74 85.5q85 62 169 62h1q56 0 86 -25q20 -13 18 -36q0 -21 -14.5 -38t-28.5 -17q-10 0 -22 11q-59 52 -101 52q-34 0 -59 -35.5t-25 -109.5q0 -47 15.5 -83.5t38.5 -55.5
t44.5 -28.5t39.5 -9.5q59 0 107 41zM371 504l-28 -22q-17 14 -33.5 29.5t-36 34.5t-29.5 28q-7 -6 -28 -27.5t-37 -36t-33 -28.5l-27 22q57 85 106 173h38q43 -78 108 -173z" />
    <glyph glyph-name="Cdotaccent" unicode="&#x10a;" horiz-adv-x="676" 
d="M625 186l35 -15q-26 -99 -56 -160q-113 -26 -186 -26q-96 0 -170.5 29t-118 77.5t-65.5 106t-22 119.5q0 155 109 251.5t287 96.5q60 0 182 -27q15 -91 23 -163l-37 -7q-43 153 -187 153q-104 0 -164.5 -83.5t-60.5 -200.5q0 -136 66 -220.5t169 -84.5q118 0 196 154z
M414 844h1q30 0 50.5 -20.5t20.5 -49.5t-21 -49.5t-51 -20.5q-28 0 -49 21t-21 49q0 29 21 49.5t49 20.5z" />
    <glyph glyph-name="cdotaccent" unicode="&#x10b;" horiz-adv-x="422" 
d="M399 120l19 -24q-35 -49 -81 -78.5t-91 -29.5q-98 0 -157.5 63.5t-59.5 149.5q0 55 27 105.5t74 85.5q85 62 169 62h1q56 0 86 -25q20 -13 18 -36q0 -21 -14.5 -38t-28.5 -17q-10 0 -22 11q-59 52 -101 52q-34 0 -59 -35.5t-25 -109.5q0 -47 15.5 -83.5t38.5 -55.5
t44.5 -28.5t39.5 -9.5q59 0 107 41zM245 643h1q30 0 50.5 -20.5t20.5 -49.5t-21 -49.5t-51 -20.5q-28 0 -49 21t-21 49q0 29 21 49.5t49 20.5z" />
    <glyph glyph-name="Ccaron" unicode="&#x10c;" horiz-adv-x="676" 
d="M625 186l35 -15q-26 -99 -56 -160q-113 -26 -186 -26q-96 0 -170.5 29t-118 77.5t-65.5 106t-22 119.5q0 155 109 251.5t287 96.5q60 0 182 -27q15 -91 23 -163l-37 -7q-43 153 -187 153q-104 0 -164.5 -83.5t-60.5 -200.5q0 -136 66 -220.5t169 -84.5q118 0 196 154z
M538 845l15 -26q-49 -38 -132 -123h-30q-65 70 -133 123l17 26q66 -27 131 -59q67 33 132 59z" />
    <glyph glyph-name="ccaron" unicode="&#x10d;" horiz-adv-x="422" 
d="M399 120l19 -24q-35 -49 -81 -78.5t-91 -29.5q-98 0 -157.5 63.5t-59.5 149.5q0 55 27 105.5t74 85.5q85 62 169 62h1q56 0 86 -25q20 -13 18 -36q0 -21 -14.5 -38t-28.5 -17q-10 0 -22 11q-59 52 -101 52q-34 0 -59 -35.5t-25 -109.5q0 -47 15.5 -83.5t38.5 -55.5
t44.5 -28.5t39.5 -9.5q59 0 107 41zM351 677l27 -22q-48 -70 -106 -173h-38q-49 88 -107 173l27 22q33 -26 99 -92q10 10 29 28.5t35.5 34t33.5 29.5z" />
    <glyph glyph-name="Dcaron" unicode="&#x10e;" horiz-adv-x="761" 
d="M41 650h300q197 0 287 -87q89 -82 89 -212q0 -173 -125 -268q-110 -83 -303 -83h-257v35q60 5 74.5 20.5t14.5 78.5v382q0 63 -13 78.5t-67 20.5v35zM255 540v-401q0 -55 17 -75.5t68 -20.5q102 0 164 77.5t62 209.5q0 144 -75 217q-62 62 -163 62q-49 0 -63 -14
q-10 -11 -10 -55zM492 830l15 -26q-49 -38 -132 -123h-30q-65 70 -133 123l17 26q66 -27 131 -59q67 33 132 59z" />
    <glyph glyph-name="dcaron" unicode="&#x10f;" horiz-adv-x="547" 
d="M541 58v-32q-147 -25 -197 -39v58l-61 -39q-29 -18 -50 -18q-46 0 -91 22.5t-79 74.5t-34 122q0 103 79 175t195 72q4 0 41 -5v121q0 40 -10.5 50.5t-56.5 15.5v31q116 13 195 36v-577q0 -42 7.5 -51.5t39.5 -14.5zM344 80v281q-24 51 -73 51q-11 0 -25.5 -7t-32.5 -24
t-30 -55.5t-12 -91.5q0 -83 38 -126.5t80 -43.5q28 0 55 16zM568 710h1q30 0 52 -26.5t22 -66.5q0 -46 -29.5 -76t-77.5 -43l-10 26q54 28 54 69q0 35 -40 48q-15 5 -15 26q0 19 13.5 31t29.5 12z" />
    <glyph glyph-name="Dcroat" unicode="&#x110;" horiz-adv-x="760" 
d="M52 650h300q188 0 279 -88q87 -82 87 -210q0 -175 -124 -268q-112 -84 -297 -84h-253v34q59 6 73.5 22.5t14.5 80.5v178h-94v50h94v148q0 64 -13 80.5t-67 21.5v35zM266 315v-178q0 -54 14.5 -73t65.5 -19q97 0 159.5 78.5t62.5 208.5q0 145 -72 219q-56 56 -157 56
q-52 0 -64 -14q-9 -8 -9 -49v-179h141v-50h-141z" />
    <glyph glyph-name="dcroat" unicode="&#x111;" horiz-adv-x="548" 
d="M542 58v-32q-147 -25 -197 -39v57l-61 -38q-30 -18 -51 -18q-74 0 -139 58.5t-65 160.5t80 174.5t197 72.5q2 0 39 -5v76h-139v43h139v20q-1 34 -10 41t-54 15v30q111 12 192 36v-142h79v-43h-79v-395q0 -45 7.5 -55t40.5 -14zM345 81v280q-23 51 -71 51q-12 0 -27 -7.5
t-33 -24.5t-30.5 -55.5t-12.5 -90.5q0 -84 38.5 -127.5t80.5 -43.5q26 0 55 18z" />
    <glyph glyph-name="Emacron" unicode="&#x112;" horiz-adv-x="581" 
d="M535 173l36 -7q-14 -90 -35 -166h-510v35q65 5 80 20t15 78v384q0 64 -13 78.5t-68 19.5v35h471q0 -8 2 -31.5t4 -58t4 -60.5l-37 -5q-16 62 -40 86q-24 25 -100 25h-48q-28 0 -34.5 -5.5t-6.5 -29.5v-212h67q65 0 83 12t28 63h36v-201h-36q-10 53 -28 64.5t-83 11.5h-67
v-174q0 -38 5 -57t19 -25q23 -10 90 -10q82 0 110 32q29 32 56 98zM432 711h-245v68h245v-68z" />
    <glyph glyph-name="emacron" unicode="&#x113;" horiz-adv-x="437" 
d="M400 123l17 -24q-40 -60 -89.5 -85.5t-90.5 -25.5q-97 0 -152 61.5t-55 152.5q0 107 74 181q71 71 153 71h1q68 0 115.5 -49t47.5 -112q-2 -32 -29 -36q-50 -8 -239 -16q3 -77 40.5 -119t94.5 -42q62 0 112 43zM238 414h-1q-30 0 -52.5 -34t-27.5 -92q23 1 62.5 2t57.5 1
q12 0 16.5 4t4.5 16q1 40 -16 71.5t-44 31.5zM361 527h-250v68h250v-68z" />
    <glyph glyph-name="Ebreve" unicode="&#x114;" horiz-adv-x="581" 
d="M535 173l36 -7q-14 -90 -35 -166h-510v35q65 5 80 20t15 78v384q0 64 -13 78.5t-68 19.5v35h471q0 -8 2 -31.5t4 -58t4 -60.5l-37 -5q-16 62 -40 86q-24 25 -100 25h-48q-28 0 -34.5 -5.5t-6.5 -29.5v-212h67q65 0 83 12t28 63h36v-201h-36q-10 53 -28 64.5t-83 11.5h-67
v-174q0 -38 5 -57t19 -25q23 -10 90 -10q82 0 110 32q29 32 56 98zM406 830h30q0 -137 -127 -137q-126 0 -127 137h30q14 -65 97 -65t97 65z" />
    <glyph glyph-name="ebreve" unicode="&#x115;" horiz-adv-x="437" 
d="M400 123l17 -24q-40 -60 -89.5 -85.5t-90.5 -25.5q-97 0 -152 61.5t-55 152.5q0 107 74 181q71 71 153 71h1q68 0 115.5 -49t47.5 -112q-2 -32 -29 -36q-50 -8 -239 -16q3 -77 40.5 -119t94.5 -42q62 0 112 43zM238 414h-1q-30 0 -52.5 -34t-27.5 -92q23 1 62.5 2t57.5 1
q12 0 16.5 4t4.5 16q1 40 -16 71.5t-44 31.5zM328 650h32q0 -153 -122 -153h-1q-121 0 -121 153h32q16 -77 90 -77t90 77z" />
    <glyph glyph-name="Edotaccent" unicode="&#x116;" horiz-adv-x="581" 
d="M535 173l36 -7q-14 -90 -35 -166h-510v35q65 5 80 20t15 78v384q0 64 -13 78.5t-68 19.5v35h471q0 -8 2 -31.5t4 -58t4 -60.5l-37 -5q-16 62 -40 86q-24 25 -100 25h-48q-28 0 -34.5 -5.5t-6.5 -29.5v-212h67q65 0 83 12t28 63h36v-201h-36q-10 53 -28 64.5t-83 11.5h-67
v-174q0 -38 5 -57t19 -25q23 -10 90 -10q82 0 110 32q29 32 56 98zM305 842h1q30 0 50.5 -20.5t20.5 -49.5t-21 -49.5t-51 -20.5q-28 0 -49 21t-21 49q0 29 21 49.5t49 20.5z" />
    <glyph glyph-name="edotaccent" unicode="&#x117;" horiz-adv-x="437" 
d="M400 123l17 -24q-40 -60 -89.5 -85.5t-90.5 -25.5q-97 0 -152 61.5t-55 152.5q0 107 74 181q71 71 153 71h1q68 0 115.5 -49t47.5 -112q-2 -32 -29 -36q-50 -8 -239 -16q3 -77 40.5 -119t94.5 -42q62 0 112 43zM238 414h-1q-30 0 -52.5 -34t-27.5 -92q23 1 62.5 2t57.5 1
q12 0 16.5 4t4.5 16q1 40 -16 71.5t-44 31.5zM237 643h1q30 0 50.5 -20.5t20.5 -49.5t-21 -49.5t-51 -20.5q-28 0 -49 21t-21 49q0 29 21 49.5t49 20.5z" />
    <glyph glyph-name="Eogonek" unicode="&#x118;" horiz-adv-x="580" 
d="M535 175l36 -10q-14 -90 -35 -165h-49q-76 -67 -76 -129q0 -19 14 -29t33 -10q23 0 46 10l9 -29l-52 -32q-23 -15 -48 -15q-42 0 -63 22t-21 52q0 73 113 160h-416v35q65 5 80 20t15 77v385q0 63 -13 78t-68 20v35h471q0 -6 4 -59t6 -89l-37 -5q-16 58 -42 84
q-24 25 -98 25h-46q-29 0 -36 -5.5t-7 -29.5v-211h63q66 0 85.5 12.5t29.5 62.5h36v-202h-36q-10 52 -29 64.5t-86 12.5h-63v-179q0 -68 25 -79q20 -9 89 -9q80 0 110 34q29 32 56 98z" />
    <glyph glyph-name="eogonek" unicode="&#x119;" horiz-adv-x="437" 
d="M275 -8l-2 2q-18 -6 -36 -6q-97 0 -152.5 61.5t-55.5 152.5q0 109 74 181q69 71 152 71h1q68 0 116 -49t48 -112q-2 -32 -29 -36q-50 -8 -239 -16q4 -79 40.5 -120.5t92.5 -41.5q63 0 113 43l18 -23q-32 -38 -55 -57q-110 -106 -110 -165q0 -20 13 -31t32 -11q21 0 48 12
l8 -29l-59 -36q-22 -12 -40 -12q-43 0 -63 21t-20 53t30 72.5t75 75.5zM236 414h-1q-29 0 -51 -34t-27 -92q23 1 64.5 2t54.5 1q12 0 16.5 4.5t4.5 16.5q1 40 -16.5 71t-44.5 31z" />
    <glyph glyph-name="Ecaron" unicode="&#x11a;" horiz-adv-x="581" 
d="M535 173l36 -7q-14 -90 -35 -166h-510v35q65 5 80 20t15 78v384q0 64 -13 78.5t-68 19.5v35h471q0 -8 2 -31.5t4 -58t4 -60.5l-37 -5q-16 62 -40 86q-24 25 -100 25h-48q-28 0 -34.5 -5.5t-6.5 -29.5v-212h67q65 0 83 12t28 63h36v-201h-36q-10 53 -28 64.5t-83 11.5h-67
v-174q0 -38 5 -57t19 -25q23 -10 90 -10q82 0 110 32q29 32 56 98zM437 834l15 -26q-49 -38 -132 -123h-30q-65 70 -133 123l17 26q66 -27 131 -59q67 33 132 59z" />
    <glyph glyph-name="ecaron" unicode="&#x11b;" horiz-adv-x="437" 
d="M400 123l17 -24q-40 -60 -89.5 -85.5t-90.5 -25.5q-97 0 -152 61.5t-55 152.5q0 107 74 181q71 71 153 71h1q68 0 115.5 -49t47.5 -112q-2 -32 -29 -36q-50 -8 -239 -16q3 -77 40.5 -119t94.5 -42q62 0 112 43zM238 414h-1q-30 0 -52.5 -34t-27.5 -92q23 1 62.5 2t57.5 1
q12 0 16.5 4t4.5 16q1 40 -16 71.5t-44 31.5zM337 677l27 -22q-48 -70 -106 -173h-38q-49 88 -107 173l27 22q33 -26 99 -92q10 10 29 28.5t35.5 34t33.5 29.5z" />
    <glyph glyph-name="Gcircumflex" unicode="&#x11c;" horiz-adv-x="727" 
d="M703 311v-35q-38 -8 -47 -20t-9 -61v-79q0 -64 6 -95q-154 -36 -228 -36q-174 0 -277.5 91t-103.5 242q0 83 32 150t87 109.5t126 65t151 22.5q69 0 195 -28q6 -64 16 -165l-38 -8q-17 81 -68 120t-125 39q-94 0 -159 -78.5t-65 -209.5q0 -58 14.5 -112t42.5 -98.5
t75 -71.5t106 -27q39 0 56 12q23 14 23 56v95q0 30 -2 42.5t-14 23.5t-32 14t-62 7v35h300zM563 718l-16 -26q-33 13 -132 61q-90 -45 -131 -61l-16 26q63 51 132 123h31q51 -55 132 -123z" />
    <glyph glyph-name="gcircumflex" unicode="&#x11d;" horiz-adv-x="492" 
d="M494 439l4 -7q-5 -16 -17.5 -34.5t-25.5 -26.5l-57 4q26 -33 26 -76q0 -74 -55.5 -115t-134.5 -41q-12 0 -50 5q-14 -16 -14 -28q0 -15 16 -26.5t49 -11.5q16 0 46 1t46 1q27 0 51 -5t49 -17t39.5 -38t14.5 -63q0 -84 -82.5 -144.5t-184.5 -60.5q-90 0 -138.5 37
t-48.5 84q0 30 31 55q10 9 75 50q-48 18 -75 55q-16 26 -14 54q57 24 102 66q-46 15 -72 50.5t-26 82.5q0 78 59 121t134 43h1q54 0 107 -27q41 2 145 12zM236 417h-1q-24 0 -41.5 -29.5t-17.5 -81.5q0 -56 17.5 -91t51.5 -35q60 0 60 114q0 53 -17.5 88t-51.5 35zM243 -21
h-1q-66 0 -84 -21q-23 -23 -23 -50q0 -39 36 -68t93 -29q56 0 88.5 26.5t32.5 67.5q0 50 -56 66q-36 8 -86 8zM367 510l-28 -22q-17 14 -33.5 29.5t-36 34.5t-29.5 28q-7 -6 -28 -27.5t-37 -36t-33 -28.5l-27 22q57 85 106 173h38q43 -78 108 -173z" />
    <glyph glyph-name="Gbreve" unicode="&#x11e;" horiz-adv-x="727" 
d="M703 311v-35q-38 -8 -47 -20t-9 -61v-79q0 -64 6 -95q-154 -36 -228 -36q-174 0 -277.5 91t-103.5 242q0 83 32 150t87 109.5t126 65t151 22.5q69 0 195 -28q6 -64 16 -165l-38 -8q-17 81 -68 120t-125 39q-94 0 -159 -78.5t-65 -209.5q0 -58 14.5 -112t42.5 -98.5
t75 -71.5t106 -27q39 0 56 12q23 14 23 56v95q0 30 -2 42.5t-14 23.5t-32 14t-62 7v35h300zM498 839h30q0 -137 -127 -137q-126 0 -127 137h30q14 -65 97 -65t97 65z" />
    <glyph glyph-name="gbreve" unicode="&#x11f;" horiz-adv-x="492" 
d="M494 439l4 -7q-5 -16 -17.5 -34.5t-25.5 -26.5l-57 4q26 -33 26 -76q0 -74 -55.5 -115t-134.5 -41q-12 0 -50 5q-14 -16 -14 -28q0 -15 16 -26.5t49 -11.5q16 0 46 1t46 1q27 0 51 -5t49 -17t39.5 -38t14.5 -63q0 -84 -82.5 -144.5t-184.5 -60.5q-90 0 -138.5 37
t-48.5 84q0 30 31 55q10 9 75 50q-48 18 -75 55q-16 26 -14 54q57 24 102 66q-46 15 -72 50.5t-26 82.5q0 78 59 121t134 43h1q54 0 107 -27q41 2 145 12zM236 417h-1q-24 0 -41.5 -29.5t-17.5 -81.5q0 -56 17.5 -91t51.5 -35q60 0 60 114q0 53 -17.5 88t-51.5 35zM243 -21
h-1q-66 0 -84 -21q-23 -23 -23 -50q0 -39 36 -68t93 -29q56 0 88.5 26.5t32.5 67.5q0 50 -56 66q-36 8 -86 8zM329 650h32q0 -153 -122 -153h-1q-121 0 -121 153h32q16 -77 90 -77t90 77z" />
    <glyph glyph-name="Gdotaccent" unicode="&#x120;" horiz-adv-x="727" 
d="M703 311v-35q-38 -8 -47 -20t-9 -61v-79q0 -64 6 -95q-154 -36 -228 -36q-174 0 -277.5 91t-103.5 242q0 83 32 150t87 109.5t126 65t151 22.5q69 0 195 -28q6 -64 16 -165l-38 -8q-17 81 -68 120t-125 39q-94 0 -159 -78.5t-65 -209.5q0 -58 14.5 -112t42.5 -98.5
t75 -71.5t106 -27q39 0 56 12q23 14 23 56v95q0 30 -2 42.5t-14 23.5t-32 14t-62 7v35h300zM421 844h1q30 0 50.5 -20.5t20.5 -49.5t-21 -49.5t-51 -20.5q-28 0 -49 21t-21 49q0 29 21 49.5t49 20.5z" />
    <glyph glyph-name="gdotaccent" unicode="&#x121;" horiz-adv-x="492" 
d="M494 439l4 -7q-5 -16 -17.5 -34.5t-25.5 -26.5l-57 4q26 -33 26 -76q0 -74 -55.5 -115t-134.5 -41q-12 0 -50 5q-14 -16 -14 -28q0 -15 16 -26.5t49 -11.5q16 0 46 1t46 1q27 0 51 -5t49 -17t39.5 -38t14.5 -63q0 -84 -82.5 -144.5t-184.5 -60.5q-90 0 -138.5 37
t-48.5 84q0 30 31 55q10 9 75 50q-48 18 -75 55q-16 26 -14 54q57 24 102 66q-46 15 -72 50.5t-26 82.5q0 78 59 121t134 43h1q54 0 107 -27q41 2 145 12zM236 417h-1q-24 0 -41.5 -29.5t-17.5 -81.5q0 -56 17.5 -91t51.5 -35q60 0 60 114q0 53 -17.5 88t-51.5 35zM243 -21
h-1q-66 0 -84 -21q-23 -23 -23 -50q0 -39 36 -68t93 -29q56 0 88.5 26.5t32.5 67.5q0 50 -56 66q-36 8 -86 8zM235 643h1q30 0 50.5 -20.5t20.5 -49.5t-21 -49.5t-51 -20.5q-28 0 -49 21t-21 49q0 29 21 49.5t49 20.5z" />
    <glyph glyph-name="Gcommaaccent" unicode="&#x122;" horiz-adv-x="727" 
d="M703 311v-35q-38 -8 -47 -20t-9 -61v-79q0 -64 6 -95q-154 -36 -228 -36q-174 0 -277.5 91t-103.5 242q0 83 32 150t87 109.5t126 65t151 22.5q69 0 195 -28q6 -64 16 -165l-38 -8q-17 81 -68 120t-125 39q-94 0 -159 -78.5t-65 -209.5q0 -58 14.5 -112t42.5 -98.5
t75 -71.5t106 -27q39 0 56 12q23 14 23 56v95q0 30 -2 42.5t-14 23.5t-32 14t-62 7v35h300zM398 -50h1q34 0 60 -27t26 -66q0 -88 -122 -119l-11 26q64 31 64 69q0 36 -50 49q-15 2 -15 26q0 20 14.5 31t32.5 11z" />
    <glyph glyph-name="gcommaaccent" unicode="&#x123;" horiz-adv-x="492" 
d="M494 439l4 -7q-5 -16 -17.5 -34.5t-25.5 -26.5l-57 4q26 -33 26 -76q0 -74 -55.5 -115t-134.5 -41q-12 0 -50 5q-14 -16 -14 -28q0 -15 16 -26.5t49 -11.5q16 0 46 1t46 1q27 0 51 -5t49 -17t39.5 -38t14.5 -63q0 -84 -82.5 -144.5t-184.5 -60.5q-90 0 -138.5 37
t-48.5 84q0 30 31 55q10 9 75 50q-48 18 -75 55q-16 26 -14 54q57 24 102 66q-46 15 -72 50.5t-26 82.5q0 78 59 121t134 43h1q54 0 107 -27q41 2 145 12zM236 417h-1q-24 0 -41.5 -29.5t-17.5 -81.5q0 -56 17.5 -91t51.5 -35q60 0 60 114q0 53 -17.5 88t-51.5 35zM243 -21
h-1q-66 0 -84 -21q-23 -23 -23 -50q0 -39 36 -68t93 -29q56 0 88.5 26.5t32.5 67.5q0 50 -56 66q-36 8 -86 8zM249 514h-1q-34 0 -60 27t-26 66q0 46 34 76t88 43l11 -26q-64 -31 -64 -69q0 -36 50 -49q15 -2 15 -26q0 -20 -14.5 -31t-32.5 -11z" />
    <glyph glyph-name="Hcircumflex" unicode="&#x124;" horiz-adv-x="783" 
d="M746 650v-35q-59 -5 -71.5 -19.5t-12.5 -78.5v-385q0 -62 13 -77t71 -20v-35h-305v35q60 5 73.5 20t13.5 78v186h-273v-186q0 -63 13 -78t69 -20v-35h-298v35q56 5 69 20t13 78v384q0 63 -13.5 78t-72.5 20v35h300v-35q-55 -5 -67.5 -20t-12.5 -78v-147h273v147
q0 63 -13 78t-70 20v35h301zM539 710l-16 -26q-33 13 -132 61q-90 -45 -131 -61l-16 26q63 51 132 123h31q51 -55 132 -123z" />
    <glyph glyph-name="hcircumflex" unicode="&#x125;" horiz-adv-x="550" 
d="M531 0h-235v32q35 5 43 16t8 53v176q0 103 -72 103q-43 0 -72 -28v-251q0 -42 7.5 -53.5t38.5 -15.5v-32h-237v32q43 4 53 15t10 58v465q0 45 -8 53.5t-48 13.5v30q73 8 184 36v-313q64 64 133 64q66 0 102 -42t36 -124v-183q0 -46 8.5 -56.5t48.5 -16.5v-32zM277 751
l-16 -26q-33 13 -132 61q-90 -45 -131 -61l-16 26q63 51 132 123h31q51 -55 132 -123z" />
    <glyph glyph-name="Hbar" unicode="&#x126;" horiz-adv-x="783" 
d="M740 465h-78v-334q0 -62 13 -77t71 -20v-34h-305v34q60 5 73.5 20t13.5 78v169h-273v-169q0 -63 13 -78t69 -20v-34h-298v34q56 5 69 20t13 78v333h-80v43h80v15q0 61 -13 74.5t-73 18.5v34h300v-34q-56 -5 -68 -18.5t-12 -74.5v-15h273v14q0 62 -12.5 75.5t-70.5 18.5
v34h301v-34q-60 -5 -72 -18t-12 -75v-15h78v-43zM528 351v114h-273v-114h273z" />
    <glyph glyph-name="hbar" unicode="&#x127;" horiz-adv-x="551" 
d="M533 0h-236v32q35 4 43 15.5t8 53.5v180q0 100 -74 100q-37 0 -72 -30v-250q0 -43 7.5 -53.5t39.5 -15.5v-32h-237v32q41 5 51.5 16t10.5 59v419h-70v43h70v51q0 19 -5 25t-28 11v27q115 17 161 27v-141h155v-43h-155v-136q64 64 138 64q65 0 100.5 -41.5t35.5 -121.5
v-184q0 -47 9.5 -58t47.5 -17v-32z" />
    <glyph glyph-name="Itilde" unicode="&#x128;" horiz-adv-x="378" 
d="M338 0h-301v35q57 5 70.5 20.5t13.5 77.5v384q0 63 -13.5 78t-70.5 20v35h301v-35q-57 -5 -70 -20t-13 -78v-384q0 -62 13 -77.5t70 -20.5v-35zM135 798h1q21 0 63 -18q39 -17 61 -17q28 0 49 42l30 -15q-31 -98 -93 -98q-18 0 -70 21q-30 15 -52 15q-27 0 -50 -44
l-30 20q34 94 91 94z" />
    <glyph glyph-name="itilde" unicode="&#x129;" horiz-adv-x="295" 
d="M283 0h-254v33q42 5 52.5 20t10.5 69v190q0 46 -8 58t-47 18v30q96 11 183 36v-332q0 -57 9 -70t54 -19v-33zM93 625h1q19 0 62 -20q39 -21 58 -21q26 0 50 47l28 -14q-31 -107 -87 -107q-25 0 -67 22q-35 19 -56 19q-30 0 -52 -50l-29 19q34 105 92 105z" />
    <glyph glyph-name="Imacron" unicode="&#x12a;" horiz-adv-x="378" 
d="M338 0h-301v35q57 5 70.5 20.5t13.5 77.5v384q0 63 -13.5 78t-70.5 20v35h301v-35q-57 -5 -70 -20t-13 -78v-384q0 -62 13 -77.5t70 -20.5v-35zM312 711h-245v68h245v-68z" />
    <glyph glyph-name="imacron" unicode="&#x12b;" horiz-adv-x="295" 
d="M283 0h-254v33q42 5 52.5 20t10.5 69v190q0 46 -8 58t-47 18v30q96 11 183 36v-332q0 -57 9 -70t54 -19v-33zM267 527h-250v68h250v-68z" />
    <glyph glyph-name="Ibreve" unicode="&#x12c;" horiz-adv-x="378" 
d="M338 0h-301v35q57 5 70.5 20.5t13.5 77.5v384q0 63 -13.5 78t-70.5 20v35h301v-35q-57 -5 -70 -20t-13 -78v-384q0 -62 13 -77.5t70 -20.5v-35zM286 828h30q0 -137 -127 -137q-126 0 -127 137h30q14 -65 97 -65t97 65z" />
    <glyph glyph-name="ibreve" unicode="&#x12d;" horiz-adv-x="295" 
d="M283 0h-254v33q42 5 52.5 20t10.5 69v190q0 46 -8 58t-47 18v30q96 11 183 36v-332q0 -57 9 -70t54 -19v-33zM234 650h32q0 -153 -122 -153h-1q-121 0 -121 153h32q16 -77 90 -77t90 77z" />
    <glyph glyph-name="Iogonek" unicode="&#x12e;" horiz-adv-x="378" 
d="M338 0h-125q-32 -51 -32 -116q0 -25 15.5 -37.5t37.5 -12.5q24 0 44 9l9 -30l-60 -33q-21 -12 -42 -12q-41 0 -64 23t-23 58q0 26 17 61t26 47t33 43h-136l-1 34q57 5 70.5 20.5t13.5 77.5v385q0 63 -13.5 78.5t-70.5 20.5v34h301v-34q-57 -5 -70 -20t-13 -79v-385
q0 -62 13 -77.5t70 -20.5v-34z" />
    <glyph glyph-name="iogonek" unicode="&#x12f;" horiz-adv-x="296" 
d="M148 665h1q30 0 50.5 -20.5t20.5 -49.5t-21 -49.5t-51 -20.5q-28 0 -49 20.5t-21 48.5q0 30 21 50.5t49 20.5zM288 0h-108q-30 -48 -30 -112q0 -23 14.5 -37t36.5 -14t44 11l9 -31l-53 -34q-20 -13 -42 -13q-45 0 -67 23t-22 59q0 9 1.5 18.5t5 19t6.5 18t9 19t9.5 17
t10.5 17t10 14.5t10 14t8 11h-112l-1 32q46 4 56 17t10 67v196q0 45 -9.5 58t-48.5 18v30q100 12 186 36v-338q0 -53 10.5 -66.5t56.5 -17.5v-32z" />
    <glyph glyph-name="Idotaccent" unicode="&#x130;" horiz-adv-x="378" 
d="M338 0h-301v35q57 5 70.5 20.5t13.5 77.5v384q0 63 -13.5 78t-70.5 20v35h301v-35q-57 -5 -70 -20t-13 -78v-384q0 -62 13 -77.5t70 -20.5v-35zM188 842h1q30 0 50.5 -20.5t20.5 -49.5t-21 -49.5t-51 -20.5q-28 0 -49 21t-21 49q0 29 21 49.5t49 20.5z" />
    <glyph glyph-name="dotlessi" unicode="&#x131;" horiz-adv-x="295" 
d="M283 0h-254v33q42 5 52.5 20t10.5 69v190q0 46 -8 58t-47 18v30q96 11 183 36v-332q0 -57 9 -70t54 -19v-33z" />
    <glyph glyph-name="IJ" unicode="&#x132;" horiz-adv-x="744" 
d="M338 0h-301v35q57 5 70.5 20.5t13.5 77.5v384q0 63 -13.5 78t-70.5 20v35h301v-35q-57 -5 -70 -20t-13 -78v-384q0 -62 13 -77.5t70 -20.5v-35zM715 650v-35q-53 -5 -65.5 -20t-12.5 -78v-330q0 -103 -19.5 -169.5t-82.5 -117.5q-55 -47 -122 -62l-15 36q80 34 94 122
q11 67 11 194v327q0 63 -14 78t-72 20v35h298z" />
    <glyph glyph-name="ij" unicode="&#x133;" horiz-adv-x="583" 
d="M148 660h1q30 0 50.5 -20.5t20.5 -49.5t-21 -49.5t-51 -20.5q-28 0 -49 21t-21 49q0 29 21 49.5t49 20.5zM285 0h-257v32q44 5 54 17t10 65v198q0 48 -9 59.5t-46 17.5v29q95 11 183 36v-340q0 -52 10 -64.5t55 -17.5v-32zM438 660h1q30 0 50.5 -20.5t20.5 -49.5
t-21 -49.5t-51 -20.5q-28 0 -49 21t-21 49q0 29 21 49.5t49 20.5zM322 388v30q70 8 189 36v-325q0 -94 -28 -162q-27 -63 -71.5 -121t-68.5 -75q-20 -15 -35 -15q-12 0 -26 16.5t-14 38.5q0 12 6.5 19.5t17.5 7.5q64 3 75 20q9 18 12 71q4 79 4 188v188q0 52 -9.5 64
t-51.5 19z" />
    <glyph glyph-name="Jcircumflex" unicode="&#x134;" horiz-adv-x="366" 
d="M337 650v-35q-53 -5 -65.5 -20t-12.5 -78v-330q0 -103 -19.5 -169.5t-82.5 -117.5q-55 -47 -122 -62l-15 36q80 34 94 122q11 67 11 194v327q0 63 -14 78t-72 20v35h298zM338 710l-16 -26q-33 13 -132 61q-90 -45 -131 -61l-16 26q63 51 132 123h31q51 -55 132 -123z" />
    <glyph glyph-name="jcircumflex" unicode="&#x135;" horiz-adv-x="291" 
d="M263 524l-25 -19q-21 18 -90 90q-67 -70 -91 -90l-23 19q51 76 98 158h31q40 -71 100 -158zM31 389v29q78 8 191 36v-330q0 -93 -28 -161q-27 -64 -71.5 -122t-68.5 -74q-20 -15 -37 -15q-11 0 -24 15.5t-13 36.5q0 25 24 27q62 0 74 20q9 16 12 71q4 77 4 191v192
q0 52 -9.5 64.5t-53.5 19.5z" />
    <glyph glyph-name="Kcommaaccent" unicode="&#x136;" horiz-adv-x="703" 
d="M699 0h-201q-86 118 -197 279q-26 38 -49 35v-180q0 -64 13.5 -79t72.5 -20v-35h-299v35q55 5 68.5 20.5t13.5 78.5v382q0 63 -13.5 78.5t-70.5 20.5v35h294v-35q-54 -5 -66.5 -20t-12.5 -79v-170q34 10 76 53q77 79 140 162q19 23 14 35.5t-39 16.5l-18 2v35h260v-35
q-50 -5 -84.5 -19t-73.5 -51q-35 -32 -146 -148q96 -143 210 -288q30 -38 53.5 -53.5t54.5 -20.5v-35zM372 -26h1q34 0 60 -27t26 -66q0 -88 -122 -119l-11 26q64 31 64 69q0 36 -50 49q-15 2 -15 26q0 20 14.5 31t32.5 11z" />
    <glyph glyph-name="kcommaaccent" unicode="&#x137;" horiz-adv-x="513" 
d="M535 0l-176 -2q-30 37 -129 197q-12 16 -20 18q-3 1 -10 1v-107q0 -47 10.5 -58t55.5 -17v-32h-257v32q46 6 56 16.5t10 58.5v463q0 41 -10 52t-50 16v29q92 10 185 36v-459q29 6 58 39q26 29 59 86q9 16 2.5 26t-33.5 14v30l216 9v-30q-90 -16 -125 -52q-30 -30 -71 -82
q19 -31 69.5 -101t75.5 -100q23 -27 40 -36.5t44 -14.5v-32zM267 -36h1q34 0 60 -27t26 -66q0 -88 -122 -119l-11 26q64 31 64 69q0 36 -50 49q-15 2 -15 26q0 20 14.5 31t32.5 11z" />
    <glyph glyph-name="kgreenlandic" unicode="&#x138;" horiz-adv-x="553" 
d="M550 0h-184q-5 8 -24 41.5t-44 78t-38 66.5q-17 28 -39 26v-98q0 -53 9.5 -65.5t50.5 -16.5v-32h-249v32q41 2 51 15.5t10 67.5v202q0 51 -9.5 65.5t-49.5 17.5v32q103 6 187 23v-212q22 2 45 23q49 44 82 95q12 19 8 30.5t-22 14.5l-19 4v32h216v-32q-71 -5 -117 -47
q-40 -37 -80 -82q93 -145 136 -201q22 -27 38 -36.5t42 -11.5v-32z" />
    <glyph glyph-name="Lacute" unicode="&#x139;" horiz-adv-x="551" 
d="M512 179l36 -10q-22 -119 -37 -169h-487v35q66 5 81.5 20t15.5 78v383q0 63 -14 78.5t-72 20.5v35h305v-35q-58 -5 -71.5 -20.5t-13.5 -78.5v-391q0 -36 4.5 -51.5t19.5 -22.5q21 -8 75 -8q73 0 103 34t55 102zM364 755l-4 -12l-206 -60l-14 28q145 103 173 122
q14 -5 31.5 -32t19.5 -46z" />
    <glyph glyph-name="lacute" unicode="&#x13a;" horiz-adv-x="278" 
d="M270 0h-260v32q45 7 55 18.5t10 59.5v457q0 45 -9 55t-51 15v30q96 10 188 36v-593q0 -50 10 -61.5t57 -16.5v-32zM279 804l-4 -12l-206 -60l-14 28q145 103 173 122q14 -5 31.5 -32t19.5 -46z" />
    <glyph glyph-name="Lcommaaccent" unicode="&#x13b;" horiz-adv-x="551" 
d="M512 179l36 -10q-22 -119 -37 -169h-487v35q66 5 81.5 20t15.5 78v383q0 63 -14 78.5t-72 20.5v35h305v-35q-58 -5 -71.5 -20.5t-13.5 -78.5v-391q0 -36 4.5 -51.5t19.5 -22.5q21 -8 75 -8q73 0 103 34t55 102zM304 -36h1q34 0 60 -27t26 -66q0 -88 -122 -119l-11 26
q64 31 64 69q0 36 -50 49q-15 2 -15 26q0 20 14.5 31t32.5 11z" />
    <glyph glyph-name="lcommaaccent" unicode="&#x13c;" horiz-adv-x="278" 
d="M270 0h-260v32q45 7 55 18.5t10 59.5v457q0 45 -9 55t-51 15v30q96 10 188 36v-593q0 -50 10 -61.5t57 -16.5v-32zM129 -34h1q34 0 60 -27t26 -66q0 -88 -122 -119l-11 26q64 31 64 69q0 36 -50 49q-15 2 -15 26q0 20 14.5 31t32.5 11z" />
    <glyph glyph-name="Lcaron" unicode="&#x13d;" horiz-adv-x="551" 
d="M512 179l36 -10q-22 -119 -37 -169h-487v35q66 5 81.5 20t15.5 78v383q0 63 -14 78.5t-72 20.5v35h305v-35q-58 -5 -71.5 -20.5t-13.5 -78.5v-391q0 -36 4.5 -51.5t19.5 -22.5q21 -8 75 -8q73 0 103 34t55 102zM422 653h1q30 0 52 -26.5t22 -66.5q0 -46 -29.5 -76
t-77.5 -43l-10 26q54 28 54 69q0 35 -40 48q-15 5 -15 26q0 19 13.5 31t29.5 12z" />
    <glyph glyph-name="lcaron" unicode="&#x13e;" horiz-adv-x="278" 
d="M270 0h-260v32q45 7 55 18.5t10 59.5v457q0 45 -9 55t-51 15v30q96 10 188 36v-593q0 -50 10 -61.5t57 -16.5v-32zM289 711h1q30 0 52 -26.5t22 -66.5q0 -46 -29.5 -76t-77.5 -43l-10 26q54 28 54 69q0 35 -40 48q-15 5 -15 26q0 19 13.5 31t29.5 12z" />
    <glyph glyph-name="Ldot" unicode="&#x13f;" horiz-adv-x="551" 
d="M512 179l36 -10q-22 -119 -37 -169h-487v35q66 5 81.5 20t15.5 78v383q0 63 -14 78.5t-72 20.5v35h305v-35q-58 -5 -71.5 -20.5t-13.5 -78.5v-391q0 -36 4.5 -51.5t19.5 -22.5q21 -8 75 -8q73 0 103 34t55 102zM397 428h1q30 0 50.5 -20.5t20.5 -49.5t-21 -49.5
t-51 -20.5q-28 0 -49 21t-21 49q0 29 21 49.5t49 20.5z" />
    <glyph glyph-name="ldot" unicode="&#x140;" horiz-adv-x="335" 
d="M307 426h1q28 0 46.5 -20t18.5 -49q0 -27 -19 -47t-48 -20q-26 0 -45 20t-19 47q0 29 19 49t46 20zM271 0h-262v33q46 6 56 17t10 60v464q0 45 -9 55t-53 15v29q99 10 190 36v-599q0 -49 10.5 -60t57.5 -17v-33z" />
    <glyph glyph-name="Lslash" unicode="&#x141;" horiz-adv-x="563" 
d="M522 179l38 -10q-35 -164 -37 -169h-487v35q65 5 81 22t16 81v126l-100 -67v52l100 67v196q0 64 -14 81t-71 22v35h306l-1 -35q-58 -5 -72 -22t-14 -81v-112l132 89v-54l-132 -88v-217q0 -37 5 -54.5t20 -23.5q18 -8 77 -8q71 0 99 33q28 31 54 102z" />
    <glyph glyph-name="lslash" unicode="&#x142;" horiz-adv-x="302" 
d="M299 464l-84 -68v-276q0 -54 10.5 -67.5t57.5 -19.5v-33h-265v33q48 4 58.5 18t10.5 69v177l-71 -58v54l71 59v231q0 31 -10.5 41.5t-54.5 20.5v28q97 11 193 36v-259l84 69v-55z" />
    <glyph glyph-name="Nacute" unicode="&#x143;" horiz-adv-x="740" 
d="M724 650v-34q-41 -2 -58.5 -15.5t-21.5 -46.5q-9 -93 -9 -167v-397h-48l-416 499h-3v-225q0 -82 8 -162q4 -35 23 -49.5t73 -17.5v-35h-245v35q42 3 61 17.5t22 45.5q10 85 10 166v209q0 52 -3 71t-17 36q-14 18 -32.5 25.5t-51.5 10.5v34h185l383 -439h3v176
q0 88 -8 165q-4 33 -24.5 47t-74.5 17v34h244zM528 755l-4 -12l-206 -60l-14 28q145 103 173 122q14 -5 31.5 -32t19.5 -46z" />
    <glyph glyph-name="nacute" unicode="&#x144;" horiz-adv-x="566" 
d="M549 0h-233v32q32 5 39.5 16.5t7.5 64.5v170q0 94 -69 94q-34 0 -74 -31v-242q0 -46 7.5 -56.5t39.5 -15.5v-32h-241v32q48 7 57 17t9 60v208q0 44 -8 54.5t-45 18.5v28q87 11 181 38v-73q9 6 29.5 21t32.5 22q44 28 78 28q61 0 96 -42.5t35 -117.5v-189q0 -46 9 -57
t49 -16v-32zM419 664l-134 -180l-31 13q7 22 26.5 89t23.5 77q7 6 51.5 10.5t57.5 1.5z" />
    <glyph glyph-name="Ncommaaccent" unicode="&#x145;" horiz-adv-x="740" 
d="M724 650v-34q-41 -2 -58.5 -15.5t-21.5 -46.5q-9 -93 -9 -167v-397h-48l-416 499h-3v-225q0 -82 8 -162q4 -35 23 -49.5t73 -17.5v-35h-245v35q42 3 61 17.5t22 45.5q10 85 10 166v209q0 52 -3 71t-17 36q-14 18 -32.5 25.5t-51.5 10.5v34h185l383 -439h3v176
q0 88 -8 165q-4 33 -24.5 47t-74.5 17v34h244zM378 -16h1q34 0 60 -27t26 -66q0 -88 -122 -119l-11 26q64 31 64 69q0 36 -50 49q-15 2 -15 26q0 20 14.5 31t32.5 11z" />
    <glyph glyph-name="ncommaaccent" unicode="&#x146;" horiz-adv-x="566" 
d="M549 0h-233v32q32 5 39.5 16.5t7.5 64.5v170q0 94 -69 94q-34 0 -74 -31v-242q0 -46 7.5 -56.5t39.5 -15.5v-32h-241v32q48 7 57 17t9 60v208q0 44 -8 54.5t-45 18.5v28q87 11 181 38v-73q9 6 29.5 21t32.5 22q44 28 78 28q61 0 96 -42.5t35 -117.5v-189q0 -46 9 -57
t49 -16v-32zM288 -41h1q34 0 60 -27t26 -66q0 -88 -122 -119l-11 26q64 31 64 69q0 36 -50 49q-15 2 -15 26q0 20 14.5 31t32.5 11z" />
    <glyph glyph-name="Ncaron" unicode="&#x147;" horiz-adv-x="740" 
d="M724 650v-34q-41 -2 -58.5 -15.5t-21.5 -46.5q-9 -93 -9 -167v-397h-48l-416 499h-3v-225q0 -82 8 -162q4 -35 23 -49.5t73 -17.5v-35h-245v35q42 3 61 17.5t22 45.5q10 85 10 166v209q0 52 -3 71t-17 36q-14 18 -32.5 25.5t-51.5 10.5v34h185l383 -439h3v176
q0 88 -8 165q-4 33 -24.5 47t-74.5 17v34h244zM509 815l15 -26q-49 -38 -132 -123h-30q-65 70 -133 123l17 26q66 -27 131 -59q67 33 132 59z" />
    <glyph glyph-name="ncaron" unicode="&#x148;" horiz-adv-x="566" 
d="M549 0h-233v32q32 5 39.5 16.5t7.5 64.5v170q0 94 -69 94q-34 0 -74 -31v-242q0 -46 7.5 -56.5t39.5 -15.5v-32h-241v32q48 7 57 17t9 60v208q0 44 -8 54.5t-45 18.5v28q87 11 181 38v-73q9 6 29.5 21t32.5 22q44 28 78 28q61 0 96 -42.5t35 -117.5v-189q0 -46 9 -57
t49 -16v-32zM381 683l27 -22q-48 -70 -106 -173h-38q-49 88 -107 173l27 22q33 -26 99 -92q10 10 29 28.5t35.5 34t33.5 29.5z" />
    <glyph glyph-name="napostrophe" unicode="&#x149;" horiz-adv-x="570" 
d="M53 717h1q41 0 74 -29t33 -80t-42 -84t-106 -48l-10 28q75 33 75 81q0 45 -66 57q-4 1 -8.5 9t-4.5 20q0 20 16.5 33t37.5 13zM552 0h-233v33q32 5 39.5 18t7.5 66v166q0 94 -68 94q-35 0 -77 -32v-237q0 -46 7.5 -58t38.5 -17v-33h-242v33q47 6 57.5 18.5t10.5 65.5v200
q0 42 -8.5 53t-44.5 19v29q87 11 181 38v-71q30 21 59 39q49 30 83 30q61 0 96 -41t35 -116v-189q0 -47 9.5 -58.5t48.5 -16.5v-33z" />
    <glyph glyph-name="Eng" unicode="&#x14a;" horiz-adv-x="740" 
d="M724 650v-34q-41 -2 -59 -15.5t-21 -46.5q-9 -70 -9 -168v-356q0 -112 -35 -173q-40 -65 -94 -65q-24 0 -42 17.5t-18 41.5q0 26 15 26q6 0 20 -4t27 -4q39 0 58 35t19 88l-413 494h-4v-219q0 -96 7 -166q4 -35 24 -49.5t74 -17.5v-34h-246v34q42 3 61 17.5t23 45.5
q9 102 9 170v204q0 52 -3 72t-17 37q-14 18 -32.5 25.5t-51.5 10.5v34h183l385 -438h3v175q0 65 -7 166q-4 33 -25 46.5t-75 16.5v34h244z" />
    <glyph glyph-name="eng" unicode="&#x14b;" horiz-adv-x="558" 
d="M220 456v-71q44 30 58 39q49 30 80 30q61 0 96.5 -41t35.5 -116v-153q0 -124 -36 -200q-29 -59 -74 -102q-47 -49 -84 -49q-17 0 -31.5 16.5t-14.5 43.5q0 22 15 22q6 0 29 -8.5t31 -8.5q23 0 30 24q7 26 7 167v232q0 50 -19 73t-48 23q-35 0 -75 -32v-238
q0 -47 9.5 -58.5t51.5 -16.5v-32h-255v32q46 5 56 16.5t10 61.5v208q0 43 -8 54.5t-45 18.5v28q81 12 181 37z" />
    <glyph glyph-name="Omacron" unicode="&#x14c;" horiz-adv-x="766" 
d="M393 664h1q139 0 235 -93.5t96 -239.5q0 -157 -99 -251.5t-245 -94.5q-149 0 -244 96.5t-95 241.5q0 138 94.5 239.5t256.5 101.5zM375 622h-1q-77 0 -127.5 -76.5t-50.5 -202.5q0 -134 55 -225t148 -91q75 0 123.5 72t48.5 205q0 147 -54 232.5t-142 85.5zM504 712h-245
v68h245v-68z" />
    <glyph glyph-name="omacron" unicode="&#x14d;" horiz-adv-x="525" 
d="M268 454h1q101 0 164 -66t63 -159q0 -114 -68.5 -177.5t-163.5 -63.5q-111 0 -172.5 66.5t-61.5 155.5q0 113 73 178.5t165 65.5zM255 415h-1q-33 0 -57 -43.5t-24 -124.5q0 -95 28 -157.5t74 -62.5q35 0 56.5 36t21.5 136q0 104 -25.5 160t-72.5 56zM388 527h-250v68
h250v-68z" />
    <glyph glyph-name="Obreve" unicode="&#x14e;" horiz-adv-x="766" 
d="M393 664h1q139 0 235 -93.5t96 -239.5q0 -157 -99 -251.5t-245 -94.5q-149 0 -244 96.5t-95 241.5q0 138 94.5 239.5t256.5 101.5zM375 622h-1q-77 0 -127.5 -76.5t-50.5 -202.5q0 -134 55 -225t148 -91q75 0 123.5 72t48.5 205q0 147 -54 232.5t-142 85.5zM474 834h30
q0 -137 -127 -137q-126 0 -127 137h30q14 -65 97 -65t97 65z" />
    <glyph glyph-name="obreve" unicode="&#x14f;" horiz-adv-x="525" 
d="M268 454h1q101 0 164 -66t63 -159q0 -114 -68.5 -177.5t-163.5 -63.5q-111 0 -172.5 66.5t-61.5 155.5q0 113 73 178.5t165 65.5zM255 415h-1q-33 0 -57 -43.5t-24 -124.5q0 -95 28 -157.5t74 -62.5q35 0 56.5 36t21.5 136q0 104 -25.5 160t-72.5 56zM348 650h32
q0 -153 -122 -153h-1q-121 0 -121 153h32q16 -77 90 -77t90 77z" />
    <glyph glyph-name="Ohungarumlaut" unicode="&#x150;" horiz-adv-x="766" 
d="M393 664h1q139 0 235 -93.5t96 -239.5q0 -157 -99 -251.5t-245 -94.5q-149 0 -244 96.5t-95 241.5q0 138 94.5 239.5t256.5 101.5zM375 622h-1q-77 0 -127.5 -76.5t-50.5 -202.5q0 -134 55 -225t148 -91q75 0 123.5 72t48.5 205q0 147 -54 232.5t-142 85.5zM576 803
l-106 -116l-31 11q16 48 40 126q19 4 54 -0.5t42 -11.5zM418 803l-105 -116l-32 11q16 48 40 126q19 4 54 -0.5t42 -11.5z" />
    <glyph glyph-name="ohungarumlaut" unicode="&#x151;" horiz-adv-x="525" 
d="M268 454h1q101 0 164 -66t63 -159q0 -114 -68.5 -177.5t-163.5 -63.5q-111 0 -172.5 66.5t-61.5 155.5q0 113 73 178.5t165 65.5zM255 415h-1q-33 0 -57 -43.5t-24 -124.5q0 -95 28 -157.5t74 -62.5q35 0 56.5 36t21.5 136q0 104 -25.5 160t-72.5 56zM295 662l-107 -179
l-30 10q7 31 21.5 99.5t14.5 69.5q8 5 46 9.5t50 1.5zM447 662l-107 -179l-30 10q8 34 21.5 99t14.5 70q8 5 46 9.5t50 1.5z" />
    <glyph glyph-name="OE" unicode="&#x152;" horiz-adv-x="992" 
d="M947 179l35 -7q-9 -55 -35 -172h-325q-60 0 -105 -5q-60 -6 -102 -6q-183 0 -278.5 94t-95.5 234q0 151 107.5 247.5t284.5 96.5q8 0 104 -6q73 -5 89 -5h296q2 -40 11 -148l-38 -5q-16 58 -42 84q-22 25 -105 25h-46q-27 0 -33 -5.5t-6 -29.5v-212h71q63 0 82 12t29 63
h36v-201h-36q-10 53 -28.5 64.5t-82.5 11.5h-71v-163q0 -49 4.5 -68.5t19.5 -25.5q20 -9 88 -9q83 0 113 33q33 35 59 103zM531 100v458q0 37 -28 48q-28 12 -76 12q-105 0 -169.5 -77t-64.5 -211q0 -126 62 -212.5t173 -86.5q43 0 67 10q21 8 28.5 20.5t7.5 38.5z" />
    <glyph glyph-name="oe" unicode="&#x153;" horiz-adv-x="770" 
d="M265 454h1q100 0 160 -84q72 84 158 84q70 0 119 -49t49 -113q0 -30 -27 -37q-40 -8 -249 -16q1 -73 38.5 -117.5t102.5 -44.5q55 0 109 42l18 -24q-38 -59 -87 -83t-86 -24q-100 0 -159 75q-64 -75 -155 -75q-106 0 -168 68t-62 157q0 111 73 176t165 65zM563 412h-1
q-28 0 -52.5 -34.5t-28.5 -94.5q118 3 126 3q13 0 17.5 4t4.5 18q0 40 -18.5 72t-47.5 32zM255 414h-1q-32 0 -57 -44.5t-26 -126.5q-1 -88 27.5 -151t76.5 -63q79 0 80 174q1 102 -26.5 156.5t-73.5 54.5z" />
    <glyph glyph-name="Racute" unicode="&#x154;" horiz-adv-x="659" 
d="M660 23l-6 -32q-2 0 -12.5 0.5t-17.5 0.5q-90 4 -131 25.5t-74 71.5q-7 12 -82 148q-23 43 -66 43h-19v-146q0 -62 14 -78t71 -21v-35h-302v35q57 5 71.5 21.5t14.5 77.5v384q0 60 -13.5 76t-68.5 21v35h281q123 0 179 -38q67 -45 67 -132q0 -113 -125 -163
q35 -70 82 -142q51 -81 76 -109q31 -32 61 -43zM252 320h26q68 0 98 26q48 40 48 119q0 73 -35 109t-83 36q-35 0 -45 -10q-9 -8 -9 -37v-243zM469 755l-4 -12l-206 -60l-14 28q145 103 173 122q14 -5 31.5 -32t19.5 -46z" />
    <glyph glyph-name="racute" unicode="&#x155;" horiz-adv-x="404" 
d="M220 348h2q62 106 113 106q29 0 48 -18.5t19 -44.5q0 -25 -14 -45t-35 -28q-19 -7 -31 5q-26 20 -46 20q-33 0 -56 -53v-186q0 -46 12 -57t70 -15v-32h-274v32q42 5 53 16t11 56v219q0 37 -9 47.5t-45 18.5v28q103 14 182 38v-107zM348 663l-134 -180l-31 13
q7 22 26.5 89t23.5 77q7 6 51.5 10.5t57.5 1.5z" />
    <glyph glyph-name="Rcommaaccent" unicode="&#x156;" horiz-adv-x="659" 
d="M660 23l-6 -32q-2 0 -12.5 0.5t-17.5 0.5q-90 4 -131 25.5t-74 71.5q-7 12 -82 148q-23 43 -66 43h-19v-146q0 -62 14 -78t71 -21v-35h-302v35q57 5 71.5 21.5t14.5 77.5v384q0 60 -13.5 76t-68.5 21v35h281q123 0 179 -38q67 -45 67 -132q0 -113 -125 -163
q35 -70 82 -142q51 -81 76 -109q31 -32 61 -43zM252 320h26q68 0 98 26q48 40 48 119q0 73 -35 109t-83 36q-35 0 -45 -10q-9 -8 -9 -37v-243zM359 -27h1q34 0 60 -27t26 -66q0 -88 -122 -119l-11 26q64 31 64 69q0 36 -50 49q-15 2 -15 26q0 20 14.5 31t32.5 11z" />
    <glyph glyph-name="rcommaaccent" unicode="&#x157;" horiz-adv-x="404" 
d="M220 348h2q62 106 113 106q29 0 48 -18.5t19 -44.5q0 -25 -14 -45t-35 -28q-19 -7 -31 5q-26 20 -46 20q-33 0 -56 -53v-186q0 -46 12 -57t70 -15v-32h-274v32q42 5 53 16t11 56v219q0 37 -9 47.5t-45 18.5v28q103 14 182 38v-107zM150 -41h1q34 0 60 -27t26 -66
q0 -88 -122 -119l-11 26q64 31 64 69q0 36 -50 49q-15 2 -15 26q0 20 14.5 31t32.5 11z" />
    <glyph glyph-name="Rcaron" unicode="&#x158;" horiz-adv-x="659" 
d="M660 23l-6 -32q-2 0 -12.5 0.5t-17.5 0.5q-90 4 -131 25.5t-74 71.5q-7 12 -82 148q-23 43 -66 43h-19v-146q0 -62 14 -78t71 -21v-35h-302v35q57 5 71.5 21.5t14.5 77.5v384q0 60 -13.5 76t-68.5 21v35h281q123 0 179 -38q67 -45 67 -132q0 -113 -125 -163
q35 -70 82 -142q51 -81 76 -109q31 -32 61 -43zM252 320h26q68 0 98 26q48 40 48 119q0 73 -35 109t-83 36q-35 0 -45 -10q-9 -8 -9 -37v-243zM436 830l15 -26q-49 -38 -132 -123h-30q-65 70 -133 123l17 26q66 -27 131 -59q67 33 132 59z" />
    <glyph glyph-name="rcaron" unicode="&#x159;" horiz-adv-x="404" 
d="M220 348h2q62 106 113 106q29 0 48 -18.5t19 -44.5q0 -25 -14 -45t-35 -28q-19 -7 -31 5q-26 20 -46 20q-33 0 -56 -53v-186q0 -46 12 -57t70 -15v-32h-274v32q42 5 53 16t11 56v219q0 37 -9 47.5t-45 18.5v28q103 14 182 38v-107zM311 677l27 -22q-48 -70 -106 -173h-38
q-49 88 -107 173l27 22q33 -26 99 -92q10 10 29 28.5t35.5 34t33.5 29.5z" />
    <glyph glyph-name="Sacute" unicode="&#x15a;" horiz-adv-x="505" 
d="M442 495l-35 -8q-43 137 -139 137q-42 0 -69.5 -28t-27.5 -71q0 -40 28 -68.5t96 -62.5q87 -42 132 -89.5t45 -116.5q0 -87 -67.5 -145t-175.5 -58q-54 0 -101 14q-32 9 -60 22q-15 36 -30 169l35 12q9 -27 23 -55t35.5 -57t52 -47t64.5 -18q46 0 73 29t27 77
q0 41 -29.5 72.5t-89.5 63.5q-86 44 -130 89.5t-44 112.5q0 85 62.5 140.5t166.5 55.5q61 0 139 -26q2 -21 9 -71t10 -73zM413 764l-4 -12l-206 -60l-14 28q145 103 173 122q14 -5 31.5 -32t19.5 -46z" />
    <glyph glyph-name="sacute" unicode="&#x15b;" horiz-adv-x="383" 
d="M338 322l-30 -9q-45 102 -106 102q-20 0 -35.5 -15.5t-15.5 -38.5q0 -44 74 -77q69 -30 102 -62t33 -86q0 -69 -54.5 -108.5t-124.5 -39.5q-37 0 -72.5 10.5t-53.5 23.5q-5 14 -10 57t-5 78l29 2q19 -54 53.5 -93t76.5 -39q24 0 39 15.5t15 38.5q0 24 -16 43.5t-59 40.5
q-25 12 -41 21t-39.5 27.5t-35.5 43.5t-12 55q0 60 45.5 100.5t122.5 41.5q55 0 96 -18q16 -38 24 -114zM332 663l-134 -180l-31 13q7 22 26.5 89t23.5 77q7 6 51.5 10.5t57.5 1.5z" />
    <glyph glyph-name="Scircumflex" unicode="&#x15c;" horiz-adv-x="505" 
d="M442 495l-35 -8q-43 137 -139 137q-42 0 -69.5 -28t-27.5 -71q0 -40 28 -68.5t96 -62.5q87 -42 132 -89.5t45 -116.5q0 -87 -67.5 -145t-175.5 -58q-54 0 -101 14q-32 9 -60 22q-15 36 -30 169l35 12q9 -27 23 -55t35.5 -57t52 -47t64.5 -18q46 0 73 29t27 77
q0 41 -29.5 72.5t-89.5 63.5q-86 44 -130 89.5t-44 112.5q0 85 62.5 140.5t166.5 55.5q61 0 139 -26q2 -21 9 -71t10 -73zM413 715l-16 -26q-33 13 -132 61q-90 -45 -131 -61l-16 26q63 51 132 123h31q51 -55 132 -123z" />
    <glyph glyph-name="scircumflex" unicode="&#x15d;" horiz-adv-x="383" 
d="M338 322l-30 -9q-45 102 -106 102q-20 0 -35.5 -15.5t-15.5 -38.5q0 -44 74 -77q69 -30 102 -62t33 -86q0 -69 -54.5 -108.5t-124.5 -39.5q-37 0 -72.5 10.5t-53.5 23.5q-5 14 -10 57t-5 78l29 2q19 -54 53.5 -93t76.5 -39q24 0 39 15.5t15 38.5q0 24 -16 43.5t-59 40.5
q-25 12 -41 21t-39.5 27.5t-35.5 43.5t-12 55q0 60 45.5 100.5t122.5 41.5q55 0 96 -18q16 -38 24 -114zM322 504l-28 -22q-17 14 -33.5 29.5t-36 34.5t-29.5 28q-7 -6 -28 -27.5t-37 -36t-33 -28.5l-27 22q57 85 106 173h38q43 -78 108 -173z" />
    <glyph glyph-name="uni015E" unicode="&#x15e;" horiz-adv-x="505" 
d="M443 495l-32 -8q-45 137 -141 137q-44 0 -70.5 -28t-26.5 -69q0 -40 28 -69t96 -62q86 -39 131 -87.5t45 -119.5q0 -73 -47.5 -126.5t-127.5 -68.5l-22 -23q-14 -16 11 -38q40 -39 40 -69q0 -67 -125 -100l-11 25q28 13 44 29t16 29q0 17 -23 35q-22 19 -24.5 34t15.5 37
l30 34q-5 -2 -18 -2q-53 0 -106 16q-1 0 -59 21q-15 36 -30 169l35 11q7 -26 22.5 -54t37.5 -56.5t54 -47t66 -18.5q45 0 73 28.5t28 73.5q0 46 -30.5 79t-91.5 64q-84 40 -128.5 86.5t-44.5 113.5q0 84 62 139t165 55q62 0 140 -26q6 -51 19 -144z" />
    <glyph glyph-name="uni015F" unicode="&#x15f;" horiz-adv-x="387" 
d="M341 322l-31 -10q-46 103 -105 103q-22 0 -37.5 -15.5t-15.5 -39.5q0 -43 75 -75q69 -30 102.5 -63t33.5 -87q0 -57 -36.5 -92.5t-89.5 -46.5l-21 -24q-8 -9 -5.5 -17t15.5 -21q40 -37 40 -68q0 -33 -32 -60t-89 -43l-13 29q27 12 44 28.5t17 29.5q0 14 -23 34
q-21 19 -23.5 34t16.5 37l29 34q-6 -1 -17 -1q-33 0 -69.5 11.5t-53.5 24.5q-4 13 -9.5 58.5t-5.5 80.5l30 2q19 -55 55 -97t78 -42q24 0 40 16t16 41q0 23 -16.5 41t-61.5 40q-68 35 -92 61q-35 38 -35 87q0 61 45 101t124 41q53 1 97 -18q7 -15 14.5 -54.5t9.5 -59.5z" />
    <glyph glyph-name="Scaron" unicode="&#x160;" horiz-adv-x="505" 
d="M442 495l-35 -8q-43 137 -139 137q-42 0 -69.5 -28t-27.5 -71q0 -40 28 -68.5t96 -62.5q87 -42 132 -89.5t45 -116.5q0 -87 -67.5 -145t-175.5 -58q-54 0 -101 14q-32 9 -60 22q-15 36 -30 169l35 12q9 -27 23 -55t35.5 -57t52 -47t64.5 -18q46 0 73 29t27 77
q0 41 -29.5 72.5t-89.5 63.5q-86 44 -130 89.5t-44 112.5q0 85 62.5 140.5t166.5 55.5q61 0 139 -26q2 -21 9 -71t10 -73zM394 843l15 -26q-49 -38 -132 -123h-30q-65 70 -133 123l17 26q66 -27 131 -59q67 33 132 59z" />
    <glyph glyph-name="scaron" unicode="&#x161;" horiz-adv-x="383" 
d="M338 322l-30 -9q-45 102 -106 102q-20 0 -35.5 -15.5t-15.5 -38.5q0 -44 74 -77q69 -30 102 -62t33 -86q0 -69 -54.5 -108.5t-124.5 -39.5q-37 0 -72.5 10.5t-53.5 23.5q-5 14 -10 57t-5 78l29 2q19 -54 53.5 -93t76.5 -39q24 0 39 15.5t15 38.5q0 24 -16 43.5t-59 40.5
q-25 12 -41 21t-39.5 27.5t-35.5 43.5t-12 55q0 60 45.5 100.5t122.5 41.5q55 0 96 -18q16 -38 24 -114zM300 681l27 -22q-48 -70 -106 -173h-38q-49 88 -107 173l27 22q33 -26 99 -92q10 10 29 28.5t35.5 34t33.5 29.5z" />
    <glyph glyph-name="Tcommaaccent" unicode="&#x162;" horiz-adv-x="641" 
d="M616 481l-36 -2q-18 78 -44 104q-24 23 -102 23h-45v-473q0 -63 15.5 -78t82.5 -20v-35h-326v35q64 5 79 20t15 78v473h-34q-58 0 -80.5 -6.5t-34.5 -20.5q-21 -21 -42 -101h-37q2 31 6.5 100t5.5 97h25q11 -16 22.5 -20.5t34.5 -4.5h402q35 0 57 25h25q2 -77 11 -194z
M311 -36h1q34 0 60 -27t26 -66q0 -88 -122 -119l-11 26q64 31 64 69q0 36 -50 49q-15 2 -15 26q0 20 14.5 31t32.5 11z" />
    <glyph glyph-name="tcommaaccent" unicode="&#x163;" horiz-adv-x="339" 
d="M329 37l-82 -38q-27 -11 -40 -11q-123 0 -123 126v280h-63l-5 12l28 36h40v73l114 78l14 -7v-144h98q9 -8 7.5 -25t-13.5 -23h-92v-247q0 -87 56 -87q24 0 51 12zM177 -48h1q34 0 60 -27t26 -66q0 -88 -122 -119l-11 26q64 31 64 69q0 36 -50 49q-15 2 -15 26
q0 20 14.5 31t32.5 11z" />
    <glyph glyph-name="Tcaron" unicode="&#x164;" horiz-adv-x="641" 
d="M616 481l-36 -2q-18 78 -44 104q-24 23 -102 23h-45v-473q0 -63 15.5 -78t82.5 -20v-35h-326v35q64 5 79 20t15 78v473h-34q-58 0 -80.5 -6.5t-34.5 -20.5q-21 -21 -42 -101h-37q2 31 6.5 100t5.5 97h25q11 -16 22.5 -20.5t34.5 -4.5h402q35 0 57 25h25q2 -77 11 -194z
M454 830l15 -26q-49 -38 -132 -123h-30q-65 70 -133 123l17 26q66 -27 131 -59q67 33 132 59z" />
    <glyph glyph-name="tcaron" unicode="&#x165;" horiz-adv-x="339" 
d="M329 37l-82 -38q-27 -11 -40 -11q-123 0 -123 126v280h-63l-5 12l28 36h40v73l114 78l14 -7v-144h98q9 -8 7.5 -25t-13.5 -23h-92v-247q0 -87 56 -87q24 0 51 12zM309 716h1q30 0 52 -26.5t22 -66.5q0 -46 -29.5 -76t-77.5 -43l-10 26q54 28 54 69q0 35 -40 48
q-15 5 -15 26q0 19 13.5 31t29.5 12z" />
    <glyph glyph-name="Tbar" unicode="&#x166;" horiz-adv-x="637" 
d="M612 486l-36 -2q-16 76 -41 101q-22 22 -110 22h-39v-253h141v-45h-141v-176q0 -63 15.5 -78t82.5 -20v-35h-326v35q64 5 79 20t15 78v176h-141v45h141v253h-28q-58 0 -82 -6.5t-36 -20.5q-24 -23 -43 -97h-35q2 38 6 103t5 89h24q11 -16 22.5 -20.5t34.5 -4.5h400
q35 0 57 25h23q1 -54 12 -189z" />
    <glyph glyph-name="tbar" unicode="&#x167;" horiz-adv-x="336" 
d="M327 37l-82 -38q-27 -11 -40 -11q-123 0 -123 126v110h-65v43h65v125h-63l-5 12l28 38h40v73l114 78l14 -7v-144h98q9 -8 7.5 -26t-13.5 -24h-92v-125h95v-43h-95v-75q0 -36 11 -57.5t22 -27t24 -5.5q23 0 50 11z" />
    <glyph glyph-name="Utilde" unicode="&#x168;" horiz-adv-x="729" 
d="M723 650v-35q-76 -4 -84 -59q-9 -56 -9 -139v-109q0 -173 -72 -250q-70 -73 -185 -73q-111 0 -177 51q-83 65 -83 236v236q0 69 -13.5 85.5t-70.5 21.5v35h301v-35q-56 -5 -69.5 -21.5t-13.5 -85.5v-218q0 -114 41 -175.5t121 -61.5q171 0 171 257v107q0 79 -10 139
q-5 28 -26.5 42t-70.5 17v35h250zM346 798h1q21 0 63 -18q39 -17 61 -17q28 0 49 42l30 -15q-31 -98 -93 -98q-17 0 -70 21q-30 15 -52 15q-27 0 -50 -44l-30 20q34 94 91 94z" />
    <glyph glyph-name="utilde" unicode="&#x169;" horiz-adv-x="555" 
d="M542 56v-32q-42 -6 -90 -16q-37 -7 -93 -20l-9 7v60q-32 -26 -50 -37q-44 -30 -86 -30q-62 0 -96.5 38t-34.5 104v207q0 33 -6 43t-26 15l-23 6v30q20 1 90 7q56 5 96 11q-3 -42 -3 -151v-145q0 -45 19.5 -66.5t48.5 -21.5q43 0 71 28v243q0 34 -5.5 44t-26.5 15l-31 6
v30q27 1 100 7q55 5 91 11v-325q0 -39 7.5 -51t34.5 -15zM223 625h1q19 0 62 -20q39 -21 58 -21q26 0 50 47l28 -14q-31 -107 -87 -107q-25 0 -67 22q-35 19 -56 19q-30 0 -52 -50l-29 19q34 105 92 105z" />
    <glyph glyph-name="Umacron" unicode="&#x16a;" horiz-adv-x="729" 
d="M723 650v-35q-76 -4 -84 -59q-9 -56 -9 -139v-109q0 -173 -72 -250q-70 -73 -185 -73q-111 0 -177 51q-83 65 -83 236v236q0 69 -13.5 85.5t-70.5 21.5v35h301v-35q-56 -5 -69.5 -21.5t-13.5 -85.5v-218q0 -114 41 -175.5t121 -61.5q171 0 171 257v107q0 79 -10 139
q-5 28 -26.5 42t-70.5 17v35h250zM508 712h-245v68h245v-68z" />
    <glyph glyph-name="umacron" unicode="&#x16b;" horiz-adv-x="555" 
d="M542 56v-32q-42 -6 -90 -16q-37 -7 -93 -20l-9 7v60q-32 -26 -50 -37q-44 -30 -86 -30q-62 0 -96.5 38t-34.5 104v207q0 33 -6 43t-26 15l-23 6v30q20 1 90 7q56 5 96 11q-3 -42 -3 -151v-145q0 -45 19.5 -66.5t48.5 -21.5q43 0 71 28v243q0 34 -5.5 44t-26.5 15l-31 6
v30q27 1 100 7q55 5 91 11v-325q0 -39 7.5 -51t34.5 -15zM400 527h-250v68h250v-68z" />
    <glyph glyph-name="Ubreve" unicode="&#x16c;" horiz-adv-x="729" 
d="M723 650v-35q-76 -4 -84 -59q-9 -56 -9 -139v-109q0 -173 -72 -250q-70 -73 -185 -73q-111 0 -177 51q-83 65 -83 236v236q0 69 -13.5 85.5t-70.5 21.5v35h301v-35q-56 -5 -69.5 -21.5t-13.5 -85.5v-218q0 -114 41 -175.5t121 -61.5q171 0 171 257v107q0 79 -10 139
q-5 28 -26.5 42t-70.5 17v35h250zM497 823h30q0 -137 -127 -137q-126 0 -127 137h30q14 -65 97 -65t97 65z" />
    <glyph glyph-name="ubreve" unicode="&#x16d;" horiz-adv-x="555" 
d="M542 56v-32q-42 -6 -90 -16q-37 -7 -93 -20l-9 7v60q-32 -26 -50 -37q-44 -30 -86 -30q-62 0 -96.5 38t-34.5 104v207q0 33 -6 43t-26 15l-23 6v30q20 1 90 7q56 5 96 11q-3 -42 -3 -151v-145q0 -45 19.5 -66.5t48.5 -21.5q43 0 71 28v243q0 34 -5.5 44t-26.5 15l-31 6
v30q27 1 100 7q55 5 91 11v-325q0 -39 7.5 -51t34.5 -15zM365 650h32q0 -153 -122 -153h-1q-121 0 -121 153h32q16 -77 90 -77t90 77z" />
    <glyph glyph-name="Uring" unicode="&#x16e;" horiz-adv-x="729" 
d="M723 650v-35q-76 -4 -84 -59q-9 -56 -9 -139v-109q0 -173 -72 -250q-70 -73 -185 -73q-111 0 -177 51q-83 65 -83 236v236q0 69 -13.5 85.5t-70.5 21.5v35h301v-35q-56 -5 -69.5 -21.5t-13.5 -85.5v-218q0 -114 41 -175.5t121 -61.5q171 0 171 257v107q0 79 -10 139
q-5 28 -26.5 42t-70.5 17v35h250zM394 854h1q37 0 65.5 -25t28.5 -64q0 -40 -29 -65.5t-66 -25.5q-38 0 -66.5 25.5t-28.5 65.5t28 64.5t67 24.5zM395 816h-1q-20 0 -33 -14.5t-13 -36.5q0 -23 13.5 -38t33.5 -15t32 14.5t12 38.5q0 22 -12 36.5t-32 14.5z" />
    <glyph glyph-name="uring" unicode="&#x16f;" horiz-adv-x="555" 
d="M542 56v-32q-42 -6 -90 -16q-37 -7 -93 -20l-9 7v60q-32 -26 -50 -37q-44 -30 -86 -30q-62 0 -96.5 38t-34.5 104v207q0 33 -6 43t-26 15l-23 6v30q20 1 90 7q56 5 96 11q-3 -42 -3 -151v-145q0 -45 19.5 -66.5t48.5 -21.5q43 0 71 28v243q0 34 -5.5 44t-26.5 15l-31 6
v30q27 1 100 7q55 5 91 11v-325q0 -39 7.5 -51t34.5 -15zM278 669h1q37 0 66 -25.5t29 -64.5q0 -41 -29.5 -67t-66.5 -26q-39 0 -67.5 26t-28.5 67q0 40 29 65t67 25zM279 629h-1q-19 0 -32 -14.5t-13 -36.5q0 -23 13 -37.5t33 -14.5t32 14.5t12 38.5q0 22 -12 36t-32 14z
" />
    <glyph glyph-name="Uhungarumlaut" unicode="&#x170;" horiz-adv-x="729" 
d="M723 650v-35q-76 -4 -84 -59q-9 -56 -9 -139v-109q0 -173 -72 -250q-70 -73 -185 -73q-111 0 -177 51q-83 65 -83 236v236q0 69 -13.5 85.5t-70.5 21.5v35h301v-35q-56 -5 -69.5 -21.5t-13.5 -85.5v-218q0 -114 41 -175.5t121 -61.5q171 0 171 257v107q0 79 -10 139
q-5 28 -26.5 42t-70.5 17v35h250zM570 799l-106 -116l-31 11q16 48 40 126q19 4 54 -0.5t42 -11.5zM412 799l-105 -116l-32 11q16 48 40 126q19 4 54 -0.5t42 -11.5z" />
    <glyph glyph-name="uhungarumlaut" unicode="&#x171;" horiz-adv-x="555" 
d="M542 56v-32q-42 -6 -90 -16q-37 -7 -93 -20l-9 7v60q-32 -26 -50 -37q-44 -30 -86 -30q-62 0 -96.5 38t-34.5 104v207q0 33 -6 43t-26 15l-23 6v30q20 1 90 7q56 5 96 11q-3 -42 -3 -151v-145q0 -45 19.5 -66.5t48.5 -21.5q43 0 71 28v243q0 34 -5.5 44t-26.5 15l-31 6
v30q27 1 100 7q55 5 91 11v-325q0 -39 7.5 -51t34.5 -15zM309 662l-107 -179l-30 10q7 31 21.5 99.5t14.5 69.5q8 5 46 9.5t50 1.5zM461 662l-107 -179l-30 10q8 34 21.5 99t14.5 70q8 5 46 9.5t50 1.5z" />
    <glyph glyph-name="Uogonek" unicode="&#x172;" horiz-adv-x="729" 
d="M724 650v-35q-77 -4 -85 -59q-8 -50 -8 -138v-109q0 -174 -73 -251q-44 -46 -116 -62q-61 -64 -61 -118q0 -23 14.5 -33.5t35.5 -10.5q24 0 44 10l8 -30l-62 -36q-17 -10 -42 -10q-38 0 -59.5 22.5t-21.5 53.5q0 65 97 144q-127 -7 -199 49q-83 65 -83 235v236
q0 69 -13.5 85.5t-70.5 21.5v35h301v-35q-56 -5 -69.5 -21.5t-13.5 -85.5v-216q0 -114 40.5 -175.5t119.5 -61.5q173 0 173 257v106q0 83 -9 139q-8 53 -99 58v35h252z" />
    <glyph glyph-name="uogonek" unicode="&#x173;" horiz-adv-x="555" 
d="M544 56v-31q-59 -10 -80 -14q-36 -26 -58 -63.5t-22 -67.5q0 -44 49 -44q20 0 46 11l8 -29l-67 -37q-20 -12 -38 -12q-41 0 -62.5 21t-21.5 55q0 41 35 86t74 68q-45 -10 -51 -12q0 1 -3 4t-3 4v60q-33 -27 -53 -39q-45 -28 -83 -28q-63 0 -97.5 38t-34.5 104v206
q0 33 -6 43.5t-26 15.5l-25 6v30q25 1 91 7q56 5 97 11q-3 -42 -3 -151v-147q0 -45 19 -66t48 -21q39 0 73 32v239q0 34 -6.5 44.5t-26.5 15.5l-30 6v30q25 1 99 7q57 5 92 11v-327q0 -39 7 -50t35 -14z" />
    <glyph glyph-name="Wcircumflex" unicode="&#x174;" horiz-adv-x="979" 
d="M969 650v-35q-51 -8 -70.5 -26.5t-40.5 -80.5q-82 -242 -165 -519h-52q-18 50 -75 203.5t-89 240.5h-2q-17 -52 -48 -142.5t-56 -164t-46 -137.5h-52q-12 41 -69.5 231.5t-90.5 294.5q-18 58 -36.5 76t-63.5 24v35h295v-35q-54 -6 -64.5 -21t2.5 -53q56 -197 101 -344h2
q90 266 144 447h48q84 -229 168 -451h3q55 179 93 338q13 45 0 62t-71 22v35h235zM665 702l-16 -26q-33 13 -132 61q-90 -45 -131 -61l-16 26q63 50 132 123h31q51 -55 132 -123z" />
    <glyph glyph-name="wcircumflex" unicode="&#x175;" horiz-adv-x="683" 
d="M699 442v-32q-35 -6 -47.5 -17t-28.5 -51q-29 -75 -128 -353h-38q-15 37 -55.5 132.5t-61.5 146.5q-22 -54 -60.5 -152t-50.5 -127h-38q-22 68 -63.5 190.5t-56.5 167.5q-12 36 -24.5 47.5t-43.5 15.5v32h247v-32q-42 -7 -51.5 -17t-1.5 -35q11 -36 31.5 -103.5
t27.5 -91.5h2q3 7 104 274h39q24 -62 114 -276h2q44 136 56 190q7 30 -3 41t-55 18v32h184zM501 504l-28 -22q-17 14 -33.5 29.5t-36 34.5t-29.5 28q-7 -6 -28 -27.5t-37 -36t-33 -28.5l-27 22q57 85 106 173h38q43 -78 108 -173z" />
    <glyph glyph-name="Ycircumflex" unicode="&#x176;" horiz-adv-x="655" 
d="M646 650v-35q-46 -5 -68.5 -21.5t-51.5 -62.5q-64 -102 -112 -196q-18 -32 -18 -69v-129q0 -67 14.5 -82.5t82.5 -20.5v-34h-325v34q65 5 79.5 20.5t14.5 82.5v112q0 27 -13 54q-33 67 -124 228q-27 48 -47 63t-62 21v35h285v-35q-46 -6 -54 -18t7 -39q16 -31 35 -67
t43 -81t37 -70q91 179 104 212q15 30 4.5 43.5t-63.5 19.5v35h232zM496 710l-16 -26q-33 13 -132 61q-90 -45 -131 -61l-16 26q63 51 132 123h31q51 -55 132 -123z" />
    <glyph glyph-name="ycircumflex" unicode="&#x177;" horiz-adv-x="465" 
d="M483 442v-32q-36 -6 -50 -18.5t-33 -54.5q-15 -31 -116 -275q-71 -168 -105 -280q-9 -27 -37 -27q-23 0 -47 19t-24 44q0 22 28 39q56 30 81 72q15 28 19 41q7 21 -3 47q-83 231 -126 331q-14 32 -28.5 44t-48.5 18v32h247v-32q-33 -7 -40 -15t1 -32l75 -222
q34 85 75 214q8 25 -2 36.5t-46 18.5v32h180zM381 504l-28 -22q-17 14 -33.5 29.5t-36 34.5t-29.5 28q-7 -6 -28 -27.5t-37 -36t-33 -28.5l-27 22q57 85 106 173h38q43 -78 108 -173z" />
    <glyph glyph-name="Ydieresis" unicode="&#x178;" horiz-adv-x="655" 
d="M646 650v-35q-46 -5 -68.5 -21.5t-51.5 -62.5q-64 -102 -112 -196q-18 -32 -18 -69v-129q0 -67 14.5 -82.5t82.5 -20.5v-34h-325v34q65 5 79.5 20.5t14.5 82.5v112q0 27 -13 54q-33 67 -124 228q-27 48 -47 63t-62 21v35h285v-35q-46 -6 -54 -18t7 -39q16 -31 35 -67
t43 -81t37 -70q91 179 104 212q15 30 4.5 43.5t-63.5 19.5v35h232zM448 828h1q28 0 47.5 -19.5t19.5 -47.5q0 -27 -20 -46.5t-48 -19.5q-27 0 -47 19.5t-20 46.5q0 28 20 47.5t47 19.5zM238 828h1q28 0 47.5 -19.5t19.5 -47.5q0 -27 -20 -46.5t-48 -19.5q-27 0 -47 19.5
t-20 46.5q0 28 20 47.5t47 19.5z" />
    <glyph glyph-name="Zacute" unicode="&#x179;" horiz-adv-x="619" 
d="M574 193l33 -8q-22 -138 -36 -185h-531l-11 18q124 186 381 587h-126q-71 0 -97.5 -8t-39.5 -27q-26 -39 -39 -95l-33 1q2 41 6 108.5t5 90.5h26q11 -17 21.5 -21t36.5 -4h406l8 -15q-357 -556 -374 -584q50 -6 124 -6q140 0 177 33q34 32 63 115zM503 755l-4 -12
l-206 -60l-14 28q145 103 173 122q14 -5 31.5 -32t19.5 -46z" />
    <glyph glyph-name="zacute" unicode="&#x17a;" horiz-adv-x="445" 
d="M410 152l29 -14q-46 -134 -47 -138h-355l-13 16q83 132 225 383h-52q-50 0 -74 -14.5t-46 -56.5l-17 -33l-30 13q23 82 40 155h22q11 -22 61 -21h245l9 -14q-33 -56 -220 -384h64q54 0 84 16t58 64zM362 663l-134 -180l-31 13q7 22 26.5 89t23.5 77q7 6 51.5 10.5
t57.5 1.5z" />
    <glyph glyph-name="Zdotaccent" unicode="&#x17b;" horiz-adv-x="619" 
d="M574 193l33 -8q-22 -138 -36 -185h-531l-11 18q124 186 381 587h-126q-71 0 -97.5 -8t-39.5 -27q-26 -39 -39 -95l-33 1q2 41 6 108.5t5 90.5h26q11 -17 21.5 -21t36.5 -4h406l8 -15q-357 -556 -374 -584q50 -6 124 -6q140 0 177 33q34 32 63 115zM331 843h1
q30 0 50.5 -20.5t20.5 -49.5t-21 -49.5t-51 -20.5q-28 0 -49 21t-21 49q0 29 21 49.5t49 20.5z" />
    <glyph glyph-name="zdotaccent" unicode="&#x17c;" horiz-adv-x="445" 
d="M410 152l29 -14q-46 -134 -47 -138h-355l-13 16q83 132 225 383h-52q-50 0 -74 -14.5t-46 -56.5l-17 -33l-30 13q23 82 40 155h22q11 -22 61 -21h245l9 -14q-33 -56 -220 -384h64q54 0 84 16t58 64zM234 643h1q30 0 50.5 -20.5t20.5 -49.5t-21 -49.5t-51 -20.5
q-28 0 -49 21t-21 49q0 29 21 49.5t49 20.5z" />
    <glyph glyph-name="Zcaron" unicode="&#x17d;" horiz-adv-x="619" 
d="M574 193l33 -8q-22 -138 -36 -185h-531l-11 18q124 186 381 587h-126q-71 0 -97.5 -8t-39.5 -27q-26 -39 -39 -95l-33 1q2 41 6 108.5t5 90.5h26q11 -17 21.5 -21t36.5 -4h406l8 -15q-357 -556 -374 -584q50 -6 124 -6q140 0 177 33q34 32 63 115zM460 830l15 -26
q-49 -38 -132 -123h-30q-65 70 -133 123l17 26q66 -27 131 -59q67 33 132 59z" />
    <glyph glyph-name="zcaron" unicode="&#x17e;" horiz-adv-x="445" 
d="M410 152l29 -14q-46 -134 -47 -138h-355l-13 16q83 132 225 383h-52q-50 0 -74 -14.5t-46 -56.5l-17 -33l-30 13q23 82 40 155h22q11 -22 61 -21h245l9 -14q-33 -56 -220 -384h64q54 0 84 16t58 64zM332 677l27 -22q-48 -70 -106 -173h-38q-49 88 -107 173l27 22
q33 -26 99 -92q10 10 29 28.5t35.5 34t33.5 29.5z" />
    <glyph glyph-name="longs" unicode="&#x17f;" horiz-adv-x="296" 
d="M52 442h40v17q0 30 13 69q21 70 87 122q51 44 114 53q62 -3 89 -30q20 -19 9 -46q-6 -18 -31 -36q-19 -15 -33 0q-52 54 -87 54q-28 0 -34 -39q-2 -26 -2 -42.5t1.5 -66t1.5 -85.5v-302q0 -48 9.5 -60t51.5 -18v-32h-248v32q41 5 50 16.5t9 57.5v288h-64l-5 12z" />
    <glyph glyph-name="florin" unicode="&#x192;" horiz-adv-x="500" 
d="M163 376l7 37q22 112 104 179q75 60 139 60q24 0 47.5 -14.5t22.5 -36.5q-1 -18 -16 -37t-28 -20q-7 0 -35.5 27t-45.5 27t-26 -26q-12 -29 -33 -196h106v-46h-113l-22 -142q-11 -71 -28 -122.5t-41 -84.5t-43 -50t-49 -37q-51 -32 -95 -32q-23 0 -42 13.5t-19 32.5
q0 20 18 39t32 19q5 0 31 -22t41 -22q18 0 24 22q8 29 23 140l33 246h-87v46h95z" />
    <glyph glyph-name="AEacute" unicode="&#x1fc;" horiz-adv-x="882" 
d="M839 175l33 -9q-13 -81 -37 -166h-501v35q61 5 75.5 23t14.5 87v146h-168q-38 -78 -81 -175q-19 -43 -9 -58t65 -23v-35h-245v35q48 6 72 24t52 69q94 171 226 435q12 23 9 32.5t-26 12.5l-59 8l-1 34h553q3 -59 11 -147l-36 -5q-17 63 -38 84q-23 24 -102 24h-52
q-28 0 -34 -5t-6 -30v-232h65q67 0 86 12t27 62h37v-202h-37q-8 54 -26.5 66.5t-86.5 13.5h-65v-152q0 -44 5 -62t20 -25q19 -8 90 -8q80 0 109 32q37 39 60 99zM424 340v258q-10 0 -22 -3q-11 -22 -53.5 -108.5t-70.5 -146.5h146zM710 755l-4 -12l-206 -60l-14 28
q145 103 173 122q14 -5 31.5 -32t19.5 -46z" />
    <glyph glyph-name="aeacute" unicode="&#x1fd;" horiz-adv-x="671" 
d="M271 280v25q0 45 -20 72.5t-45 27.5q-20 0 -34 -17t-26 -67q-10 -34 -43 -34q-19 0 -40.5 15t-21.5 33q0 25 36 49q79 53 164 70q45 0 81 -24q27 -20 35 -39q28 29 64.5 46t68.5 17q70 0 118 -49.5t48 -112.5q0 -18 -6 -26t-22 -12q-28 -7 -245 -16q-1 -78 38.5 -119.5
t99.5 -41.5q53 0 109 42l19 -25q-40 -58 -89.5 -82t-86.5 -24q-110 0 -163 85l-30 -26q-71 -59 -116 -59q-59 0 -96 39t-37 86q0 38 18 61.5t58 38.5q10 4 42.5 15.5t50.5 18t39.5 16.5t31.5 17zM468 412h-1q-29 0 -51.5 -34.5t-27.5 -93.5q62 0 122 3q12 0 17.5 5t5.5 19
q0 39 -18 70t-47 31zM225 67h1q40 0 67 35q-23 54 -23 139q-40 -20 -61 -32q-46 -27 -46 -69q0 -35 19 -54t43 -19zM477 663l-134 -180l-31 13q7 22 26.5 89t23.5 77q7 6 51.5 10.5t57.5 1.5z" />
    <glyph glyph-name="Oslashacute" unicode="&#x1fe;" horiz-adv-x="771" 
d="M652 674l-49 -77q57 -47 91.5 -114.5t34.5 -147.5q0 -157 -99.5 -253.5t-250.5 -96.5q-98 0 -172 44l-57 -81l-31 26l53 77q-60 46 -95 117.5t-35 154.5q0 61 22.5 120.5t64 109.5t111 81t154.5 31q100 0 174 -44l52 76zM237 141l279 405q-51 77 -138 77
q-79 0 -133.5 -77.5t-54.5 -208.5q0 -113 47 -196zM539 509l-278 -407q23 -36 59.5 -55.5t76.5 -19.5q80 0 131.5 73.5t51.5 210.5q0 118 -41 198zM539 762l-4 -12l-206 -60l-14 28q145 103 173 122q14 -5 31.5 -32t19.5 -46z" />
    <glyph glyph-name="oslashacute" unicode="&#x1ff;" horiz-adv-x="531" 
d="M443 457l-33 -49q91 -64 91 -177q0 -115 -69.5 -179t-166.5 -64q-59 0 -118 27l-35 -51l-29 23l34 50q-42 31 -64.5 77.5t-22.5 96.5q0 111 74 177t167 66q60 0 109 -26l35 50zM180 127l153 234q-29 52 -76 52q-34 0 -64 -43.5t-30 -133.5q0 -61 17 -109zM352 323
l-154 -236q29 -59 77 -59q94 0 94 182q0 66 -17 113zM392 663l-134 -180l-31 13q7 22 26.5 89t23.5 77q7 6 51.5 10.5t57.5 1.5z" />
    <glyph glyph-name="uni0218" unicode="&#x218;" horiz-adv-x="505" 
d="M442 495l-35 -8q-43 137 -139 137q-42 0 -69.5 -28t-27.5 -71q0 -40 28 -68.5t96 -62.5q87 -42 132 -89.5t45 -116.5q0 -87 -67.5 -145t-175.5 -58q-54 0 -101 14q-32 9 -60 22q-15 36 -30 169l35 12q9 -27 23 -55t35.5 -57t52 -47t64.5 -18q46 0 73 29t27 77
q0 41 -29.5 72.5t-89.5 63.5q-86 44 -130 89.5t-44 112.5q0 85 62.5 140.5t166.5 55.5q61 0 139 -26q2 -21 9 -71t10 -73zM247 -54h1q34 0 60 -27t26 -66q0 -88 -122 -119l-11 26q64 31 64 69q0 36 -50 49q-15 2 -15 26q0 20 14.5 31t32.5 11z" />
    <glyph glyph-name="uni0219" unicode="&#x219;" horiz-adv-x="383" 
d="M338 322l-30 -9q-45 102 -106 102q-20 0 -35.5 -15.5t-15.5 -38.5q0 -44 74 -77q69 -30 102 -62t33 -86q0 -69 -54.5 -108.5t-124.5 -39.5q-37 0 -72.5 10.5t-53.5 23.5q-5 14 -10 57t-5 78l29 2q19 -54 53.5 -93t76.5 -39q24 0 39 15.5t15 38.5q0 24 -16 43.5t-59 40.5
q-25 12 -41 21t-39.5 27.5t-35.5 43.5t-12 55q0 60 45.5 100.5t122.5 41.5q55 0 96 -18q16 -38 24 -114zM187 -46h1q34 0 60 -27t26 -66q0 -88 -122 -119l-11 26q64 31 64 69q0 36 -50 49q-15 2 -15 26q0 20 14.5 31t32.5 11z" />
    <glyph glyph-name="uni021A" unicode="&#x21a;" horiz-adv-x="641" 
d="M616 481l-36 -2q-18 78 -44 104q-24 23 -102 23h-45v-473q0 -63 15.5 -78t82.5 -20v-35h-326v35q64 5 79 20t15 78v473h-34q-58 0 -80.5 -6.5t-34.5 -20.5q-21 -21 -42 -101h-37q2 31 6.5 100t5.5 97h25q11 -16 22.5 -20.5t34.5 -4.5h402q35 0 57 25h25q2 -77 11 -194z
M311 -36h1q34 0 60 -27t26 -66q0 -88 -122 -119l-11 26q64 31 64 69q0 36 -50 49q-15 2 -15 26q0 20 14.5 31t32.5 11z" />
    <glyph glyph-name="uni021B" unicode="&#x21b;" horiz-adv-x="339" 
d="M329 37l-82 -38q-27 -11 -40 -11q-123 0 -123 126v280h-63l-5 12l28 36h40v73l114 78l14 -7v-144h98q9 -8 7.5 -25t-13.5 -23h-92v-247q0 -87 56 -87q24 0 51 12zM177 -48h1q34 0 60 -27t26 -66q0 -88 -122 -119l-11 26q64 31 64 69q0 36 -50 49q-15 2 -15 26
q0 20 14.5 31t32.5 11z" />
    <glyph glyph-name="circumflex" unicode="&#x2c6;" 
d="M326 504l-28 -22q-17 14 -33.5 29.5t-36 34.5t-29.5 28q-7 -6 -28 -27.5t-37 -36t-33 -28.5l-27 22q57 85 106 173h38q43 -78 108 -173z" />
    <glyph glyph-name="caron" unicode="&#x2c7;" 
d="M299 677l27 -22q-48 -70 -106 -173h-38q-49 88 -107 173l27 22q33 -26 99 -92q10 10 29 28.5t35.5 34t33.5 29.5z" />
    <glyph glyph-name="uni02C9" unicode="&#x2c9;" 
d="M325 527h-250v68h250v-68z" />
    <glyph glyph-name="breve" unicode="&#x2d8;" 
d="M290 650h32q0 -153 -122 -153h-1q-121 0 -121 153h32q16 -77 90 -77t90 77z" />
    <glyph glyph-name="dotaccent" unicode="&#x2d9;" 
d="M199 643h1q30 0 50.5 -20.5t20.5 -49.5t-21 -49.5t-51 -20.5q-28 0 -49 21t-21 49q0 29 21 49.5t49 20.5z" />
    <glyph glyph-name="ring" unicode="&#x2da;" 
d="M200 669h1q37 0 66 -25.5t29 -64.5q0 -41 -29.5 -67t-66.5 -26q-39 0 -67.5 26t-28.5 67q0 40 29 65t67 25zM201 629h-1q-19 0 -32 -14.5t-13 -36.5q0 -23 13 -37.5t33 -14.5t32 14.5t12 38.5q0 22 -12 36t-32 14z" />
    <glyph glyph-name="ogonek" unicode="&#x2db;" 
d="M286 -186l-50 -30q-18 -11 -39 -11q-38 0 -60.5 23t-22.5 54q0 52 79 150h38q-40 -64 -40 -119q0 -24 13.5 -36t32.5 -12q18 0 41 10z" />
    <glyph glyph-name="tilde" unicode="&#x2dc;" 
d="M144 625h1q19 0 62 -20q39 -21 58 -21q27 0 50 47l28 -14q-31 -107 -87 -107q-25 0 -67 22q-35 19 -56 19q-30 0 -52 -50l-29 19q34 105 92 105z" />
    <glyph glyph-name="hungarumlaut" unicode="&#x2dd;" 
d="M236 662l-107 -179l-30 10q7 31 21.5 99.5t14.5 69.5q8 5 46 9.5t50 1.5zM388 662l-107 -179l-30 10q8 34 21.5 99t14.5 70q8 5 46 9.5t50 1.5z" />
    <glyph glyph-name="uni0374" unicode="&#x374;" horiz-adv-x="264" 
d="M243 645l5 -19q-75 -135 -145 -256l-32 5q27 123 52 275q11 7 59 5t61 -10z" />
    <glyph glyph-name="uni0375" unicode="&#x375;" horiz-adv-x="264" 
d="M207 140l5 -19q-88 -161 -145 -256l-33 5q26 115 53 275q10 7 58.5 5t61.5 -10z" />
    <glyph glyph-name="uni037E" unicode="&#x37e;" horiz-adv-x="264" 
d="M138 249h-1q-34 0 -57.5 24t-23.5 61q0 36 23.5 60t58.5 24q36 0 60 -23.5t24 -60.5t-24 -61t-60 -24zM53 -135l-33 7q37 162 55 273q10 7 58.5 5t61.5 -10l5 -19q-67 -123 -147 -256z" />
    <glyph glyph-name="tonos" unicode="&#x384;" 
d="M290 675l-74 -181l-33 -1q3 175 3 179q6 7 45 12.5t52 2.5z" />
    <glyph glyph-name="dieresistonos" unicode="&#x385;" 
d="M323 506h-1q-25 0 -41 16t-16 41q0 23 16.5 41.5t41.5 18.5q23 0 39 -18t16 -41q0 -25 -15.5 -41.5t-39.5 -16.5zM276 659l-91 -180l-32 8q18 115 24 173q6 4 45 9t48 3zM80 506h-1q-25 0 -40.5 16t-15.5 41q0 24 16 42t41 18q23 0 39 -18.5t16 -41.5q0 -25 -15.5 -41
t-39.5 -16z" />
    <glyph glyph-name="Alphatonos" unicode="&#x386;" horiz-adv-x="706" 
d="M687 0h-286v35q43 7 52 19.5t-4 45.5q-19 57 -40 113h-192q-25 -71 -36 -107q-13 -36 -2.5 -50.5t63.5 -20.5v-35h-224v35q50 6 68.5 23t43.5 80l205 514l51 13q177 -483 191 -521q26 -67 44 -85t66 -24v-35zM390 266l-74 217h-3q-16 -43 -45 -123t-34 -94h156zM225 705
l-74 -181l-33 -1q3 175 3 179q6 7 45 12.5t52 2.5z" />
    <glyph glyph-name="anoteleia" unicode="&#x387;" horiz-adv-x="264" 
d="M131 186h-1q-34 0 -57.5 24t-23.5 61q0 36 23.5 60t58.5 24q36 0 60 -23.5t24 -60.5t-24 -61t-60 -24z" />
    <glyph glyph-name="Epsilontonos" unicode="&#x388;" horiz-adv-x="581" 
d="M535 173l36 -7q-14 -90 -35 -166h-510v35q65 5 80 20t15 78v384q0 64 -13 78.5t-68 19.5v35h471q0 -8 2 -31.5t4 -58t4 -60.5l-37 -5q-16 62 -40 86q-24 25 -100 25h-48q-28 0 -34.5 -5.5t-6.5 -29.5v-212h67q65 0 83 12t28 63h36v-201h-36q-10 53 -28 64.5t-83 11.5h-67
v-174q0 -38 5 -57t19 -25q23 -10 90 -10q82 0 110 32q29 32 56 98zM10 705l-74 -181l-33 -1q3 175 3 179q6 7 45 12.5t52 2.5z" />
    <glyph glyph-name="Etatonos" unicode="&#x389;" horiz-adv-x="783" 
d="M746 650v-35q-59 -5 -71.5 -19.5t-12.5 -78.5v-385q0 -62 13 -77t71 -20v-35h-305v35q60 5 73.5 20t13.5 78v186h-273v-186q0 -63 13 -78t69 -20v-35h-298v35q56 5 69 20t13 78v384q0 63 -13.5 78t-72.5 20v35h300v-35q-55 -5 -67.5 -20t-12.5 -78v-147h273v147
q0 63 -13 78t-70 20v35h301zM6 705l-74 -181l-33 -1q3 175 3 179q6 7 45 12.5t52 2.5z" />
    <glyph glyph-name="Iotatonos" unicode="&#x38a;" horiz-adv-x="378" 
d="M338 0h-301v35q57 5 70.5 20.5t13.5 77.5v384q0 63 -13.5 78t-70.5 20v35h301v-35q-57 -5 -70 -20t-13 -78v-384q0 -62 13 -77.5t70 -20.5v-35zM8 705l-74 -181l-33 -1q3 175 3 179q6 7 45 12.5t52 2.5z" />
    <glyph glyph-name="Omicrontonos" unicode="&#x38c;" horiz-adv-x="766" 
d="M393 664h1q139 0 235 -93.5t96 -239.5q0 -157 -99 -251.5t-245 -94.5q-149 0 -244 96.5t-95 241.5q0 138 94.5 239.5t256.5 101.5zM375 622h-1q-77 0 -127.5 -76.5t-50.5 -202.5q0 -134 55 -225t148 -91q75 0 123.5 72t48.5 205q0 147 -54 232.5t-142 85.5zM85 695
l-74 -181l-33 -1q3 175 3 179q6 7 45 12.5t52 2.5z" />
    <glyph glyph-name="Upsilontonos" unicode="&#x38e;" horiz-adv-x="666" 
d="M664 603l-3 -8h-13q-37 0 -82 -29t-84 -92q-81 -126 -81 -278v-67q0 -62 13.5 -75t76.5 -18v-36h-317v36q63 5 77.5 18.5t14.5 74.5v68q0 147 -36 236q-66 160 -196 160q-17 0 -28 -3l-5 31q28 16 70.5 30t77.5 14q92 0 142 -67q27 -35 42.5 -95t18.5 -91.5t8 -103.5h8
q8 75 36.5 152t73.5 131q63 74 129 74q19 0 34.5 -19t22.5 -43zM-13 705l-74 -181l-33 -1q3 175 3 179q6 7 45 12.5t52 2.5z" />
    <glyph glyph-name="Omegatonos" unicode="&#x38f;" horiz-adv-x="770" 
d="M733 164l-22 -164h-255l-9 14q19 35 25.5 48t27.5 59t31 77.5t19.5 79t9.5 89.5q0 122 -44.5 189t-127.5 67q-84 0 -128 -69t-44 -197q0 -64 22 -138t40.5 -112t48.5 -92l-7 -15h-260l-16 164h31q15 -38 30 -47.5t51 -9.5h74q-162 115 -162 256q0 134 90.5 218t230.5 84
t229 -83t89 -215q0 -45 -15 -85t-47.5 -76.5t-50 -52t-55.5 -46.5h87q33 0 46.5 9.5t28.5 47.5h32zM90 695l-74 -181l-33 -1q3 175 3 179q6 7 45 12.5t52 2.5z" />
    <glyph glyph-name="iotadieresistonos" unicode="&#x390;" horiz-adv-x="279" 
d="M270 71l10 -28q-65 -55 -122 -55q-90 0 -90 115v328l128 24v-328q0 -63 37 -63q20 0 37 7zM260 512h-1q-25 0 -41 16t-16 41q0 23 16.5 41.5t41.5 18.5q23 0 39 -18t16 -41q0 -25 -15.5 -41.5t-39.5 -16.5zM213 665l-91 -180l-32 8q18 115 24 173q6 4 45 9t48 3zM17 512
h-1q-25 0 -40.5 16t-15.5 41q0 24 16 42t41 18q23 0 39 -18.5t16 -41.5q0 -25 -15.5 -41t-39.5 -16z" />
    <glyph glyph-name="Alpha" unicode="&#x391;" horiz-adv-x="706" 
d="M687 0h-286v35q43 7 52 19.5t-4 45.5q-19 57 -40 113h-192q-25 -71 -36 -107q-13 -36 -2.5 -50.5t63.5 -20.5v-35h-224v35q50 6 68.5 23t43.5 80l205 514l51 13q177 -483 191 -521q26 -67 44 -85t66 -24v-35zM390 266l-74 217h-3q-16 -43 -45 -123t-34 -94h156z" />
    <glyph glyph-name="Beta" unicode="&#x392;" horiz-adv-x="637" 
d="M401 353v-4q192 -23 192 -156q0 -99 -93 -150q-76 -43 -211 -43h-254v35q58 5 72 20.5t14 78.5v383q0 63 -13 78t-67 20v35h292q111 0 165 -34q59 -38 59 -114q0 -65 -45.5 -100.5t-110.5 -48.5zM253 363h23q72 0 105.5 29.5t33.5 91.5q0 64 -31.5 94.5t-76.5 30.5
q-33 0 -45 -12q-9 -9 -9 -44v-190zM253 323v-187q0 -55 16.5 -75t56.5 -19q48 1 83.5 36.5t35.5 103.5q0 141 -172 141h-20z" />
    <glyph glyph-name="Gamma" unicode="&#x393;" horiz-adv-x="541" 
d="M519 494l-36 -6q-19 60 -36 85q-25 33 -100 33h-52q-26 0 -32.5 -6t-6.5 -29v-429q0 -71 14 -86.5t78 -20.5v-35h-309v35q57 5 70 21t13 86v369q0 67 -13 83t-70 21v35h469q5 -86 11 -156z" />
    <glyph glyph-name="uni0394" unicode="&#x394;" horiz-adv-x="662" 
d="M622 0h-583v29l271 626l40 10l272 -636v-29zM462 58l-172 429l-171 -429h343z" />
    <glyph glyph-name="Epsilon" unicode="&#x395;" horiz-adv-x="581" 
d="M535 173l36 -7q-14 -90 -35 -166h-510v35q65 5 80 20t15 78v384q0 64 -13 78.5t-68 19.5v35h471q0 -8 2 -31.5t4 -58t4 -60.5l-37 -5q-16 62 -40 86q-24 25 -100 25h-48q-28 0 -34.5 -5.5t-6.5 -29.5v-212h67q65 0 83 12t28 63h36v-201h-36q-10 53 -28 64.5t-83 11.5h-67
v-174q0 -38 5 -57t19 -25q23 -10 90 -10q82 0 110 32q29 32 56 98z" />
    <glyph glyph-name="Zeta" unicode="&#x396;" horiz-adv-x="619" 
d="M574 193l33 -8q-22 -138 -36 -185h-531l-11 18q124 186 381 587h-126q-71 0 -97.5 -8t-39.5 -27q-26 -39 -39 -95l-33 1q2 41 6 108.5t5 90.5h26q11 -17 21.5 -21t36.5 -4h406l8 -15q-357 -556 -374 -584q50 -6 124 -6q140 0 177 33q34 32 63 115z" />
    <glyph glyph-name="Eta" unicode="&#x397;" horiz-adv-x="783" 
d="M746 650v-35q-59 -5 -71.5 -19.5t-12.5 -78.5v-385q0 -62 13 -77t71 -20v-35h-305v35q60 5 73.5 20t13.5 78v186h-273v-186q0 -63 13 -78t69 -20v-35h-298v35q56 5 69 20t13 78v384q0 63 -13.5 78t-72.5 20v35h300v-35q-55 -5 -67.5 -20t-12.5 -78v-147h273v147
q0 63 -13 78t-70 20v35h301z" />
    <glyph glyph-name="Theta" unicode="&#x398;" horiz-adv-x="760" 
d="M387 665h1q139 0 234.5 -94t95.5 -238q0 -155 -98 -251.5t-243 -96.5q-147 0 -241 96t-94 240q0 85 37.5 162t118.5 129.5t189 52.5zM372 622h-1q-78 0 -126.5 -76t-48.5 -203q0 -135 53.5 -224.5t147.5 -89.5q76 0 122 69.5t46 204.5q0 149 -52 234t-141 85zM494 222
h-34q-6 42 -15 52.5t-38 10.5h-55q-29 0 -38 -10.5t-15 -52.5h-34v229h34q5 -41 14 -51t40 -11h55q29 0 37.5 10t13.5 52h35v-229z" />
    <glyph glyph-name="Iota" unicode="&#x399;" horiz-adv-x="378" 
d="M338 0h-301v35q57 5 70.5 20.5t13.5 77.5v384q0 63 -13.5 78t-70.5 20v35h301v-35q-57 -5 -70 -20t-13 -78v-384q0 -62 13 -77.5t70 -20.5v-35z" />
    <glyph glyph-name="Kappa" unicode="&#x39a;" horiz-adv-x="703" 
d="M699 0h-201q-86 118 -197 279q-26 38 -49 35v-180q0 -64 13.5 -79t72.5 -20v-35h-299v35q55 5 68.5 20.5t13.5 78.5v382q0 63 -13.5 78.5t-70.5 20.5v35h294v-35q-54 -5 -66.5 -20t-12.5 -79v-170q34 10 76 53q77 79 140 162q19 23 14 35.5t-39 16.5l-18 2v35h260v-35
q-50 -5 -84.5 -19t-73.5 -51q-35 -32 -146 -148q96 -143 210 -288q30 -38 53.5 -53.5t54.5 -20.5v-35z" />
    <glyph glyph-name="Lambda" unicode="&#x39b;" horiz-adv-x="699" 
d="M682 0h-287v35q46 7 55 21.5t-5 48.5q-16 46 -63.5 178.5t-70.5 197.5h-4q-92 -255 -128 -370q-14 -40 -4 -54t64 -22v-35h-222v35q46 5 66 24.5t46 85.5q16 41 89 223.5t111 282.5l52 14q134 -372 190 -516q25 -67 46.5 -87.5t64.5 -26.5v-35z" />
    <glyph glyph-name="Mu" unicode="&#x39c;" horiz-adv-x="888" 
d="M860 0h-295v35q56 6 68 22t11 85l-2 385h-4l-222 -520h-27l-205 510h-4l-12 -261q-7 -109 0 -162q3 -32 20.5 -43t69.5 -16v-35h-241v35q41 4 59 17t23 41q11 56 21 189l16 198q6 85 -7.5 107t-77.5 28v35h207l193 -438l196 438h201v-35q-59 -6 -71.5 -21t-10.5 -78
l9 -374q2 -69 14.5 -85t70.5 -22v-35z" />
    <glyph glyph-name="Nu" unicode="&#x39d;" horiz-adv-x="740" 
d="M724 650v-34q-41 -2 -58.5 -15.5t-21.5 -46.5q-9 -93 -9 -167v-397h-48l-416 499h-3v-225q0 -82 8 -162q4 -35 23 -49.5t73 -17.5v-35h-245v35q42 3 61 17.5t22 45.5q10 85 10 166v209q0 52 -3 71t-17 36q-14 18 -32.5 25.5t-51.5 10.5v34h185l383 -439h3v176
q0 88 -8 165q-4 33 -24.5 47t-74.5 17v34h244z" />
    <glyph glyph-name="Xi" unicode="&#x39e;" horiz-adv-x="644" 
d="M569 469h-33q-8 30 -11 40t-12 22.5t-22 15t-36 2.5h-264q-42 0 -55 -15t-26 -65h-33l7 181h478zM498 225h-34q-8 42 -19 52.5t-52 10.5h-141q-42 0 -53 -10.5t-19 -54.5h-33v228h33q8 -42 19 -52t53 -10h141q41 0 52 10.5t19 51.5h34v-226zM595 199l-13 -199h-518
l-13 199h34q11 -29 14.5 -36.5t13 -23.5t19 -20t26 -8t40.5 -4h250q30 0 47.5 4t30.5 19t18 25.5t17 43.5h34z" />
    <glyph glyph-name="Omicron" unicode="&#x39f;" horiz-adv-x="766" 
d="M393 664h1q139 0 235 -93.5t96 -239.5q0 -157 -99 -251.5t-245 -94.5q-149 0 -244 96.5t-95 241.5q0 138 94.5 239.5t256.5 101.5zM375 622h-1q-77 0 -127.5 -76.5t-50.5 -202.5q0 -134 55 -225t148 -91q75 0 123.5 72t48.5 205q0 147 -54 232.5t-142 85.5z" />
    <glyph glyph-name="Pi" unicode="&#x3a0;" horiz-adv-x="761" 
d="M727 650v-35q-61 -5 -74 -20t-13 -79v-383q0 -63 13.5 -78t73.5 -20v-35h-301v35q55 5 67.5 20.5t12.5 78.5v439q0 23 -5.5 28t-29.5 5h-182q-23 0 -28.5 -6t-5.5 -30v-436q0 -63 12 -78.5t63 -20.5v-35h-295v35q58 5 72 20.5t14 78.5v382q0 63 -14 78.5t-75 20.5v35h695
z" />
    <glyph glyph-name="Rho" unicode="&#x3a1;" horiz-adv-x="599" 
d="M42 650h276q119 0 175 -39q74 -50 74 -147q0 -94 -58.5 -145.5t-146.5 -62.5q-15 -2 -41 -2l-68 17v-138q0 -63 15 -78.5t79 -20.5v-34h-310v34q57 5 70.5 20.5t13.5 78.5v383q0 63 -13 78.5t-66 20.5v35zM253 570v-260q24 -10 54 -10q16 0 33.5 6.5t37.5 22.5t32.5 50.5
t12.5 81.5q0 78 -36 114t-88 36q-25 0 -37 -10q-9 -8 -9 -31z" />
    <glyph glyph-name="Sigma" unicode="&#x3a3;" horiz-adv-x="612" 
d="M589 197l-39 -197h-520v25l250 278l-238 322v25h489q3 -43 11 -165l-35 -5q-11 42 -35 84q-13 24 -34.5 33.5t-67.5 9.5h-147l176 -240l-226 -259h252q55 0 79 18.5t50 77.5z" />
    <glyph glyph-name="Tau" unicode="&#x3a4;" horiz-adv-x="641" 
d="M616 481l-36 -2q-18 78 -44 104q-24 23 -102 23h-45v-473q0 -63 15.5 -78t82.5 -20v-35h-326v35q64 5 79 20t15 78v473h-34q-58 0 -80.5 -6.5t-34.5 -20.5q-21 -21 -42 -101h-37q2 31 6.5 100t5.5 97h25q11 -16 22.5 -20.5t34.5 -4.5h402q35 0 57 25h25q2 -77 11 -194z
" />
    <glyph glyph-name="Upsilon" unicode="&#x3a5;" horiz-adv-x="666" 
d="M664 603l-3 -8h-13q-37 0 -82 -29t-84 -92q-81 -126 -81 -278v-67q0 -62 13.5 -75t76.5 -18v-36h-317v36q63 5 77.5 18.5t14.5 74.5v68q0 147 -36 236q-66 160 -196 160q-17 0 -28 -3l-5 31q28 16 70.5 30t77.5 14q92 0 142 -67q27 -35 42.5 -95t18.5 -91.5t8 -103.5h8
q8 75 36.5 152t73.5 131q63 74 129 74q19 0 34.5 -19t22.5 -43z" />
    <glyph glyph-name="Phi" unicode="&#x3a6;" horiz-adv-x="787" 
d="M521 658v-34q-42 -4 -52.5 -12t-10.5 -38q45 -2 91 -15t92.5 -39.5t76 -74.5t29.5 -111t-29.5 -112.5t-75.5 -76.5t-93 -41t-91 -15q0 -32 10.5 -41.5t52.5 -13.5v-34h-255v34q42 4 52.5 13.5t10.5 41.5q-45 1 -91.5 14t-92.5 39t-75.5 74t-29.5 111q0 51 20 93t51 69
t70.5 46t76 28t71.5 11q0 29 -10 37.5t-48 12.5v34h250zM329 126v410q-25 -4 -49.5 -15.5t-49 -33.5t-39.5 -61.5t-15 -90.5q0 -52 14.5 -92t38 -63.5t48.5 -36t52 -17.5zM458 536v-410q27 5 50.5 16t48.5 33t39.5 62t14.5 95q0 52 -14.5 91.5t-38.5 62t-49 34.5t-51 16z
" />
    <glyph glyph-name="Chi" unicode="&#x3a7;" horiz-adv-x="693" 
d="M700 0h-321v35q46 8 53 21.5t-9 36.5q-6 10 -107 180q-80 -121 -109 -176q-17 -33 -8 -43.5t60 -18.5v-35h-251v35q78 9 119 55q92 116 163 222q-121 198 -142 232q-21 36 -47 51t-76 20v35h301v-35q-38 -8 -45.5 -19t4.5 -28q31 -58 90 -151q49 63 90 140q16 27 7.5 38
t-55.5 20v35h241v-35q-49 -6 -75.5 -19.5t-56.5 -49.5q-35 -41 -125 -165q20 -32 76.5 -122t89.5 -141q31 -48 55.5 -63t77.5 -20v-35z" />
    <glyph glyph-name="Psi" unicode="&#x3a8;" horiz-adv-x="788" 
d="M765 659l8 -34q-30 -12 -41.5 -33.5t-19.5 -69.5l-11 -67q-11 -58 -29.5 -89t-51.5 -55q-58 -42 -161 -48v-132q0 -60 14 -75.5t69 -21.5v-34h-299v34q54 6 68 21.5t14 75.5v132q-109 6 -166 48q-35 25 -54 57.5t-27 90.5l-8 64q-1 4 -2.5 16.5t-2 15.5t-2.5 12.5t-3 12
t-3.5 10t-5 9.5t-6.5 7t-8 7.5t-10 5.5t-13 6l10 34q110 -8 147 -51q22 -24 36 -102l10 -61q13 -78 33.5 -105.5t74.5 -34.5v213q0 60 -13 76t-63 22v34h286v-34q-50 -6 -63 -22t-13 -76v-213q53 6 73.5 34.5t35.5 110.5l10 53q14 75 44 107q41 41 143 49z" />
    <glyph glyph-name="uni03A9" unicode="&#x3a9;" horiz-adv-x="770" 
d="M733 164l-22 -164h-255l-9 14q19 35 25.5 48t27.5 59t31 77.5t19.5 79t9.5 89.5q0 122 -44.5 189t-127.5 67q-84 0 -128 -69t-44 -197q0 -64 22 -138t40.5 -112t48.5 -92l-7 -15h-260l-16 164h31q15 -38 30 -47.5t51 -9.5h74q-162 115 -162 256q0 134 90.5 218t230.5 84
t229 -83t89 -215q0 -45 -15 -85t-47.5 -76.5t-50 -52t-55.5 -46.5h87q33 0 46.5 9.5t28.5 47.5h32z" />
    <glyph glyph-name="Iotadieresis" unicode="&#x3aa;" horiz-adv-x="378" 
d="M338 0h-301v35q57 5 70.5 20.5t13.5 77.5v384q0 63 -13.5 78t-70.5 20v35h301v-35q-57 -5 -70 -20t-13 -78v-384q0 -62 13 -77.5t70 -20.5v-35zM293 828h1q28 0 47.5 -19.5t19.5 -47.5q0 -27 -20 -46.5t-48 -19.5q-27 0 -47 19.5t-20 46.5q0 28 20 47.5t47 19.5zM83 828
h1q28 0 47.5 -19.5t19.5 -47.5q0 -27 -20 -46.5t-48 -19.5q-27 0 -47 19.5t-20 46.5q0 28 20 47.5t47 19.5z" />
    <glyph glyph-name="Upsilondieresis" unicode="&#x3ab;" horiz-adv-x="666" 
d="M664 603l-3 -8h-13q-37 0 -82 -29t-84 -92q-81 -126 -81 -278v-67q0 -62 13.5 -75t76.5 -18v-36h-317v36q63 5 77.5 18.5t14.5 74.5v68q0 147 -36 236q-66 160 -196 160q-17 0 -28 -3l-5 31q28 16 70.5 30t77.5 14q92 0 142 -67q27 -35 42.5 -95t18.5 -91.5t8 -103.5h8
q8 75 36.5 152t73.5 131q63 74 129 74q19 0 34.5 -19t22.5 -43zM461 828h1q28 0 47.5 -19.5t19.5 -47.5q0 -27 -20 -46.5t-48 -19.5q-27 0 -47 19.5t-20 46.5q0 28 20 47.5t47 19.5zM251 828h1q28 0 47.5 -19.5t19.5 -47.5q0 -27 -20 -46.5t-48 -19.5q-27 0 -47 19.5
t-20 46.5q0 28 20 47.5t47 19.5z" />
    <glyph glyph-name="alphatonos" unicode="&#x3ac;" horiz-adv-x="537" 
d="M526 92l16 -25q-17 -37 -49 -58t-65 -21q-78 0 -98 104h-3q-60 -104 -139 -104q-59 0 -108.5 61t-49.5 145q0 73 35.5 132.5t91.5 95.5q57 36 92 36q25 0 49.5 -24.5t39.5 -63.5h3q6 28 12 40q15 13 47 26.5t57 18.5l15 -10q-10 -32 -21.5 -106t-11.5 -139
q0 -61 14 -91.5t35 -30.5q22 0 38 14zM222 398h-1q-26 0 -46.5 -44.5t-20.5 -106.5q0 -73 28 -122t59 -49q34 0 59 37.5t25 98.5v26q0 70 -32 115t-71 45zM342 683l-74 -181l-33 -1q3 175 3 179q6 7 45 12.5t52 2.5z" />
    <glyph glyph-name="epsilontonos" unicode="&#x3ad;" horiz-adv-x="427" 
d="M396 131l23 -27q-71 -116 -203 -116q-78 0 -129.5 36.5t-51.5 98.5q0 46 32.5 69.5t90.5 39.5v2q-106 18 -106 96q0 57 56 90.5t139 33.5q72 0 109.5 -23.5t37.5 -56.5q0 -18 -17 -32.5t-36 -14.5q-18 0 -26 19q-14 34 -28.5 51t-41.5 17t-43.5 -21t-16.5 -54
q0 -31 17.5 -49t51.5 -18q22 0 69 5l5 -10l-25 -64q-42 5 -56 5q-71 0 -71 -55q0 -38 27 -61.5t68 -23.5q71 0 125 63zM310 683l-74 -181l-33 -1q3 175 3 179q6 7 45 12.5t52 2.5z" />
    <glyph glyph-name="etatonos" unicode="&#x3ae;" horiz-adv-x="530" 
d="M468 -234l-8 -10q-23 0 -64.5 13.5t-63.5 30.5q7 376 7 475q0 101 -69 101q-7 0 -13 -1t-11.5 -3t-9.5 -3.5t-10 -5.5t-8 -5.5l-8 -6t-7 -5.5v-346q-43 -4 -131 -12q4 64 4 132v188q0 44 -8 55t-44 20v29q14 8 72 23.5t90 18.5q17 -20 17 -69q13 11 47 34q51 35 87 35
q125 0 125 -172l1 -120q0 -196 5 -396zM346 687l-74 -181l-33 -1q3 175 3 179q6 7 45 12.5t52 2.5z" />
    <glyph glyph-name="iotatonos" unicode="&#x3af;" horiz-adv-x="279" 
d="M270 71l10 -28q-65 -55 -122 -55q-90 0 -90 115v328l128 24v-328q0 -63 37 -63q20 0 37 7zM213 683l-74 -181l-33 -1q3 175 3 179q6 7 45 12.5t52 2.5z" />
    <glyph glyph-name="upsilondieresistonos" unicode="&#x3b0;" horiz-adv-x="479" 
d="M287 424v11q4 5 26 12t36 7q35 0 67 -47.5t32 -132.5q0 -113 -67.5 -199.5t-158.5 -86.5q-63 0 -103 37t-40 111v171q0 65 -42 65q-15 0 -28 -4l-8 31q22 17 61.5 36t74.5 19q69 0 69 -111v-201q0 -38 20 -60.5t49 -22.5q43 0 64.5 41.5t21.5 138.5q0 135 -74 185z
M358 512h-1q-25 0 -41 16t-16 41q0 23 16.5 41.5t41.5 18.5q23 0 39 -18t16 -41q0 -25 -15.5 -41.5t-39.5 -16.5zM311 665l-91 -180l-32 8q18 115 24 173q6 4 45 9t48 3zM115 512h-1q-25 0 -40.5 16t-15.5 41q0 24 16 42t41 18q23 0 39 -18.5t16 -41.5q0 -25 -15.5 -41
t-39.5 -16z" />
    <glyph glyph-name="alpha" unicode="&#x3b1;" horiz-adv-x="537" 
d="M526 92l16 -25q-17 -37 -49 -58t-65 -21q-78 0 -98 104h-3q-60 -104 -139 -104q-59 0 -108.5 61t-49.5 145q0 73 35.5 132.5t91.5 95.5q57 36 92 36q25 0 49.5 -24.5t39.5 -63.5h3q6 28 12 40q15 13 47 26.5t57 18.5l15 -10q-10 -32 -21.5 -106t-11.5 -139
q0 -61 14 -91.5t35 -30.5q22 0 38 14zM222 398h-1q-26 0 -46.5 -44.5t-20.5 -106.5q0 -73 28 -122t59 -49q34 0 59 37.5t25 98.5v26q0 70 -32 115t-71 45z" />
    <glyph glyph-name="beta" unicode="&#x3b2;" horiz-adv-x="535" 
d="M68 -197v556q0 101 18.5 164.5t61.5 108.5q67 71 149 71q72 0 114.5 -41t42.5 -109q0 -28 -9 -50.5t-30.5 -43.5t-31.5 -29t-37 -27q63 -13 103 -46q56 -46 56 -129q0 -56 -30 -105t-72 -78t-81 -45t-62 -16q-32 0 -72 37q1 -46 6.5 -140t5.5 -116l-13 -12
q-33 2 -69.5 14.5t-49.5 35.5zM231 338l19 65q43 6 66 23q28 26 28 88q0 63 -27.5 100.5t-64.5 37.5q-46 0 -59 -60t-12 -197q0 -199 6 -317q49 -33 98 -33q45 0 69 28t24 98q0 80 -39 123.5t-92 43.5h-5h-6h-5z" />
    <glyph glyph-name="gamma" unicode="&#x3b3;" horiz-adv-x="504" 
d="M312 82h3q19 32 48.5 117.5t29.5 141.5q0 25 -16 62q-5 9 3 18q11 13 30 23t33 10q20 0 30 -19t10 -48q0 -36 -15.5 -81t-30.5 -74.5t-60 -114.5q-25 -48 -57 -124q0 -5 7.5 -81t7.5 -105q-18 -15 -60 -32.5t-68 -18.5l-17 15q1 20 8.5 55.5t19.5 83.5t15 62
q1 65 -25 160t-74 170q-28 44 -50.5 57.5t-65.5 6.5l-7 27q85 61 140 61q65 0 108 -122q33 -86 53 -250z" />
    <glyph glyph-name="delta" unicode="&#x3b4;" horiz-adv-x="509" 
d="M458 577l-11 -22q-92 80 -203 80q-44 0 -44 -20q0 -13 95 -101q13 -13 20 -19q88 -78 125.5 -137t37.5 -136q0 -110 -66.5 -172t-157.5 -62q-105 0 -164.5 65.5t-59.5 154.5q0 158 181 216q-88 89 -88 142q0 49 52 93t116 44q65 0 110.5 -40t56.5 -86zM352 185v1
q0 39 -11 74t-33.5 64t-34.5 41.5t-35 33.5q-69 -36 -69 -184q0 -80 29 -133.5t70 -53.5q84 0 84 157z" />
    <glyph glyph-name="epsilon" unicode="&#x3b5;" horiz-adv-x="427" 
d="M396 131l23 -27q-71 -116 -203 -116q-78 0 -129.5 36.5t-51.5 98.5q0 46 32.5 69.5t90.5 39.5v2q-106 18 -106 96q0 57 56 90.5t139 33.5q72 0 109.5 -23.5t37.5 -56.5q0 -18 -17 -32.5t-36 -14.5q-18 0 -26 19q-14 34 -28.5 51t-41.5 17t-43.5 -21t-16.5 -54
q0 -31 17.5 -49t51.5 -18q22 0 69 5l5 -10l-25 -64q-42 5 -56 5q-71 0 -71 -55q0 -38 27 -61.5t68 -23.5q71 0 125 63z" />
    <glyph glyph-name="zeta" unicode="&#x3b6;" horiz-adv-x="383" 
d="M124 725l25 -9q-6 -45 24 -74t66 -31q80 75 125 75q20 0 21 -16q1 -18 -11 -44.5t-28 -36.5q-42 -25 -95 -26q-46 -51 -71.5 -132.5t-25.5 -166.5q0 -65 18 -99.5t61 -48.5q9 -3 41 -14q47 -15 70.5 -39.5t23.5 -74.5q0 -75 -84 -159l-29 16q20 46 20 81q0 25 -16 42.5
t-56 29.5q-7 3 -27.5 10t-31.5 10q-110 39 -110 195q0 101 48 192.5t119 161.5q-56 5 -90 28.5t-39 55.5q0 14 15.5 35.5t36.5 38.5z" />
    <glyph glyph-name="eta" unicode="&#x3b7;" horiz-adv-x="530" 
d="M468 -234l-8 -10q-23 0 -64.5 13.5t-63.5 30.5q7 376 7 475q0 101 -69 101q-7 0 -13 -1t-11.5 -3t-9.5 -3.5t-10 -5.5t-8 -5.5l-8 -6t-7 -5.5v-346q-43 -4 -131 -12q4 64 4 132v188q0 44 -8 55t-44 20v29q14 8 72 23.5t90 18.5q17 -20 17 -69q13 11 47 34q51 35 87 35
q125 0 125 -172l1 -120q0 -196 5 -396z" />
    <glyph glyph-name="theta" unicode="&#x3b8;" horiz-adv-x="509" 
d="M477 344v-1q0 -154 -58 -254.5t-170 -100.5q-71 0 -121.5 49.5t-73 128t-22.5 178.5q0 152 61 255.5t165 103.5q107 0 163 -102t56 -257zM165 388h179q-6 276 -88 276q-41 0 -65 -80.5t-26 -195.5zM345 332h-181q2 -133 27.5 -219.5t67.5 -86.5q84 0 86 306z" />
    <glyph glyph-name="iota" unicode="&#x3b9;" horiz-adv-x="279" 
d="M270 71l10 -28q-65 -55 -122 -55q-90 0 -90 115v328l128 24v-328q0 -63 37 -63q20 0 37 7z" />
    <glyph glyph-name="kappa" unicode="&#x3ba;" horiz-adv-x="508" 
d="M495 74l13 -27q-47 -59 -119 -59q-29 0 -51.5 14t-46.5 53q-9 14 -19 33.5t-27 53.5l-29 58q-3 -4 -10 -13.5t-11 -14.5v-172l-126 -12q3 45 3 148v185q0 34 -8 42.5t-46 18.5v28q16 7 76.5 24t88.5 20q12 -16 12 -90v-138q77 106 135 171q50 57 89 57q26 0 41 -16.5
t15 -39.5q0 -26 -20 -46q-9 -6 -18 -3q-18 9 -42 9q-49 0 -96 -62q18 -39 52 -98.5t57 -90.5q30 -41 55 -41q12 0 32 8z" />
    <glyph glyph-name="lambda" unicode="&#x3bb;" horiz-adv-x="512" 
d="M495 61l11 -29q-54 -44 -127 -44q-44 0 -68.5 38.5t-48.5 127.5q-20 71 -51 181q-72 -238 -104 -326l-82 -21l-10 14q109 212 175 416q-26 93 -31 107q-20 59 -39 80t-44 21q-23 0 -37 -7l-9 27q62 57 116 57t87.5 -57t83.5 -235q6 -19 22.5 -78t30 -103t29.5 -90
q29 -83 68 -83q17 0 28 4z" />
    <glyph glyph-name="uni03BC" unicode="&#x3bc;" horiz-adv-x="538" 
d="M526 69l12 -28q-39 -53 -114 -53t-90 69h-2q-59 -69 -112 -69q-52 0 -78 43h-3v-15q0 -51 12.5 -130t23.5 -117l-15 -13q-22 2 -49.5 14t-42.5 28q-1 10 -1 49.5t0.5 109.5t0.5 112v261q0 68 -3 101l128 24q3 -29 3 -114v-172q0 -51 21.5 -76t50.5 -25q34 0 63 32v331
l127 24v-329q0 -65 37 -65q17 0 31 8z" />
    <glyph glyph-name="nu" unicode="&#x3bd;" horiz-adv-x="485" 
d="M21 366l-8 30q32 23 74 40.5t69 17.5q26 0 45.5 -23.5t42.5 -88.5q17 -48 40.5 -124t27.5 -89q66 119 66 193q0 38 -22 69q-9 10 -4 23q8 17 24.5 28.5t33.5 11.5q23 0 38 -22.5t15 -54.5q0 -35 -22.5 -89t-47.5 -98t-72 -122l-47 -80h-37q-83 241 -110 306
q-17 41 -33 58t-37 17q-18 0 -36 -3z" />
    <glyph glyph-name="xi" unicode="&#x3be;" horiz-adv-x="425" 
d="M362 395l-45 -69q-38 5 -55 5q-56 0 -81.5 -27.5t-25.5 -72.5q0 -88 97 -111q8 -2 25.5 -6.5t25.5 -7.5q49 -15 77 -42t28 -79q0 -78 -89 -160l-31 16q24 52 24 82q0 60 -65 76q-37 9 -72 18q-143 33 -143 156q0 108 136 171q-48 12 -74.5 43t-26.5 74q0 35 24.5 69.5
t69.5 60.5q-27 4 -59 23.5t-38 46.5q0 17 16 40t34 32l26 -12q-6 -36 17 -62.5t51 -28.5q35 22 77 38t71 16q17 0 22.5 -5t3.5 -19q-2 -18 -15.5 -37.5t-27.5 -26.5q-52 -22 -131 -15q-32 -32 -32 -79q0 -41 26.5 -68.5t80.5 -27.5q45 0 72 3z" />
    <glyph glyph-name="omicron" unicode="&#x3bf;" horiz-adv-x="525" 
d="M268 454h1q101 0 164 -66t63 -159q0 -114 -68.5 -177.5t-163.5 -63.5q-111 0 -172.5 66.5t-61.5 155.5q0 113 73 178.5t165 65.5zM255 415h-1q-33 0 -57 -43.5t-24 -124.5q0 -95 28 -157.5t74 -62.5q35 0 56.5 36t21.5 136q0 104 -25.5 160t-72.5 56z" />
    <glyph glyph-name="pi" unicode="&#x3c0;" horiz-adv-x="550" 
d="M502 472l30 -5q-2 -33 -10 -67.5t-16 -45.5q-14 -5 -73 -5q-6 -68 -4 -202q0 -75 37 -75q19 0 43 10l12 -27q-19 -27 -52 -47t-62 -20q-86 0 -86 129q0 127 8 234q-62 2 -116 2v-6q0 -98 -12.5 -180t-24.5 -116.5t-20 -44.5q-38 -16 -74 -18l-10 20q41 63 62.5 167.5
t21.5 178.5q-78 2 -127 -31l-17 27q11 15 17 22.5t24 24t35.5 25.5t47.5 16.5t64 6.5q219 -3 251 -3q22 0 32 5t19 25z" />
    <glyph glyph-name="rho" unicode="&#x3c1;" horiz-adv-x="520" 
d="M69 -244l-6 13q6 27 6 160q0 42 -1 133.5t-1 128.5q0 136 92 208q69 55 138 55q89 0 141 -60.5t52 -144.5q0 -60 -25 -110t-63.5 -80.5t-77.5 -48.5t-73 -22q-31 0 -57 18q0 -15 2 -69.5t2.5 -77.5t-1.5 -50q-9 -16 -53.5 -33.5t-74.5 -19.5zM364 201v1q0 82 -34.5 139
t-83.5 57q-35 0 -46.5 -31t-10.5 -86q0 -100 4 -194q41 -46 83 -46q33 0 60.5 39t27.5 121z" />
    <glyph glyph-name="uni03C2" unicode="&#x3c2;" horiz-adv-x="411" 
d="M295 -166l-26 20q29 36 29 81q0 23 -21.5 41.5t-64.5 27.5l-64 16q-118 33 -118 178q0 122 110 201q77 55 151 55q45 0 78 -20q22 -15 22 -39q0 -25 -16 -42.5t-32 -17.5q-11 1 -31 17q-51 38 -93 38q-39 0 -59.5 -33t-20.5 -91q0 -68 24 -100.5t76 -45.5q18 -3 48 -12
q52 -14 77.5 -40.5t25.5 -75.5q0 -51 -31 -93.5t-64 -64.5z" />
    <glyph glyph-name="sigma" unicode="&#x3c3;" horiz-adv-x="528" 
d="M304 448q22 -1 51 -2t49 -2t35 -1q22 0 34 5t28 23l28 -12q-15 -80 -46 -98q-43 -2 -119 12l-2 -2q109 -56 109 -160t-63.5 -163.5t-158.5 -59.5q-104 0 -161.5 67t-57.5 156q0 116 77.5 178t196.5 59zM270 380h-1q-46 0 -75.5 -43t-29.5 -126q0 -76 27 -129.5t70 -53.5
q35 0 61 42.5t26 146.5q0 100 -31 138q-20 25 -47 25z" />
    <glyph glyph-name="tau" unicode="&#x3c4;" horiz-adv-x="461" 
d="M416 470l30 -4q-14 -91 -24 -110q-12 -4 -73 -4q-37 0 -62 1q-6 -68 -4 -209q0 -73 48 -73q20 0 43 9l12 -27q-18 -26 -51.5 -45.5t-66.5 -19.5q-93 0 -93 129q0 139 9 239q-62 2 -95.5 -5t-63.5 -29l-17 26q16 28 31.5 46.5t52 34.5t85.5 16q36 -1 94.5 -2t93.5 -1
q22 -1 32 4t19 24z" />
    <glyph glyph-name="upsilon" unicode="&#x3c5;" horiz-adv-x="479" 
d="M287 424v11q4 5 26 12t36 7q35 0 67 -47.5t32 -132.5q0 -113 -67.5 -199.5t-158.5 -86.5q-63 0 -103 37t-40 111v171q0 65 -42 65q-15 0 -28 -4l-8 31q22 17 61.5 36t74.5 19q69 0 69 -111v-201q0 -38 20 -60.5t49 -22.5q43 0 64.5 41.5t21.5 138.5q0 135 -74 185z" />
    <glyph glyph-name="phi" unicode="&#x3c6;" horiz-adv-x="610" 
d="M249 466l14 -31q-100 -62 -100 -186q0 -81 29 -133t69 -66q-4 121 -4 210q1 101 45 147.5t107 46.5q69 0 120 -59.5t51 -152.5q0 -104 -61.5 -165.5t-147.5 -80.5q0 -26 1.5 -90.5t1.5 -95.5q-6 -19 -41 -35.5t-66 -18.5l-8 10q4 44 2 224q-104 5 -167.5 67t-63.5 163
q0 48 19.5 89.5t52.5 71t69 50t78 35.5zM389 410h-1q-12 0 -16.5 -13t-4.5 -49q0 -57 2 -168.5t2 -138.5q39 4 72 52t33 135q0 84 -29.5 133t-57.5 49z" />
    <glyph glyph-name="chi" unicode="&#x3c7;" horiz-adv-x="482" 
d="M507 -171l7 -29q-51 -44 -118 -44q-34 0 -59 22.5t-49 84.5q-11 29 -30 87t-30 91q-55 -119 -131 -302h-15q-15 6 -27.5 23.5t-16.5 42.5q148 265 168 303q-35 110 -63 181q-19 48 -34.5 64.5t-37.5 16.5q-21 0 -46 -10l-10 29q72 65 132 65q34 0 58.5 -27.5t47.5 -88.5
q8 -19 21.5 -61t15.5 -48q16 33 35 75t36 81t21 47l80 22l11 -11q-77 -109 -163 -274q62 -185 93 -256q29 -62 48.5 -76.5t55.5 -7.5z" />
    <glyph glyph-name="psi" unicode="&#x3c8;" horiz-adv-x="607" 
d="M584 454l15 -30q-39 -31 -49 -94q-3 -13 -9.5 -50t-13 -68t-14.5 -59q-23 -89 -91 -136q-33 -20 -59 -24l-2 -231l-12 -6q-13 2 -22 8.5t-17 31t-9 67.5l-2 126q-92 4 -138.5 43.5t-62.5 131.5q-6 33 -12.5 84t-8.5 65q-5 35 -13.5 47.5t-24.5 12.5q-14 0 -26 -3l-8 31
q26 24 58.5 38.5t58.5 14.5q72 0 81 -109q0 -9 11 -131q7 -82 25.5 -120t60.5 -49l-6 447l67 30l11 -4l-8 -478q43 3 59 31.5t24 88.5q3 21 8.5 78.5t9.5 84.5q5 57 22 73q43 43 97 58z" />
    <glyph glyph-name="omega" unicode="&#x3c9;" horiz-adv-x="646" 
d="M437 424v14q6 5 24 10.5t35 5.5q39 0 79.5 -55.5t40.5 -138.5q0 -61 -22 -114.5t-54.5 -86.5t-68 -52t-65.5 -19q-76 0 -109 77q-61 -77 -111 -77q-65 0 -110.5 60t-45.5 148q0 172 174 264l21 -24q-65 -74 -65 -203q0 -77 26 -118.5t59 -41.5q19 0 32.5 20t12.5 60
q0 21 -12 173l122 25l12 -9q-11 -176 -11 -192q-1 -39 14 -63.5t44 -24.5q72 0 72 151q0 83 -30 136.5t-64 74.5z" />
    <glyph glyph-name="iotadieresis" unicode="&#x3ca;" horiz-adv-x="279" 
d="M270 71l10 -28q-65 -55 -122 -55q-90 0 -90 115v328l128 24v-328q0 -63 37 -63q20 0 37 7zM38 636h1q28 0 47.5 -19.5t19.5 -47.5q0 -27 -20 -46.5t-48 -19.5q-27 0 -47 19.5t-20 46.5q0 28 20 47.5t47 19.5zM243 636h1q28 0 47.5 -19.5t19.5 -47.5q0 -27 -20 -46.5
t-48 -19.5q-27 0 -47 19.5t-20 46.5q0 28 20 47.5t47 19.5z" />
    <glyph glyph-name="upsilondieresis" unicode="&#x3cb;" horiz-adv-x="479" 
d="M287 424v11q4 5 26 12t36 7q35 0 67 -47.5t32 -132.5q0 -113 -67.5 -199.5t-158.5 -86.5q-63 0 -103 37t-40 111v171q0 65 -42 65q-15 0 -28 -4l-8 31q22 17 61.5 36t74.5 19q69 0 69 -111v-201q0 -38 20 -60.5t49 -22.5q43 0 64.5 41.5t21.5 138.5q0 135 -74 185z
M137 636h1q28 0 47.5 -19.5t19.5 -47.5q0 -27 -20 -46.5t-48 -19.5q-27 0 -47 19.5t-20 46.5q0 28 20 47.5t47 19.5zM342 636h1q28 0 47.5 -19.5t19.5 -47.5q0 -27 -20 -46.5t-48 -19.5q-27 0 -47 19.5t-20 46.5q0 28 20 47.5t47 19.5z" />
    <glyph glyph-name="omicrontonos" unicode="&#x3cc;" horiz-adv-x="525" 
d="M268 454h1q101 0 164 -66t63 -159q0 -114 -68.5 -177.5t-163.5 -63.5q-111 0 -172.5 66.5t-61.5 155.5q0 113 73 178.5t165 65.5zM255 415h-1q-33 0 -57 -43.5t-24 -124.5q0 -95 28 -157.5t74 -62.5q35 0 56.5 36t21.5 136q0 104 -25.5 160t-72.5 56zM343 683l-74 -181
l-33 -1q3 175 3 179q6 7 45 12.5t52 2.5z" />
    <glyph glyph-name="upsilontonos" unicode="&#x3cd;" horiz-adv-x="479" 
d="M287 424v11q4 5 26 12t36 7q35 0 67 -47.5t32 -132.5q0 -113 -67.5 -199.5t-158.5 -86.5q-63 0 -103 37t-40 111v171q0 65 -42 65q-15 0 -28 -4l-8 31q22 17 61.5 36t74.5 19q69 0 69 -111v-201q0 -38 20 -60.5t49 -22.5q43 0 64.5 41.5t21.5 138.5q0 135 -74 185z
M321 670l-74 -181l-33 -1q3 175 3 179q6 7 45 12.5t52 2.5z" />
    <glyph glyph-name="omegatonos" unicode="&#x3ce;" horiz-adv-x="646" 
d="M437 424v14q6 5 24 10.5t35 5.5q39 0 79.5 -55.5t40.5 -138.5q0 -61 -22 -114.5t-54.5 -86.5t-68 -52t-65.5 -19q-76 0 -109 77q-61 -77 -111 -77q-65 0 -110.5 60t-45.5 148q0 172 174 264l21 -24q-65 -74 -65 -203q0 -77 26 -118.5t59 -41.5q19 0 32.5 20t12.5 60
q0 21 -12 173l122 25l12 -9q-11 -176 -11 -192q-1 -39 14 -63.5t44 -24.5q72 0 72 151q0 83 -30 136.5t-64 74.5zM420 673l-74 -181l-33 -1q3 175 3 179q6 7 45 12.5t52 2.5z" />
    <glyph glyph-name="uni03D0" unicode="&#x3d0;" horiz-adv-x="518" 
d="M488 223v-1q0 -109 -69.5 -171.5t-153.5 -62.5q-66 0 -113.5 27.5t-73 74.5t-36.5 99.5t-11 113.5q0 206 118 326q75 74 156 74q63 0 101 -32.5t38 -94.5q0 -51 -34 -86t-100 -72q90 -12 134 -63.5t44 -131.5zM333 555v1q0 42 -18 70.5t-47 28.5q-31 0 -52.5 -26
t-32.5 -70t-16 -86.5t-6 -91.5q21 10 89 45q83 40 83 129zM350 194v1q0 87 -29 131.5t-75 44.5q-52 0 -84 -41q1 -121 31 -210.5t81 -89.5q76 0 76 164z" />
    <glyph glyph-name="uni03D1" unicode="&#x3d1;" horiz-adv-x="496" 
d="M18 208l-8 31q59 44 118 44q42 0 60.5 -24t24.5 -67q1 -3 7 -44q5 -33 9.5 -49.5t17.5 -32t35 -15.5q41 0 56.5 55.5t17.5 152.5q0 71 -8 122q-62 -53 -122 -53q-85 0 -133.5 49t-48.5 126q0 93 62 149.5t139 56.5q98 0 159.5 -90t61.5 -262q0 -95 -29 -182.5t-92 -140.5
q-56 -46 -111 -46q-112 0 -139 125q-2 10 -5.5 30t-5.5 29q-8 50 -66 36zM210 663h-1q-62 0 -62 -98q0 -72 37 -116.5t93 -44.5q38 0 66 12q-17 122 -55 184.5t-78 62.5z" />
    <glyph glyph-name="uni03D5" unicode="&#x3d5;" horiz-adv-x="604" 
d="M354 662l-4 -207q101 -14 162.5 -74.5t61.5 -153.5q0 -102 -68 -159.5t-164 -72.5l-2 -240l-7 -3q-18 2 -28.5 8t-21 33.5t-10.5 76.5l-1 121q-109 4 -175.5 66t-66.5 157q0 106 84 172q49 38 110 56l14 -31q-71 -53 -71 -181q0 -75 28.5 -124.5t75.5 -63.5l1 411l-2 180
l73 34zM348 401l-4 -362q49 7 83.5 49t34.5 130q0 71 -30 118t-84 65z" />
    <glyph glyph-name="uni03D6" unicode="&#x3d6;" horiz-adv-x="668" 
d="M139 488l-12 31q109 67 227 67q76 0 133.5 -24.5t90 -67t48.5 -93t16 -108.5q0 -71 -23 -131.5t-57 -97t-71.5 -56.5t-69.5 -20q-38 0 -68.5 21.5t-44.5 57.5q-24 -31 -58 -55t-65 -24q-65 0 -110 60.5t-45 148.5q0 168 176 262l21 -28q-67 -75 -67 -198q0 -77 26 -117.5
t60 -40.5q21 0 38.5 19.5t16.5 59.5q0 20 -12 172l122 26l12 -9q-11 -181 -11 -192q-1 -37 17 -61.5t48 -24.5q80 0 80 162q0 127 -66.5 211.5t-197.5 84.5q-80 0 -154 -35z" />
    <glyph glyph-name="uni03DA" unicode="&#x3da;" horiz-adv-x="419" 
d="M386 472l28 -9q-10 -62 -28.5 -89t-39.5 -27q-28 0 -61 12q-51 20 -80 20q-33 0 -53 -29t-20 -83q0 -120 111 -146q27 -7 48 -12q53 -14 78 -40.5t25 -76.5q0 -62 -46 -109t-91 -47q-19 0 -31.5 11.5t-12.5 28.5q0 25 21 44q7 7 16 2q22 -10 44 -10q14 0 25 8t11 22
q0 17 -23.5 31t-87.5 28q-45 10 -67 17q-120 34 -120 177q0 63 31 117.5t82 90.5q71 51 132 51q15 0 62 -5q31 -3 47 23z" />
    <glyph glyph-name="uni03DE" unicode="&#x3de;" horiz-adv-x="530" 
d="M270 454h1q102 0 165.5 -66t63.5 -159q0 -94 -47.5 -154t-122.5 -78v-73q0 -50 -11 -73q-10 -21 -35.5 -43t-61.5 -35l-15 9q3 90 3 111v100q-86 16 -133 78t-47 139q0 112 73.5 178t166.5 66zM256 412h-1q-34 0 -58 -42.5t-24 -122.5q0 -94 28.5 -156t74.5 -62
q81 0 81 170q0 101 -27 157t-74 56z" />
    <glyph glyph-name="uni03E0" unicode="&#x3e0;" horiz-adv-x="694" 
d="M81 608l-5 25l46 17q48 17 85 17q92 0 168 -25t126.5 -66t85 -97t50 -116.5t15.5 -125.5q0 -131 -48 -227t-124 -177l-25 20q41 65 70.5 158t29.5 196q0 17 -2 51q-146 -71 -242 -169q-47 -47 -47 -92l-1 -8q-11 -3 -23 -3q-14 0 -25.5 8.5t-17 24.5t-4 35t15.5 43.5
t40 47.5q38 35 93 70.5t96 57t106 52.5q-13 54 -33 92.5t-36 54.5q-80 -55 -192.5 -113.5t-148.5 -69.5q-29 -8 -56.5 5.5t-36.5 33.5l2 13q227 61 398 172q-104 100 -282 100q-47 0 -78 -5z" />
    <glyph glyph-name="uni03F0" unicode="&#x3f0;" horiz-adv-x="551" 
d="M522 107l16 -28q-19 -38 -50.5 -64.5t-71.5 -26.5q-88 0 -88 116q0 62 35 150l-5 4q-22 -25 -64.5 -74t-68 -78.5t-58.5 -63t-58 -53.5l-20 -1q-32 8 -48 35.5t-13 54.5q26 11 78 50q29 46 29 123q0 52 -19.5 82.5t-50.5 30.5q-20 0 -44 -11l-12 26q71 75 133 75
q37 0 58.5 -26t21.5 -78q0 -27 -8.5 -60.5t-15 -50.5t-24.5 -60l5 -1q39 40 72.5 80t63.5 79t40 51q6 7 17.5 21t17 21t15 14t19.5 10q56 0 75 -55q7 -15 1 -29q-58 -40 -71 -55q-25 -46 -25 -112q0 -57 18 -88t46 -31q26 0 54 23z" />
    <glyph glyph-name="afii10023" unicode="&#x401;" horiz-adv-x="581" 
d="M535 173l36 -7q-14 -90 -35 -166h-510v35q65 5 80 20t15 78v384q0 64 -13 78.5t-68 19.5v35h471q0 -8 2 -31.5t4 -58t4 -60.5l-37 -5q-16 62 -40 86q-24 25 -100 25h-48q-28 0 -34.5 -5.5t-6.5 -29.5v-212h67q65 0 83 12t28 63h36v-201h-36q-10 53 -28 64.5t-83 11.5h-67
v-174q0 -38 5 -57t19 -25q23 -10 90 -10q82 0 110 32q29 32 56 98zM401 828h1q28 0 47.5 -19.5t19.5 -47.5q0 -27 -20 -46.5t-48 -19.5q-27 0 -47 19.5t-20 46.5q0 28 20 47.5t47 19.5zM191 828h1q28 0 47.5 -19.5t19.5 -47.5q0 -27 -20 -46.5t-48 -19.5q-27 0 -47 19.5
t-20 46.5q0 28 20 47.5t47 19.5z" />
    <glyph glyph-name="afii10051" unicode="&#x402;" horiz-adv-x="731" 
d="M375 607v-241q69 34 121 34q76 0 136 -62t60 -175q0 -119 -69.5 -200t-175.5 -125l-18 34q20 11 39 29t41 50t35.5 83t13.5 113q0 88 -35.5 139.5t-98.5 51.5q-26 0 -49 -9v-177q0 -55 6.5 -76.5t22.5 -29t60 -10.5v-36h-315v36q36 3 50.5 5.5t26 15.5t13.5 32.5t2 62.5
v455h-30q-57 0 -80.5 -6.5t-35.5 -24.5q-19 -29 -34 -90h-37q2 36 6 100.5t5 88.5h26q12 -16 23 -20.5t35 -4.5h398q20 0 31 5t25 20h26q5 -107 11 -185l-38 -3q-13 68 -37 95q-12 15 -32 20t-68 5h-60z" />
    <glyph glyph-name="afii10052" unicode="&#x403;" horiz-adv-x="534" 
d="M512 496l-37 -7q-3 9 -8.5 26.5t-8 25t-7.5 18t-10 17.5q-12 18 -29 24t-57 6h-59q-30 0 -35 -4.5t-5 -32.5v-430q0 -69 14.5 -84.5t79.5 -20.5v-34h-310v34q25 2 37.5 4.5t23 8t14 18t5.5 28.5t2 46v374q0 68 -12.5 83t-69.5 20v34h463q6 -127 9 -154zM435 755l-4 -12
l-206 -60l-14 28q145 103 173 122q14 -5 31.5 -32t19.5 -46z" />
    <glyph glyph-name="afii10053" unicode="&#x404;" horiz-adv-x="661" 
d="M547 305l-353 8q5 -126 65 -204t145 -79q101 0 156 100q24 43 48 43q13 0 22 -10t9 -25q0 -41 -51 -86q-72 -67 -198 -67q-89 0 -158 29t-109.5 77t-61 105.5t-20.5 120.5q0 155 106 251.5t270 96.5q97 0 184 -35q8 -52 18 -154l-34 -7q-23 78 -65.5 116t-113.5 38
q-91 0 -149 -69t-62 -190l352 8v-67z" />
    <glyph glyph-name="afii10054" unicode="&#x405;" horiz-adv-x="505" 
d="M442 495l-35 -8q-43 137 -139 137q-42 0 -69.5 -28t-27.5 -71q0 -40 28 -68.5t96 -62.5q87 -42 132 -89.5t45 -116.5q0 -87 -67.5 -145t-175.5 -58q-54 0 -101 14q-32 9 -60 22q-15 36 -30 169l35 12q9 -27 23 -55t35.5 -57t52 -47t64.5 -18q46 0 73 29t27 77
q0 41 -29.5 72.5t-89.5 63.5q-86 44 -130 89.5t-44 112.5q0 85 62.5 140.5t166.5 55.5q61 0 139 -26q2 -21 9 -71t10 -73z" />
    <glyph glyph-name="afii10055" unicode="&#x406;" horiz-adv-x="378" 
d="M338 0h-301v35q57 5 70.5 20.5t13.5 77.5v384q0 63 -13.5 78t-70.5 20v35h301v-35q-57 -5 -70 -20t-13 -78v-384q0 -62 13 -77.5t70 -20.5v-35z" />
    <glyph glyph-name="afii10056" unicode="&#x407;" horiz-adv-x="378" 
d="M338 0h-301v35q57 5 70.5 20.5t13.5 77.5v384q0 63 -13.5 78t-70.5 20v35h301v-35q-57 -5 -70 -20t-13 -78v-384q0 -62 13 -77.5t70 -20.5v-35zM293 828h1q28 0 47.5 -19.5t19.5 -47.5q0 -27 -20 -46.5t-48 -19.5q-27 0 -47 19.5t-20 46.5q0 28 20 47.5t47 19.5zM83 828
h1q28 0 47.5 -19.5t19.5 -47.5q0 -27 -20 -46.5t-48 -19.5q-27 0 -47 19.5t-20 46.5q0 28 20 47.5t47 19.5z" />
    <glyph glyph-name="afii10057" unicode="&#x408;" horiz-adv-x="366" 
d="M337 650v-35q-53 -5 -65.5 -20t-12.5 -78v-330q0 -103 -19.5 -169.5t-82.5 -117.5q-55 -47 -122 -62l-15 36q80 34 94 122q11 67 11 194v327q0 63 -14 78t-72 20v35h298z" />
    <glyph glyph-name="afii10058" unicode="&#x409;" horiz-adv-x="906" 
d="M528 505v-112q90 5 97 5q117 0 181 -49t64 -141q0 -112 -95 -167q-71 -41 -209 -41h-254v34q32 3 45.5 5.5t24 15.5t12.5 33.5t2 62.5v401q0 39 -4.5 46.5t-29.5 7.5h-103q-21 0 -26.5 -5t-5.5 -28q0 -405 -86 -538q-34 -51 -73 -51q-37 0 -60 9v20q37 24 60 52.5
t43 74.5q60 133 60 414q0 33 -17 45t-76 16v35h534v-35q-42 -3 -57 -10t-21 -27t-6 -73zM528 353v-215q0 -55 13.5 -75.5t51.5 -20.5q52 0 92 37.5t40 121.5q0 83 -38.5 119t-110.5 36q-30 0 -48 -3z" />
    <glyph glyph-name="afii10059" unicode="&#x40a;" horiz-adv-x="986" 
d="M613 381h106q108 0 170.5 -48t62.5 -132q0 -110 -90 -162q-70 -39 -198 -39h-261v35q39 3 53 10t19.5 26t5.5 68v193h-227v-193q0 -48 6 -67.5t21 -26.5t56 -10v-35h-298v35q31 3 44.5 5.5t24 14t12.5 29.5t2 56v371q0 68 -13 83.5t-74 20.5v35h297v-35
q-53 -6 -65.5 -21.5t-12.5 -80.5v-132h227v129q0 49 -5 68.5t-18 26.5t-49 10v35h288v-35q-41 -3 -56 -9.5t-21.5 -26t-6.5 -67.5v-131zM613 333v-200q0 -56 13 -74t55 -17q51 0 88.5 35.5t37.5 115.5q0 72 -38 106t-101 34h-55z" />
    <glyph glyph-name="afii10060" unicode="&#x40b;" horiz-adv-x="788" 
d="M757 0h-263v35q36 5 45 18.5t9 61.5v104q0 25 -3 42.5t-13.5 37t-34 30t-59.5 10.5t-66 -13v-175q0 -76 11 -93.5t57 -22.5v-35h-288v35q42 3 58 11t22 29.5t6 75.5v455h-45q-59 0 -79 -8t-32 -32q-12 -23 -26 -77h-36q1 22 4 61.5t5 70.5t3 54h20q13 -16 25 -20.5
t37 -4.5h399q20 0 31 5t25 20h25q1 -53 10 -182l-36 -3q-17 60 -33 85q-12 19 -33 25t-70 6h-60v-242q82 33 139 33q91 0 135 -48q36 -39 36 -119v-113q0 -52 11.5 -65t63.5 -17v-35z" />
    <glyph glyph-name="afii10061" unicode="&#x40c;" horiz-adv-x="691" 
d="M676 0h-115q-53 0 -80.5 21.5t-50.5 70.5q-18 38 -56 139q-21 57 -49.5 78.5t-69.5 20.5v-188q0 -51 5.5 -70.5t20.5 -26.5t55 -10v-35h-299v35q58 5 71 20.5t13 84.5v368q0 71 -13 86.5t-71 20.5v35h299v-35q-41 -3 -55.5 -10t-20 -26.5t-5.5 -70.5v-139q79 2 120 43
q35 33 84 147q46 104 118 106q28 0 44.5 -14.5t16.5 -35.5q0 -17 -13 -26t-30 -10h-18q-30 0 -51.5 -21t-53.5 -85q-43 -86 -97 -113v-3q43 -10 74 -33.5t55 -70.5q7 -14 30 -64.5t39 -81.5q20 -40 42 -54t61 -18v-35zM518 755l-4 -12l-206 -60l-14 28q145 103 173 122
q14 -5 31.5 -32t19.5 -46z" />
    <glyph glyph-name="afii10062" unicode="&#x40e;" horiz-adv-x="661" 
d="M655 650v-35q-52 -8 -70.5 -25t-44.5 -73q-140 -316 -169 -378q-43 -94 -87 -129t-93 -35q-32 0 -56 17.5t-24 45.5q1 29 26 43q26 14 60 -7q28 -19 53 -19q20 0 37 20.5t17 47.5q0 25 -23 73q-7 13 -49 100t-78.5 162t-48.5 97q-16 31 -32 42.5t-62 17.5v35h280v-35
l-31 -7q-15 -5 -17.5 -14.5t7.5 -30.5l136 -292q83 203 107 270q12 32 8 46.5t-27 19.5l-36 8v35h217zM345 690h-1q-62 0 -98 25t-36 69q0 18 11.5 32t30.5 14q22 0 32 -15t8 -32q0 -54 53 -54q52 0 52 54q-2 17 8 32t32 15q20 0 31 -13.5t11 -32.5q0 -44 -36 -69t-98 -25z
" />
    <glyph glyph-name="afii10145" unicode="&#x40f;" horiz-adv-x="781" 
d="M747 0h-251q-34 0 -46.5 -12t-18.5 -41q-8 -38 -21 -153h-40q-14 121 -22 152q-7 30 -20.5 42t-48.5 12h-248v36q45 3 61.5 10t23 27.5t6.5 72.5v362q0 69 -13.5 84.5t-73.5 20.5v37h299v-37q-30 -3 -43 -5.5t-22.5 -14.5t-11 -29.5t-1.5 -55.5v-427q0 -28 6 -33t35 -5
h186q28 0 34.5 5.5t6.5 33.5v426q0 50 -6 69.5t-20.5 26t-55.5 9.5v37h303v-37q-43 -3 -58.5 -9.5t-22 -26t-6.5 -69.5v-363q0 -52 6.5 -72t22.5 -27t60 -10v-36z" />
    <glyph glyph-name="afii10017" unicode="&#x410;" horiz-adv-x="706" 
d="M687 0h-286v35q43 7 52 19.5t-4 45.5q-19 57 -40 113h-192q-25 -71 -36 -107q-13 -36 -2.5 -50.5t63.5 -20.5v-35h-224v35q50 6 68.5 23t43.5 80l205 514l51 13q177 -483 191 -521q26 -67 44 -85t66 -24v-35zM390 266l-74 217h-3q-16 -43 -45 -123t-34 -94h156z" />
    <glyph glyph-name="afii10018" unicode="&#x411;" horiz-adv-x="626" 
d="M254 569v-190q48 3 104 3q109 0 171 -47t62 -131q0 -110 -91 -164q-66 -40 -205 -40h-259v34q32 3 46.5 6t25 15.5t12.5 31.5t2 59v360q0 52 -6 72.5t-21 27.5t-55 10v34h477q0 -43 9 -158l-38 -5q-16 57 -38 89q-12 17 -31 23.5t-64 6.5h-62q-28 0 -33.5 -5t-5.5 -32z
M322 42h1q44 0 83 37t39 115q0 145 -145 145q-16 0 -46 -2v-200q0 -56 14.5 -75.5t53.5 -19.5z" />
    <glyph glyph-name="afii10019" unicode="&#x412;" horiz-adv-x="637" 
d="M401 353v-4q192 -23 192 -156q0 -99 -93 -150q-76 -43 -211 -43h-254v35q58 5 72 20.5t14 78.5v383q0 63 -13 78t-67 20v35h292q111 0 165 -34q59 -38 59 -114q0 -65 -45.5 -100.5t-110.5 -48.5zM253 363h23q72 0 105.5 29.5t33.5 91.5q0 64 -31.5 94.5t-76.5 30.5
q-33 0 -45 -12q-9 -9 -9 -44v-190zM253 323v-187q0 -55 16.5 -75t56.5 -19q48 1 83.5 36.5t35.5 103.5q0 141 -172 141h-20z" />
    <glyph glyph-name="afii10020" unicode="&#x413;" horiz-adv-x="534" 
d="M512 496l-37 -7q-3 9 -8.5 26.5t-8 25t-7.5 18t-10 17.5q-12 18 -29 24t-57 6h-59q-30 0 -35 -4.5t-5 -32.5v-430q0 -69 14.5 -84.5t79.5 -20.5v-34h-310v34q25 2 37.5 4.5t23 8t14 18t5.5 28.5t2 46v374q0 68 -12.5 83t-69.5 20v34h463q6 -127 9 -154z" />
    <glyph glyph-name="afii10021" unicode="&#x414;" horiz-adv-x="679" 
d="M652 44l-27 -223h-39l-17 105q-7 46 -21 60t-52 14h-330q-33 0 -47.5 -17t-27.5 -69l-26 -93h-40l4 223h58q19 0 28 21q28 59 48 182.5t20 300.5q0 33 -10 44.5t-50 17.5l-37 6v34h558v-34q-34 -3 -48.5 -5.5t-25 -15t-12 -30.5t-1.5 -58v-410q0 -35 5.5 -44t25.5 -9h64z
M423 108v443q0 41 -5 48.5t-34 7.5h-106q-29 0 -34.5 -6t-5.5 -36q0 -113 -12.5 -252.5t-37.5 -237.5q-5 -18 -1 -24.5t24 -6.5h149q39 0 51 11.5t12 52.5z" />
    <glyph glyph-name="afii10022" unicode="&#x415;" horiz-adv-x="581" 
d="M535 173l36 -7q-14 -90 -35 -166h-510v35q65 5 80 20t15 78v384q0 64 -13 78.5t-68 19.5v35h471q0 -8 2 -31.5t4 -58t4 -60.5l-37 -5q-16 62 -40 86q-24 25 -100 25h-48q-28 0 -34.5 -5.5t-6.5 -29.5v-212h67q65 0 83 12t28 63h36v-201h-36q-10 53 -28 64.5t-83 11.5h-67
v-174q0 -38 5 -57t19 -25q23 -10 90 -10q82 0 110 32q29 32 56 98z" />
    <glyph glyph-name="afii10024" unicode="&#x416;" horiz-adv-x="996" 
d="M982 0h-114q-53 0 -81 21.5t-51 70.5q-23 52 -55 141q-21 58 -48.5 78.5t-68.5 19.5v-186q0 -52 5.5 -72t21 -27.5t56.5 -10.5v-35h-298v35q57 5 70.5 21.5t13.5 88.5v186q-43 1 -72 -20t-50 -78q-8 -22 -19.5 -54t-19.5 -53t-13 -33q-23 -50 -50 -71.5t-80 -21.5h-114
v35q38 4 60.5 19.5t43.5 57.5q17 34 40.5 84.5t27.5 58.5q25 46 55 69.5t73 34.5v3q-56 25 -100 111q-33 65 -52 86t-48 21h-19q-17 0 -29 10t-12 27q0 22 17 35.5t48 12.5q68 -1 111 -102q49 -114 86 -149q26 -25 51 -33.5t65 -9.5v141q0 67 -13.5 82.5t-70.5 20.5v35h298
v-35q-57 -5 -70 -20.5t-13 -82.5v-141q41 1 67.5 10t50.5 33q21 20 38 51t44 95q24 55 51.5 79.5t63.5 25.5q29 1 46 -13t17 -35q0 -35 -42 -37h-20q-28 0 -48 -21.5t-51 -85.5q-42 -84 -99 -111v-3q43 -11 73 -34.5t54 -69.5q7 -13 30 -62.5t39 -80.5q21 -42 43.5 -57.5
t60.5 -19.5v-35z" />
    <glyph glyph-name="afii10025" unicode="&#x417;" horiz-adv-x="548" 
d="M328 361v-5q82 -11 132.5 -52.5t50.5 -118.5q0 -67 -40.5 -113.5t-101 -66.5t-134.5 -20q-103 0 -162 44q-46 35 -46 76q0 20 12.5 32.5t28.5 12.5q25 0 48 -37q42 -86 124 -88q48 -1 84 36t36 116q0 67 -31 108.5t-75 41.5q-13 0 -40.5 -6t-43.5 -6q-20 0 -32.5 11
t-12.5 27t12.5 27t33.5 11q15 0 42.5 -6t41.5 -5q31 1 57.5 30t26.5 82q0 61 -28 96t-76 35q-94 0 -139 -148l-36 10q2 6 19 142q33 11 60 19q70 19 124 19q104 0 160 -42.5t56 -113.5q0 -33 -16.5 -62t-39.5 -45q-44 -27 -95 -41z" />
    <glyph glyph-name="afii10026" unicode="&#x418;" horiz-adv-x="782" 
d="M747 0h-305v35q33 2 48 5.5t25.5 16t12.5 30t2 55.5v235q0 80 5 176h-3l-257 -500q-9 -17 -9 -39v-14h-231v35q59 5 73 22.5t14 88.5v358q0 39 -2 58t-12.5 31.5t-25.5 16t-47 5.5v35h299v-35q-56 -5 -68.5 -21t-12.5 -86v-204q0 -93 -5 -199h2l257 497q11 18 11 34v14
h230v-35q-59 -5 -73 -22t-14 -84v-367q0 -49 6 -69t22.5 -27.5t57.5 -10.5v-35z" />
    <glyph glyph-name="afii10027" unicode="&#x419;" horiz-adv-x="782" 
d="M747 0h-305v35q33 2 48 5.5t25.5 16t12.5 30t2 55.5v235q0 80 5 176h-3l-257 -500q-9 -17 -9 -39v-14h-231v35q59 5 73 22.5t14 88.5v358q0 39 -2 58t-12.5 31.5t-25.5 16t-47 5.5v35h299v-35q-56 -5 -68.5 -21t-12.5 -86v-204q0 -93 -5 -199h2l257 497q11 18 11 34v14
h230v-35q-59 -5 -73 -22t-14 -84v-367q0 -49 6 -69t22.5 -27.5t57.5 -10.5v-35zM401 690h-1q-62 0 -98 25t-36 69q0 18 11.5 32t30.5 14q22 0 32 -15t8 -32q0 -54 53 -54q52 0 52 54q-2 17 8 32t32 15q20 0 31 -13.5t11 -32.5q0 -44 -36 -69t-98 -25z" />
    <glyph glyph-name="afii10028" unicode="&#x41a;" horiz-adv-x="691" 
d="M676 0h-115q-53 0 -80.5 21.5t-50.5 70.5q-18 38 -56 139q-21 57 -49.5 78.5t-69.5 20.5v-188q0 -51 5.5 -70.5t20.5 -26.5t55 -10v-35h-299v35q58 5 71 20.5t13 84.5v368q0 71 -13 86.5t-71 20.5v35h299v-35q-41 -3 -55.5 -10t-20 -26.5t-5.5 -70.5v-139q79 2 120 43
q35 33 84 147q46 104 118 106q28 0 44.5 -14.5t16.5 -35.5q0 -17 -13 -26t-30 -10h-18q-30 0 -51.5 -21t-53.5 -85q-43 -86 -97 -113v-3q43 -10 74 -33.5t55 -70.5q7 -14 30 -64.5t39 -81.5q20 -40 42 -54t61 -18v-35z" />
    <glyph glyph-name="afii10029" unicode="&#x41b;" horiz-adv-x="670" 
d="M631 0h-301v35q41 3 56.5 11t21.5 28.5t6 71.5v406q0 38 -5 46t-31 8h-107q-21 0 -27 -7.5t-6 -31.5q0 -396 -89 -534q-32 -49 -68 -49q-41 0 -66 9v23q39 26 61.5 53t41.5 69q64 139 64 416q0 33 -17 45t-74 16v35h540v-35q-56 -5 -69.5 -19t-13.5 -69v-381
q0 -72 13 -89t70 -22v-35z" />
    <glyph glyph-name="afii10030" unicode="&#x41c;" horiz-adv-x="888" 
d="M860 0h-295v35q56 6 68 22t11 85l-2 385h-4l-222 -520h-27l-205 510h-4l-12 -261q-7 -109 0 -162q3 -32 20.5 -43t69.5 -16v-35h-241v35q41 4 59 17t23 41q11 56 21 189l16 198q6 85 -7.5 107t-77.5 28v35h207l193 -438l196 438h201v-35q-59 -6 -71.5 -21t-10.5 -78
l9 -374q2 -69 14.5 -85t70.5 -22v-35z" />
    <glyph glyph-name="afii10031" unicode="&#x41d;" horiz-adv-x="783" 
d="M746 650v-35q-59 -5 -71.5 -19.5t-12.5 -78.5v-385q0 -62 13 -77t71 -20v-35h-305v35q60 5 73.5 20t13.5 78v186h-273v-186q0 -63 13 -78t69 -20v-35h-298v35q56 5 69 20t13 78v384q0 63 -13.5 78t-72.5 20v35h300v-35q-55 -5 -67.5 -20t-12.5 -78v-147h273v147
q0 63 -13 78t-70 20v35h301z" />
    <glyph glyph-name="afii10032" unicode="&#x41e;" horiz-adv-x="766" 
d="M393 664h1q139 0 235 -93.5t96 -239.5q0 -157 -99 -251.5t-245 -94.5q-149 0 -244 96.5t-95 241.5q0 138 94.5 239.5t256.5 101.5zM375 622h-1q-77 0 -127.5 -76.5t-50.5 -202.5q0 -134 55 -225t148 -91q75 0 123.5 72t48.5 205q0 147 -54 232.5t-142 85.5z" />
    <glyph glyph-name="afii10033" unicode="&#x41f;" horiz-adv-x="766" 
d="M731 0h-304v35q41 3 56.5 10.5t21.5 28.5t6 73v421q0 29 -5.5 34t-34.5 5h-175q-28 0 -34 -5t-6 -30v-426q0 -52 6 -72.5t20.5 -28t54.5 -10.5v-35h-301v35q42 3 58 10.5t22 28t6 72.5v362q0 70 -14 86t-76 21v35h701v-35q-61 -5 -74.5 -21.5t-13.5 -87.5v-359
q0 -40 2 -59t12.5 -31.5t25 -16t46.5 -5.5v-35z" />
    <glyph glyph-name="afii10034" unicode="&#x420;" horiz-adv-x="599" 
d="M42 650h276q119 0 175 -39q74 -50 74 -147q0 -94 -58.5 -145.5t-146.5 -62.5q-15 -2 -41 -2l-68 17v-138q0 -63 15 -78.5t79 -20.5v-34h-310v34q57 5 70.5 20.5t13.5 78.5v383q0 63 -13 78.5t-66 20.5v35zM253 570v-260q24 -10 54 -10q16 0 33.5 6.5t37.5 22.5t32.5 50.5
t12.5 81.5q0 78 -36 114t-88 36q-25 0 -37 -10q-9 -8 -9 -31z" />
    <glyph glyph-name="afii10035" unicode="&#x421;" horiz-adv-x="676" 
d="M625 186l35 -15q-26 -99 -56 -160q-113 -26 -186 -26q-96 0 -170.5 29t-118 77.5t-65.5 106t-22 119.5q0 155 109 251.5t287 96.5q60 0 182 -27q15 -91 23 -163l-37 -7q-43 153 -187 153q-104 0 -164.5 -83.5t-60.5 -200.5q0 -136 66 -220.5t169 -84.5q118 0 196 154z
" />
    <glyph glyph-name="afii10036" unicode="&#x422;" horiz-adv-x="641" 
d="M616 481l-36 -2q-18 78 -44 104q-24 23 -102 23h-45v-473q0 -63 15.5 -78t82.5 -20v-35h-326v35q64 5 79 20t15 78v473h-34q-58 0 -80.5 -6.5t-34.5 -20.5q-21 -21 -42 -101h-37q2 31 6.5 100t5.5 97h25q11 -16 22.5 -20.5t34.5 -4.5h402q35 0 57 25h25q2 -77 11 -194z
" />
    <glyph glyph-name="afii10037" unicode="&#x423;" horiz-adv-x="661" 
d="M655 650v-35q-52 -8 -70.5 -25t-44.5 -73q-140 -316 -169 -378q-43 -94 -87 -129t-93 -35q-32 0 -56 17.5t-24 45.5q1 29 26 43q26 14 60 -7q28 -19 53 -19q20 0 37 20.5t17 47.5q0 25 -23 73q-7 13 -49 100t-78.5 162t-48.5 97q-16 31 -32 42.5t-62 17.5v35h280v-35
l-31 -7q-15 -5 -17.5 -14.5t7.5 -30.5l136 -292q83 203 107 270q12 32 8 46.5t-27 19.5l-36 8v35h217z" />
    <glyph glyph-name="afii10038" unicode="&#x424;" horiz-adv-x="791" 
d="M526 659v-34q-47 -3 -57 -11.5t-10 -44.5q61 -3 108 -14.5t91.5 -36t68.5 -71.5t24 -114q0 -55 -17.5 -96t-45 -65.5t-68 -41t-78 -23t-84.5 -9.5q1 -41 11.5 -50.5t59.5 -13.5v-34h-274v34q51 4 62.5 14t11.5 50q-292 13 -292 234q0 220 291 238q1 37 -9 44.5t-62 10.5
v34h269zM329 171v308v54q-76 -9 -116 -54t-40 -147t42 -144.5t114 -51.5v35zM458 495v-339v-21q75 8 116 52t41 144q0 186 -157 201v-37z" />
    <glyph glyph-name="afii10039" unicode="&#x425;" horiz-adv-x="693" 
d="M700 0h-321v35q46 8 53 21.5t-9 36.5q-6 10 -107 180q-80 -121 -109 -176q-17 -33 -8 -43.5t60 -18.5v-35h-251v35q78 9 119 55q92 116 163 222q-121 198 -142 232q-21 36 -47 51t-76 20v35h301v-35q-38 -8 -45.5 -19t4.5 -28q31 -58 90 -151q49 63 90 140q16 27 7.5 38
t-55.5 20v35h241v-35q-49 -6 -75.5 -19.5t-56.5 -49.5q-35 -41 -125 -165q20 -32 76.5 -122t89.5 -141q31 -48 55.5 -63t77.5 -20v-35z" />
    <glyph glyph-name="afii10040" unicode="&#x426;" horiz-adv-x="780" 
d="M745 47l-27 -226h-39l-17 105q-7 46 -21 60t-52 14h-555v35q43 3 59 10.5t22.5 29t6.5 76.5v365q0 64 -13.5 79t-70.5 20v35h300v-35q-31 -3 -44.5 -5.5t-23.5 -14t-12 -28t-2 -51.5v-434q0 -28 5 -33t34 -5h181q29 0 34.5 5t5.5 33v417q0 42 -1.5 61.5t-12 32.5
t-24.5 16t-46 6v35h302v-35q-42 -3 -57 -10.5t-21 -29t-6 -76.5v-403q0 -34 5 -41.5t26 -7.5h64z" />
    <glyph glyph-name="afii10041" unicode="&#x427;" horiz-adv-x="712" 
d="M671 650v-35q-54 -5 -67 -20t-13 -75v-378q0 -38 2 -56t11.5 -30.5t23 -15t43.5 -5.5v-35h-304v35q34 3 49 5.5t26 15t13 30.5t2 56v162l-88 -32q-37 -13 -75 -13q-115 0 -165 64q-29 40 -29 125v82q0 52 -13.5 66t-69.5 19v35h286v-35q-47 -4 -58 -19.5t-11 -75.5v-60
q0 -72 32.5 -105t96.5 -33q53 0 94 22v176q0 61 -12 75.5t-62 19.5v35h288z" />
    <glyph glyph-name="afii10042" unicode="&#x428;" horiz-adv-x="999" 
d="M966 0h-933v35q61 5 74.5 19t13.5 78v385q0 46 -6 64t-21 24.5t-55 9.5v35h275v-35q-41 -5 -50.5 -19t-9.5 -75v-440q0 -27 5.5 -32t35.5 -5h97q30 0 35.5 5t5.5 32v440q0 59 -10 73.5t-48 20.5v35h251v-35q-40 -6 -50 -20.5t-10 -73.5v-440q0 -27 6 -32t36 -5h98
q27 0 33 6t6 31v440q0 60 -10 74t-52 20v35h277v-35q-56 -5 -69 -19t-13 -75v-391q0 -62 13.5 -76t74.5 -19v-35z" />
    <glyph glyph-name="afii10043" unicode="&#x429;" horiz-adv-x="1001" 
d="M974 46l-27 -225h-39l-17 105q-7 47 -19.5 60.5t-54.5 13.5h-784v35q61 5 74.5 19t13.5 78v385q0 46 -6 64t-21 24.5t-55 9.5v35h275v-35q-41 -5 -50.5 -19t-9.5 -75v-440q0 -27 5.5 -32t35.5 -5h97q30 0 35.5 5t5.5 32v440q0 59 -10 73.5t-48 20.5v35h251v-35
q-40 -6 -50 -20.5t-10 -73.5v-440q0 -27 6 -32t36 -5h98q27 0 33 6t6 31v440q0 60 -10 74t-52 20v35h277v-35q-56 -5 -69 -19t-13 -75v-421q0 -35 5.5 -44.5t26.5 -9.5h64z" />
    <glyph glyph-name="afii10044" unicode="&#x42a;" horiz-adv-x="755" 
d="M387 508v-117q68 6 98 6q112 0 173.5 -48.5t61.5 -138.5q0 -115 -94 -169q-74 -41 -202 -41h-254v34q42 3 57.5 10t21.5 26.5t6 68.5v430q0 26 -5 31.5t-31 5.5h-42q-41 0 -58.5 -8t-31.5 -33q-18 -31 -34 -87l-34 3q2 34 4.5 73t4.5 64t2 32h441v-35q-42 -3 -57 -10
t-21 -26.5t-6 -70.5zM387 349v-233q0 -40 15.5 -56.5t50.5 -16.5q46 0 84 36.5t38 119.5q0 80 -37.5 117t-102.5 37q-28 0 -48 -4z" />
    <glyph glyph-name="afii10045" unicode="&#x42b;" horiz-adv-x="926" 
d="M253 508v-115q42 5 100 5q107 0 168.5 -48.5t61.5 -137.5q0 -116 -95 -170q-73 -42 -204 -42h-248v35q58 5 71.5 21.5t13.5 85.5v368q0 68 -13 84t-69 21v35h302v-35q-44 -3 -60 -10.5t-22 -27t-6 -69.5zM888 0h-299v35q56 5 69.5 21t13.5 82v380q0 62 -13.5 77t-69.5 20
v35h299v-35q-56 -5 -69 -20t-13 -79v-380q0 -64 13 -80t69 -21v-35zM315 41h1q47 0 84.5 38t37.5 124q0 151 -142 151q-20 0 -43 -3v-214q0 -53 15 -74.5t47 -21.5z" />
    <glyph glyph-name="afii10046" unicode="&#x42c;" horiz-adv-x="623" 
d="M253 506v-113q57 5 104 5q107 0 168.5 -48.5t61.5 -137.5q0 -117 -95 -171q-74 -41 -207 -41h-249v35q58 5 71.5 21t13.5 84v368q0 68 -13.5 85t-68.5 22v35h300v-35q-59 -5 -72.5 -21.5t-13.5 -87.5zM315 42h1q50 0 88 38.5t38 121.5q0 82 -39 117t-100 35q-27 0 -50 -3
v-218q0 -53 14.5 -72t47.5 -19z" />
    <glyph glyph-name="afii10047" unicode="&#x42d;" horiz-adv-x="664" 
d="M82 447l-35 7q4 33 13.5 88t11.5 73q7 2 56.5 18t87.5 23.5t79 7.5q73 0 132 -20.5t95 -52.5t60.5 -75t34 -85t9.5 -85q0 -85 -24.5 -151.5t-61 -105t-85 -63t-91 -33t-84.5 -8.5q-137 0 -210 76q-46 48 -46 91q0 17 11.5 29t26.5 12q27 0 48 -41q58 -125 169 -125
q84 0 141 78t58 210l-334 -8v63l332 -9q-3 73 -22.5 127t-49.5 82t-61.5 40.5t-65.5 12.5q-46 0 -81 -16t-57 -45.5t-34 -54.5t-23 -60z" />
    <glyph glyph-name="afii10048" unicode="&#x42e;" horiz-adv-x="1016" 
d="M254 369h117q14 125 92.5 210.5t212.5 85.5q128 0 215 -93.5t87 -240.5q0 -159 -84 -252.5t-217 -93.5q-136 0 -222.5 95t-87.5 238h-113v-184q0 -64 13 -79t68 -20v-35h-296v35q56 5 69.5 20t13.5 79v382q0 63 -13.5 78.5t-69.5 20.5v35h296v-35q-55 -5 -68 -20t-13 -79
v-147zM664 624h-1q-62 0 -103.5 -76t-41.5 -206q0 -140 46.5 -228t121.5 -88q62 0 101.5 68.5t39.5 209.5q0 149 -46.5 234.5t-116.5 85.5z" />
    <glyph glyph-name="afii10049" unicode="&#x42f;" horiz-adv-x="673" 
d="M634 650v-35q-56 -5 -69 -22.5t-13 -89.5v-355q0 -72 14 -90t72 -23v-35h-297v35q54 5 67 23t13 90v145h-21q-44 0 -74 -54q-14 -24 -40 -79.5t-37 -76.5q-23 -46 -55 -64.5t-95 -18.5h-88v33q50 6 69 29q7 8 14.5 20.5t14 24.5t19.5 37.5t23 44.5q30 57 58 85t62 37h1
q-81 8 -126 52.5t-45 110.5q0 87 63 131.5t179 44.5h291zM421 334v228q0 28 -11 37t-44 9q-50 0 -88 -33.5t-38 -103.5q0 -137 156 -137h25z" />
    <glyph glyph-name="afii10065" unicode="&#x430;" horiz-adv-x="466" 
d="M465 45l-109 -57q-38 0 -61 21q-17 15 -25 36q-87 -57 -105 -57q-60 0 -97.5 39t-37.5 89q0 38 18 59t58 37q13 5 45 16.5t49.5 18t37 15.5t27.5 16v30q0 46 -16.5 72t-43.5 26q-21 0 -34 -18q-15 -19 -28 -69q-9 -34 -42 -34q-21 0 -42 15.5t-21 34.5q0 21 35 48
q82 56 166 71q59 0 98 -29q52 -39 52 -132v-165q0 -59 32 -59q16 0 34 8zM265 79v160q-5 -3 -24 -14t-31 -17q-47 -24 -47 -69q0 -37 19.5 -56.5t40.5 -19.5t42 16z" />
    <glyph glyph-name="afii10066" unicode="&#x431;" horiz-adv-x="512" 
d="M145 398l2 -2q64 58 132 58h1q94 0 148 -63t54 -154q0 -119 -67.5 -184t-161.5 -65q-103 0 -163.5 76t-59.5 197q0 146 89 260q60 79 137 114q39 21 89 35q68 18 90 36q13 10 13 -5q0 -86 -61 -123q-41 -23 -119 -34q-89 -14 -111 -45q-24 -34 -12 -101zM251 412h-1
q-27 0 -57 -33q-27 -30 -27 -113q0 -109 27.5 -173.5t69.5 -64.5q35 0 56 38t21 148q0 92 -25 145t-64 53z" />
    <glyph glyph-name="afii10067" unicode="&#x432;" horiz-adv-x="522" 
d="M348 245v-2q145 -16 145 -108q0 -71 -66.5 -103t-175.5 -32h-227v32q47 4 58 17.5t11 63.5v230q0 41 -10.5 54t-49.5 15v30h282q148 0 148 -98q0 -76 -115 -99zM218 255h18q50 0 73 18t23 57q0 76 -78 76q-21 0 -28.5 -7t-7.5 -27v-117zM218 219v-118q0 -38 11 -51
t38 -13q35 0 62 24t27 70q0 88 -114 88h-24z" />
    <glyph glyph-name="afii10068" unicode="&#x433;" horiz-adv-x="413" 
d="M401 295l-33 -2q-11 43 -28 80q-12 29 -56 29h-37q-18 0 -22 -4.5t-4 -24.5v-273q0 -40 12 -52t63 -16v-32h-268v32q44 4 54.5 16t10.5 52v244q0 40 -11 51.5t-56 14.5v32h371q0 -64 4 -147z" />
    <glyph glyph-name="afii10069" unicode="&#x434;" horiz-adv-x="504" 
d="M479 442v-32q-47 -3 -58 -13.5t-11 -46.5v-246q0 -41 6.5 -52t28.5 -11h40l-21 -195h-39l-11 81q-6 45 -18.5 59t-46.5 14h-212q-27 0 -37 -13t-22 -58l-21 -83h-36v195h33q17 1 24 16q17 43 28 101q18 84 18 202q0 23 -8 32.5t-34 13.5l-32 4v32h429zM282 101v265
q0 26 -6.5 31t-34.5 5h-34q-21 0 -27 -6.5t-6 -26.5q-2 -197 -34 -312q-2 -10 1 -13.5t16 -3.5h76q35 0 42 8.5t7 52.5z" />
    <glyph glyph-name="afii10070" unicode="&#x435;" horiz-adv-x="437" 
d="M400 123l17 -24q-40 -60 -89.5 -85.5t-90.5 -25.5q-97 0 -152 61.5t-55 152.5q0 107 74 181q71 71 153 71h1q68 0 115.5 -49t47.5 -112q-2 -32 -29 -36q-50 -8 -239 -16q3 -77 40.5 -119t94.5 -42q62 0 112 43zM238 414h-1q-30 0 -52.5 -34t-27.5 -92q23 1 62.5 2t57.5 1
q12 0 16.5 4t4.5 16q1 40 -16 71.5t-44 31.5z" />
    <glyph glyph-name="afii10072" unicode="&#x436;" horiz-adv-x="760" 
d="M751 0h-89q-41 0 -66.5 11t-46.5 48q-13 23 -31.5 66.5t-19.5 46.5q-22 50 -56 49v-123q0 -40 9.5 -51t49.5 -15v-32h-242v32q40 4 50 15t10 51v123q-40 2 -64 -49q-8 -16 -24 -54.5t-25 -58.5q-18 -38 -43 -48.5t-67 -10.5h-86v32q28 1 43.5 14.5t38.5 54.5
q47 85 63 108q28 36 76 46v5q-18 13 -50 55q-43 63 -85 63h-19q-38 0 -38 33q0 18 15 30t37 12q44 0 89 -64q54 -81 69 -97q37 -37 70 -38v90q0 40 -9 51t-46 15v32h232v-32q-37 -4 -45.5 -15t-8.5 -51v-90q34 1 70 36q9 9 70 98q46 65 88 65q25 0 38 -12.5t13 -31.5
q0 -33 -36 -33h-23q-40 0 -85 -63q-26 -37 -46 -53v-5q46 -10 75 -48q21 -27 62 -106q22 -41 38 -54.5t45 -14.5v-32z" />
    <glyph glyph-name="afii10073" unicode="&#x437;" horiz-adv-x="429" 
d="M262 245v-2q137 -18 137 -113q0 -66 -61.5 -104t-155.5 -38q-83 0 -133 43q-30 25 -30 56q0 20 12 30.5t26 10.5q24 0 50 -41q32 -60 81 -59q31 1 49.5 25.5t18.5 69.5q0 40 -15.5 64.5t-48.5 24.5q-8 0 -25.5 -4.5t-29.5 -4.5q-16 0 -27.5 9t-11.5 24q0 14 12.5 23
t29.5 9q13 0 30 -4t27 -4q46 0 46 66q0 40 -17.5 63.5t-48.5 23.5q-66 0 -101 -113l-34 9l14 104q71 41 148 41q84 0 128 -31t44 -86q0 -33 -33 -58q-27 -21 -81 -34z" />
    <glyph glyph-name="afii10074" unicode="&#x438;" horiz-adv-x="586" 
d="M558 442v-29q-45 -4 -55 -15.5t-10 -51.5v-246q0 -41 10 -52.5t55 -15.5v-32h-243v32q37 4 46.5 15.5t9.5 50.5v131q0 54 4 130h-2l-142 -323q-6 -15 -6 -29v-7h-198v32q45 4 55 15t10 52v244q0 42 -10 53.5t-54 15.5v30h242v-30q-37 -4 -46.5 -15.5t-9.5 -50.5v-110
q0 -76 -4 -146h2l142 325q6 16 6 21v6h198z" />
    <glyph glyph-name="afii10075" unicode="&#x439;" horiz-adv-x="586" 
d="M558 442v-29q-45 -4 -55 -15.5t-10 -51.5v-246q0 -41 10 -52.5t55 -15.5v-32h-243v32q37 4 46.5 15.5t9.5 50.5v131q0 54 4 130h-2l-142 -323q-6 -15 -6 -29v-7h-198v32q45 4 55 15t10 52v244q0 42 -10 53.5t-54 15.5v30h242v-30q-37 -4 -46.5 -15.5t-9.5 -50.5v-110
q0 -76 -4 -146h2l142 325q6 16 6 21v6h198zM293 552h1q26 0 38 9t10 26q0 4 -2 12t-2 10q-4 19 6.5 33.5t32.5 14.5t33.5 -15.5t11.5 -36.5q0 -43 -33.5 -69t-95.5 -26q-61 0 -94.5 26t-33.5 68q0 22 11.5 37.5t34.5 15.5q24 0 33.5 -14.5t3.5 -33.5l-3 -21q-2 -18 10.5 -27
t37.5 -9z" />
    <glyph glyph-name="afii10076" unicode="&#x43a;" horiz-adv-x="533" 
d="M524 0h-90q-20 0 -32.5 1.5t-28 7t-28 18t-22.5 32.5q-12 22 -30.5 64t-21.5 48q-24 52 -54 49v-121q0 -41 10 -52t55 -15v-32h-256v32q45 4 55.5 15t10.5 52v245q0 41 -9.5 51t-53.5 14v33h248v-33q-41 -4 -50.5 -14.5t-9.5 -50.5v-90q34 2 68 36q7 7 68 97q43 66 89 66
q25 0 38.5 -12t13.5 -31q0 -34 -35 -34h-22q-24 0 -43 -15t-43 -47q-26 -37 -48 -54v-5q54 -14 81 -49q12 -15 59 -104q23 -41 38 -55t43 -15v-32z" />
    </font>
</defs>
</svg>
