<?xml version="1.0" standalone="no"?>
<!DOCTYPE svg PUBLIC "-//W3C//DTD SVG 1.1//EN" "http://www.w3.org/Graphics/SVG/1.1/DTD/svg11.dtd" >
<svg xmlns="http://www.w3.org/2000/svg" xmlns:xlink="http://www.w3.org/1999/xlink" version="1.1">
<metadata>
Created by FontForge 20170731 at Tue Dec 13 20:00:09 2005
 By ,,,
2005 Erik Spiekermann published by FSI Fonts und Software GmbH
</metadata>
<defs>
<font id="MetaPro-Normal" horiz-adv-x="270" >
  <font-face 
    font-family="MetaPro-Normal"
    font-weight="400"
    font-stretch="normal"
    units-per-em="1000"
    panose-1="2 0 5 3 4 0 0 2 0 4"
    ascent="754"
    descent="-246"
    x-height="498"
    cap-height="686"
    bbox="-157 -281 1356 948"
    underline-thickness="50"
    underline-position="-200"
    unicode-range="U+000D-FB06"
  />
<missing-glyph horiz-adv-x="556" 
d="M76 0v686h404v-686h-404zM126 50h304v586h-304v-586z" />
    <glyph glyph-name="IJ" unicode="IJ" horiz-adv-x="529" 
d="M170 0h-80v686h80v-686zM439 117q0 -67 -5 -98.5t-20 -58.5q-34 -60 -116 -88l-40 51q57 23 82 67q17 30 17 125v571h82v-569z" />
    <glyph glyph-name="ij" unicode="ij" horiz-adv-x="493" 
d="M171 0h-81v496l81 13v-509zM193 652q0 -26 -17.5 -43.5t-43.5 -17.5q-25 0 -43 17.5t-18 42.5q0 26 18 44t43 18q26 0 43.5 -17.5t17.5 -43.5zM403 10q0 -76 -14 -110q-27 -64 -102 -98l-39 52q48 21 61.5 55.5t13.5 107.5v477l80 16v-500zM424 652q0 -26 -18 -43.5
t-43 -17.5t-43 17.5t-18 43.5t18 43.5t43 17.5t43 -17.5t18 -43.5z" />
    <glyph glyph-name="uniFB00" unicode="ff" horiz-adv-x="582" 
d="M627 695l-29 -55q-40 23 -74 23q-68 0 -68 -88v-77h138l-24 -59h-114v-439h-82v439h-197v-439h-82v439h-48v59h48v78q0 80 55 122q35 26 88 26q66 0 110 -29l-29 -55q-40 23 -74 23q-68 0 -68 -88v-77h197v78q0 80 55 122q35 26 88 26q66 0 110 -29z" />
    <glyph glyph-name="fi" unicode="fi" horiz-adv-x="564" 
d="M471 0h-83v439h-211v-439h-82v439h-48v59h48v78q0 80 55 122q35 26 88 26q66 0 110 -29l-29 -55q-40 23 -74 23q-68 0 -68 -88v-77h294v-498zM491 651q0 -25 -17.5 -43t-43.5 -18q-25 0 -43 17.5t-18 42.5q0 26 18 44t43 18q26 0 43.5 -18t17.5 -43z" />
    <glyph glyph-name="fl" unicode="fl" horiz-adv-x="556" 
d="M348 695l-29 -55q-40 23 -74 23q-68 0 -68 -88v-77h138l-24 -59h-114v-439h-82v439h-48v59h48v78q0 80 55 122q35 26 88 26q66 0 110 -29zM515 1q-24 -11 -50 -11q-37 0 -59 21q-24 21 -24 71v491q0 96 -14 143l81 16q12 -33 12 -159v-473q0 -29 6 -39.5t22 -10.5l10 2z
" />
    <glyph glyph-name="uniFB03" unicode="ffi" horiz-adv-x="843" 
d="M750 0h-83v439h-211v-439h-82v439h-197v-439h-82v439h-48v59h48v78q0 80 55 122q35 26 88 26q66 0 110 -29l-29 -55q-40 23 -74 23q-68 0 -68 -88v-77h197v78q0 80 55 122q35 26 88 26q66 0 110 -29l-29 -55q-40 23 -74 23q-68 0 -68 -88v-77h294v-498zM770 652
q0 -26 -18 -43.5t-43 -17.5t-43 17.5t-18 42.5q0 26 18 44t43 18t43 -17.5t18 -43.5z" />
    <glyph glyph-name="uniFB04" unicode="ffl" horiz-adv-x="835" 
d="M627 695l-29 -55q-40 23 -74 23q-68 0 -68 -88v-77h138l-24 -59h-114v-439h-82v439h-197v-439h-82v439h-48v59h48v78q0 80 55 122q35 26 88 26q66 0 110 -29l-29 -55q-40 23 -74 23q-68 0 -68 -88v-77h197v78q0 80 55 122q35 26 88 26q66 0 110 -29zM794 1
q-24 -11 -50 -11q-36 0 -59 21q-24 21 -24 71v491q0 97 -15 143l81 16q13 -44 13 -159v-473q0 -29 6 -39.5t22 -10.5l10 2z" />
    <glyph glyph-name=".notdef" horiz-adv-x="556" 
d="M76 0v686h404v-686h-404zM126 50h304v586h-304v-586z" />
    <glyph glyph-name=".null" horiz-adv-x="0" 
 />
    <glyph glyph-name=".null" horiz-adv-x="0" 
 />
    <glyph glyph-name="nonmarkingreturn" horiz-adv-x="333" 
 />
    <glyph glyph-name="CR" unicode="&#xd;" horiz-adv-x="230" 
 />
    <glyph glyph-name="space" unicode=" " horiz-adv-x="230" 
 />
    <glyph glyph-name="exclam" unicode="!" horiz-adv-x="292" 
d="M194 699l-19 -501h-60l-19 488zM207 56q0 -26 -18 -44.5t-43 -18.5t-43 18t-18 44q0 25 17.5 43t43.5 18q25 0 43 -17.5t18 -42.5z" />
    <glyph glyph-name="quotedbl" unicode="&#x22;" horiz-adv-x="409" 
d="M314 468h-72v240h72v-240zM167 468h-72v240h72v-240z" />
    <glyph glyph-name="numbersign" unicode="#" horiz-adv-x="566" 
d="M531 431h-107l-21 -152h98v-66h-108l-30 -213h-67l30 213h-126l-30 -213h-67l30 213h-98v66h108l20 152h-98v66h108l30 211h67l-30 -211h126l30 211h67l-30 -211h98v-66zM357 431h-126l-21 -152h126z" />
    <glyph glyph-name="dollar" unicode="$" horiz-adv-x="579" 
d="M524 194q0 -74 -57 -133.5t-142 -70.5v-97h-59v94q-110 0 -211 62l36 64q83 -59 175 -59v269l-25 8q-92 30 -122 61q-43 46 -43 112q0 80 52 133t138 62v84h59v-83q96 -8 180 -65l-36 -59q-80 52 -144 57v-239l33 -10q83 -26 121 -69q45 -51 45 -121zM433 182
q0 84 -108 122v-246q48 8 78 42.5t30 81.5zM266 412v219q-48 -8 -74.5 -36.5t-26.5 -73.5q0 -39 23.5 -64t77.5 -45z" />
    <glyph glyph-name="percent" unicode="%" horiz-adv-x="858" 
d="M813 156q0 -77 -43 -121.5t-118 -44.5t-118 46t-43 126t42.5 125t117.5 45q81 0 121.5 -47.5t40.5 -128.5zM367 515q0 -77 -43 -121.5t-118 -44.5t-118 46t-43 126t42.5 125t117.5 45q81 0 121.5 -47.5t40.5 -128.5zM631 681l-333 -681h-66l333 681h66zM300 511
q0 56 -19.5 90.5t-76.5 34.5q-91 0 -91 -107q0 -64 22 -94.5t74 -30.5q43 0 67 27.5t24 79.5zM746 152q0 56 -19.5 90.5t-76.5 34.5q-91 0 -91 -107q0 -64 22 -94.5t74 -30.5q43 0 67 27.5t24 79.5z" />
    <glyph glyph-name="ampersand" unicode="&#x26;" horiz-adv-x="684" 
d="M664 0h-104l-67 65q-30 -37 -83 -58.5t-113 -21.5q-106 0 -169 51t-63 134q0 61 34.5 100.5t105.5 73.5q-97 87 -97 154q0 68 53 113t125 45q78 0 131 -41.5t53 -112.5q0 -54 -33.5 -89t-109.5 -76l161 -159q19 40 17 154h69q0 -83 -9 -126t-28 -80zM450 110l-198 193
q-101 -48 -101 -139q0 -53 40 -85.5t108 -32.5q48 0 89.5 18.5t61.5 45.5zM384 503q0 42 -27 69t-70 27q-39 0 -67 -23t-28 -68q0 -29 17.5 -54.5t72.5 -73.5q56 27 79 56t23 67z" />
    <glyph glyph-name="quotesingle" unicode="'" horiz-adv-x="262" 
d="M167 468h-72v240h72v-240z" />
    <glyph glyph-name="parenleft" unicode="(" horiz-adv-x="325" 
d="M350 -115l-22 -40q-63 24 -113.5 78t-79.5 128q-40 104 -40 270q0 226 95 344q60 75 138 105l19 -38q-56 -33 -92 -75t-54 -104q-26 -93 -26 -230q0 -221 60 -326q41 -71 115 -112z" />
    <glyph glyph-name="parenright" unicode=")" horiz-adv-x="325" 
d="M230 296q0 -226 -95 -344q-60 -75 -138 -105l-19 38q56 33 92 75t54 104q26 93 26 230q0 221 -60 326q-41 71 -115 112l22 40q63 -24 113.5 -78t79.5 -128q40 -104 40 -270z" />
    <glyph glyph-name="asterisk" unicode="*" horiz-adv-x="472" 
d="M427 549l-141 -48l89 -119l-49 -38l-90 123l-87 -123l-50 38l87 119l-141 48l19 58l142 -48v149h60v-149l142 48z" />
    <glyph glyph-name="plus" unicode="+" horiz-adv-x="538" 
d="M483 214h-178v-178h-72v178h-178v72h178v178h72v-178h178v-72z" />
    <glyph glyph-name="comma" unicode="," horiz-adv-x="290" 
d="M215 29q0 -52 -38 -103q-31 -40 -84 -69l-28 44q59 29 67 89q-4 -1 -11 -1q-23 0 -39 19t-16 45q0 30 20.5 51t49.5 21q35 0 57 -27t22 -69z" />
    <glyph glyph-name="hyphen" unicode="-" horiz-adv-x="301" 
d="M246 229h-191v76h191v-76z" />
    <glyph glyph-name="period" unicode="." horiz-adv-x="284" 
d="M209 56q0 -28 -19.5 -48.5t-46.5 -20.5q-28 0 -48 20t-20 49q0 28 19 47t47 19q29 0 48.5 -19t19.5 -47z" />
    <glyph glyph-name="slash" unicode="/" horiz-adv-x="455" 
d="M390 757l-259 -905h-66l259 905h66z" />
    <glyph glyph-name="zero" unicode="0" horiz-adv-x="578" 
d="M513 254q0 -121 -60.5 -191t-162.5 -70q-107 0 -166 70.5t-59 194.5q0 121 60.5 191t162.5 70q107 0 166 -70.5t59 -194.5zM431 241q0 112 -34 162.5t-110 50.5q-140 0 -140 -183q0 -112 34 -162.5t110 -50.5q140 0 140 183z" />
    <glyph glyph-name="one" unicode="1" horiz-adv-x="434" 
d="M379 0h-263v63h92v349q-37 -24 -136 -64l-17 43l171 116h61v-444h92v-63z" />
    <glyph glyph-name="two" unicode="2" horiz-adv-x="552" 
d="M477 64l-16 -64h-382v63q44 32 77 60l121 101q48 40 66 70.5t18 68.5q0 42 -27.5 64.5t-78.5 22.5q-70 0 -158 -65l-32 40q107 93 210 93q79 0 129 -38.5t50 -105.5q0 -60 -45 -114t-157 -135l-90 -65q48 4 103 4h212z" />
    <glyph glyph-name="three" unicode="3" horiz-adv-x="526" 
d="M461 51q0 -54 -32 -102t-81 -77q-92 -54 -227 -54l-49 3l-18 53q22 -3 62 -3q129 0 193 57t64 130q0 60 -44 92q-41 30 -124 30h-46v56q87 0 110 3q89 13 89 103q0 49 -33 78.5t-86 29.5q-74 0 -159 -59l-35 41q101 83 208 83q83 0 136.5 -45.5t53.5 -117.5
q0 -53 -32.5 -92.5t-88.5 -55.5q64 -15 101.5 -57t37.5 -96z" />
    <glyph glyph-name="four" unicode="4" horiz-adv-x="545" 
d="M500 0h-55l-27 1q1 -16 1 -29v-148l-77 -23v160l1 40q-27 -1 -40 -1h-258v62l230 450h87l-191 -374l-44 -79q20 3 39 3h177v29q0 34 4 90l10 140l62 19v-201l-1 -78q18 2 33 2h49v-63z" />
    <glyph glyph-name="five" unicode="5" horiz-adv-x="502" 
d="M437 53q0 -106 -84.5 -172t-204.5 -66q-37 0 -74 10l-14 60q33 -14 75 -14q91 0 153.5 53t62.5 129q0 62 -39.5 96t-109.5 34q-78 0 -127 -22l32 337h296l-12 -66h-213l-17 -194q35 5 68 5q90 0 149 -50t59 -140z" />
    <glyph glyph-name="six" unicode="6" horiz-adv-x="575" 
d="M510 201q0 -93 -63 -155.5t-157 -62.5q-102 0 -163.5 74.5t-61.5 197.5q0 148 96 263q106 125 270 174l19 -50q-78 -24 -141 -71.5t-97 -101.5q-15 -24 -27 -54.5t-16 -49.5l-4 -19q25 24 65 38t81 14q78 0 138.5 -53t60.5 -144zM420 199q0 67 -35 103t-90 36
q-68 0 -135 -53q-3 -27 -3 -51q0 -95 35 -141q36 -49 98 -49q60 0 95 42t35 113z" />
    <glyph glyph-name="seven" unicode="7" horiz-adv-x="505" 
d="M470 498l-19 -79q-100 -138 -179 -289q-84 -162 -110 -287l-96 -25q16 109 140 343q99 182 185 273q-57 -2 -92 -2h-264l19 66h416z" />
    <glyph glyph-name="eight" unicode="8" horiz-adv-x="578" 
d="M513 180q0 -81 -62.5 -137.5t-163.5 -56.5q-103 0 -162.5 52t-59.5 130q0 67 41.5 110.5t99.5 65.5q-56 26 -87 66.5t-31 88.5q0 75 56 120.5t155 45.5q86 0 139 -42t53 -110q0 -59 -36.5 -96t-98.5 -65q28 -13 35 -16t31 -15.5t31 -19t23 -21t21 -27.5t10.5 -32t5.5 -41
zM431 161q0 49 -24 74q-27 28 -152 85q-55 -30 -82.5 -61t-27.5 -86q0 -59 40.5 -95t107.5 -36q61 0 99.5 33t38.5 86zM415 507q0 46 -34 73.5t-92 27.5q-57 0 -91 -27.5t-34 -74.5q0 -36 27.5 -67.5t108.5 -62.5q115 61 115 131z" />
    <glyph glyph-name="nine" unicode="9" horiz-adv-x="573" 
d="M508 269q0 -83 -33.5 -167t-92.5 -152q-56 -65 -138.5 -107.5t-148.5 -49.5l-40 48q52 5 114.5 36.5t112.5 74.5q80 69 116 170q-24 -17 -60 -29.5t-68 -12.5q-87 0 -143.5 59t-56.5 150q0 95 64.5 159.5t159.5 64.5q92 0 153 -66.5t61 -177.5zM422 268q0 82 -36.5 132.5
t-96.5 50.5q-59 0 -95.5 -44.5t-36.5 -115.5t33 -111t90 -40q69 0 134 55q8 37 8 73z" />
    <glyph glyph-name="colon" unicode=":" horiz-adv-x="304" 
d="M219 56q0 -28 -19.5 -48t-48.5 -20q-28 0 -47 19.5t-19 47.5q0 29 19.5 48.5t48.5 19.5q27 0 46.5 -19.5t19.5 -47.5zM219 372q0 -28 -19.5 -48t-47.5 -20t-47.5 19t-19.5 47q0 29 20 49t48 20q27 0 46.5 -19.5t19.5 -47.5z" />
    <glyph glyph-name="semicolon" unicode=";" horiz-adv-x="320" 
d="M235 29q0 -52 -38 -103q-31 -40 -84 -69l-28 44q59 29 67 89q-4 -1 -11 -1q-23 0 -39 19t-16 45q0 30 20.5 51t49.5 21q35 0 57 -27t22 -69zM220 372q0 -29 -19.5 -49t-47.5 -20t-48 21t-20 50q0 26 19.5 45t47.5 19t48 -19.5t20 -46.5z" />
    <glyph glyph-name="less" unicode="&#x3c;" horiz-adv-x="327" 
d="M282 86l-66 -43l-191 257l191 257l66 -43l-160 -214z" />
    <glyph glyph-name="equal" unicode="=" horiz-adv-x="632" 
d="M577 348h-522v66h522v-66zM577 192h-522v66h522v-66z" />
    <glyph glyph-name="greater" unicode="&#x3e;" horiz-adv-x="328" 
d="M303 300l-192 -257l-66 43l160 214l-160 214l66 43z" />
    <glyph glyph-name="question" unicode="?" horiz-adv-x="438" 
d="M383 548q0 -23 -7 -45t-16.5 -37.5t-23.5 -30.5t-23.5 -22.5t-21.5 -16.5t-13 -10q-69 -55 -44 -164h-67q-31 127 47 201q10 9 30 24t30.5 25t20 29t9.5 43q0 37 -25.5 60t-64.5 23q-61 0 -136 -46l-33 55q77 59 184 59q69 0 111.5 -40t42.5 -107zM275 55
q0 -29 -19.5 -49t-47.5 -20t-48 20.5t-20 48.5t19.5 47.5t47.5 19.5t48 -19.5t20 -47.5z" />
    <glyph glyph-name="at" unicode="@" horiz-adv-x="921" 
d="M856 277q0 -129 -64 -210t-153 -81q-63 0 -87.5 35.5t-16.5 81.5q-24 -43 -68.5 -74t-92.5 -31q-45 0 -78 37.5t-33 105.5q0 128 70.5 220t193.5 92q64 0 123 -32q-14 -50 -23 -92l-38 -181q-13 -60 -0.5 -84.5t53.5 -24.5q60 0 101.5 69.5t41.5 168.5q0 126 -88 210
t-228 84q-146 0 -239 -109.5t-93 -257.5q0 -138 90.5 -226t223.5 -88q80 0 137 19l13 -54q-60 -20 -150 -20q-105 0 -191.5 41.5t-140.5 127t-54 200.5q0 178 115 299.5t289 121.5q166 0 276.5 -96t110.5 -252zM571 387q-23 14 -51 14q-63 0 -107.5 -43.5t-62 -101
t-17.5 -119.5q0 -43 15 -61.5t47 -18.5q40 0 81 37.5t55 103.5z" />
    <glyph glyph-name="A" unicode="A" horiz-adv-x="583" 
d="M573 0h-93l-65 211h-256l-66 -211h-83l229 686h107zM394 278l-105 336l-108 -336h213z" />
    <glyph glyph-name="B" unicode="B" horiz-adv-x="609" 
d="M544 188q0 -57 -28.5 -103t-78.5 -65q-30 -11 -61.5 -15.5t-103.5 -4.5h-177v686h99q100 0 138.5 -3t65.5 -12q53 -18 85 -61.5t32 -95.5q0 -53 -32 -92t-91 -58q58 -11 90 -36q62 -47 62 -140zM458 195q0 45 -23 79.5t-60 41.5q-33 7 -80 7h-121v-256h146q73 0 105.5 32
t32.5 96zM424 503q0 40 -21.5 69.5t-56.5 38.5q-23 6 -75 6h-97v-226h119q55 0 80 12t40 47q11 25 11 53z" />
    <glyph glyph-name="C" unicode="C" horiz-adv-x="573" 
d="M538 45q-86 -56 -191 -56q-120 0 -200 91q-82 93 -82 261q0 153 82 253.5t206 100.5q100 0 173 -56l-44 -53q-59 43 -130 43q-118 0 -169 -118q-29 -67 -29 -182q0 -90 22 -145q26 -63 75 -95.5t109 -32.5q72 0 134 44z" />
    <glyph glyph-name="D" unicode="D" horiz-adv-x="633" 
d="M568 342q0 -170 -78 -256q-44 -49 -92.5 -67.5t-123.5 -18.5h-179v686h137q85 0 128.5 -9.5t91.5 -43.5q116 -83 116 -291zM479 332q0 81 -13 132.5t-46 91.5q-32 38 -67.5 50.5t-93.5 12.5h-82v-551h82q64 0 106.5 14t67.5 58q46 79 46 192z" />
    <glyph glyph-name="E" unicode="E" horiz-adv-x="520" 
d="M480 0h-385v686h375l-11 -68h-281v-225h235v-71h-235v-251h302v-71z" />
    <glyph glyph-name="F" unicode="F" horiz-adv-x="441" 
d="M456 686l-13 -68h-265v-225h220v-67h-220v-326h-83v686h361z" />
    <glyph glyph-name="G" unicode="G" horiz-adv-x="639" 
d="M554 41q-80 -52 -193 -52q-131 0 -211 86q-85 92 -85 266q0 192 106 288q72 65 179 65q109 0 188 -68l-37 -51q-78 53 -149 53q-130 0 -171 -116q-27 -76 -27 -174q0 -138 48 -208q23 -33 69.5 -53t96.5 -20q66 0 109 27v209h-138l-16 68h231v-320z" />
    <glyph glyph-name="H" unicode="H" horiz-adv-x="641" 
d="M546 0h-82v332h-289v-332h-80v686h80v-287h289v287h82v-686z" />
    <glyph glyph-name="I" unicode="I" 
d="M175 0h-80v686h80v-686z" />
    <glyph glyph-name="J" unicode="J" horiz-adv-x="279" 
d="M184 117q0 -67 -5 -98.5t-20 -58.5q-34 -60 -116 -88l-40 51q57 23 82 67q17 30 17 125v571h82v-569z" />
    <glyph glyph-name="K" unicode="K" horiz-adv-x="556" 
d="M551 686l-276 -322l274 -364h-105l-262 363l264 323h105zM178 0h-83v686h83v-686z" />
    <glyph glyph-name="L" unicode="L" horiz-adv-x="463" 
d="M448 69l-11 -69h-342v686h82v-617h271z" />
    <glyph glyph-name="M" unicode="M" horiz-adv-x="806" 
d="M736 0h-82l-40 503q-5 72 -5 116q-1 -2 -5 -20t-10.5 -43.5t-11.5 -43.5l-147 -512h-70l-136 487q-28 92 -34 131q0 -4 -1.5 -28t-3.5 -54.5t-3 -47.5l-38 -488h-79l60 686h120l125 -448q19 -69 27 -119q15 75 25 111l129 456h121z" />
    <glyph glyph-name="N" unicode="N" horiz-adv-x="646" 
d="M551 0h-86l-220 420q-20 37 -39.5 78t-29.5 64l-9 23q8 -98 9 -187l4 -398h-85v686h95l228 -438q13 -24 64 -144l-1 12q-1 13 -2 34.5t-2.5 47t-2.5 57t-1 58.5l-3 373h81v-686z" />
    <glyph glyph-name="O" unicode="O" horiz-adv-x="681" 
d="M616 332q0 -99 -23.5 -165t-76.5 -114q-73 -66 -174 -66q-119 0 -195 87q-82 94 -82 272q0 163 73 257.5t200 94.5q141 0 216 -112q62 -92 62 -254zM524 320q0 149 -33 218q-20 42 -58.5 68t-94.5 26q-48 0 -88 -21.5t-59 -58.5q-35 -66 -35 -189q0 -164 44 -239
q19 -32 61 -53t85 -21q81 0 128 59q50 63 50 211z" />
    <glyph glyph-name="P" unicode="P" horiz-adv-x="548" 
d="M523 490q0 -107 -62 -163q-61 -54 -166 -54h-120v-273h-80v686h190q101 0 150 -32q88 -58 88 -164zM432 474q0 75 -40 109t-130 34h-87v-277h115q42 0 65.5 8.5t41.5 28.5q35 39 35 97z" />
    <glyph glyph-name="Q" unicode="Q" horiz-adv-x="681" 
d="M697 -50l-27 -65q-18 -9 -59 -9q-45 0 -131 52q-32 20 -45 27t-39 16t-61 16q-111 0 -187 87q-83 95 -83 272q0 163 73 257.5t200 94.5q144 0 216 -112q63 -99 63 -254q0 -98 -24 -164t-77 -115q-21 -19 -44 -33q18 -6 92 -47q48 -28 92 -28q28 0 41 5zM525 320
q0 147 -34 218q-45 94 -153 94q-47 0 -86 -22t-59 -58q-37 -67 -37 -189q0 -162 45 -239q19 -33 60 -53.5t86 -20.5q81 0 127 59q51 66 51 211z" />
    <glyph glyph-name="R" unicode="R" horiz-adv-x="556" 
d="M531 0h-103q-44 99 -175 266q-20 26 -35.5 34.5t-40.5 9.5v-310h-82v686h160q119 0 173 -44q68 -55 68 -144q0 -85 -50 -136.5t-132 -51.5h-10q31 -25 69 -77zM410 499q0 34 -19 63t-48 41q-34 14 -86 14h-79v-256h73q86 0 124 35q35 32 35 103z" />
    <glyph glyph-name="S" unicode="S" horiz-adv-x="579" 
d="M524 194q0 -49 -25 -92.5t-70 -72.5q-65 -42 -154 -42q-120 0 -220 62l36 64q82 -59 184 -59q69 0 109 30q49 37 49 98q0 91 -123 128l-69 21q-90 27 -122 61q-43 46 -43 112q0 88 61 142.5t161 54.5q110 0 207 -66l-36 -59q-50 32 -86.5 45t-80.5 13q-64 0 -100.5 -30
t-36.5 -83q0 -41 26.5 -66.5t87.5 -45.5l79 -25q83 -26 121 -69q45 -51 45 -121z" />
    <glyph glyph-name="T" unicode="T" horiz-adv-x="464" 
d="M479 686l-5 -69h-186v-617h-79v617h-184v69h454z" />
    <glyph glyph-name="U" unicode="U" horiz-adv-x="635" 
d="M545 198q0 -63 -11 -97t-41 -60q-62 -53 -180 -53q-79 0 -127 24t-76 75q-20 37 -20 107v492h81v-462q0 -71 12 -99q29 -67 134 -67q89 0 121 43q26 35 26 107v478h81v-488z" />
    <glyph glyph-name="V" unicode="V" horiz-adv-x="577" 
d="M562 686l-235 -686h-81l-231 686h89l145 -442q31 -93 40 -153q12 49 42 143l147 452h84z" />
    <glyph glyph-name="W" unicode="W" horiz-adv-x="822" 
d="M797 686l-157 -686h-107l-85 381q-32 145 -36 193q-1 -2 -5.5 -29.5t-12.5 -72.5t-17 -85l-84 -387h-106l-162 686h88l87 -401q7 -30 13.5 -67.5t11 -64.5t8.5 -50.5t4 -25.5q17 104 39 198l91 411h93l95 -426q25 -115 35 -183q0 1 2.5 14t6 33.5t8 46t11 57t12.5 60.5
l85 398h82z" />
    <glyph glyph-name="X" unicode="X" horiz-adv-x="546" 
d="M536 0h-99l-170 315l-161 -315h-96l203 368l-182 318h97l137 -254l131 254h96l-172 -312z" />
    <glyph glyph-name="Y" unicode="Y" horiz-adv-x="519" 
d="M524 686l-223 -419v-267h-85v272l-221 414h101l130 -262l35 -77q17 37 37 77l132 262h94z" />
    <glyph glyph-name="Z" unicode="Z" horiz-adv-x="518" 
d="M473 70l-21 -70h-407v63l293 489l44 66q-29 -1 -71 -1h-256l23 69h391v-70l-285 -481l-42 -66q28 1 59 1h272z" />
    <glyph glyph-name="bracketleft" unicode="[" horiz-adv-x="285" 
d="M260 -156h-165v888h165v-60h-93v-768h93v-60z" />
    <glyph glyph-name="backslash" unicode="\" horiz-adv-x="414" 
d="M389 -18l-63 -25l-301 769l63 24z" />
    <glyph glyph-name="bracketright" unicode="]" horiz-adv-x="285" 
d="M190 -156h-165v60h93v768h-93v60h165v-888z" />
    <glyph glyph-name="asciicircum" unicode="^" horiz-adv-x="636" 
d="M571 275h-74l-179 349l-179 -349h-74l223 433h60z" />
    <glyph glyph-name="underscore" unicode="_" horiz-adv-x="510" 
d="M505 -125h-500v50h500v-50z" />
    <glyph glyph-name="grave" unicode="`" horiz-adv-x="360" 
d="M305 612l-26 -47l-224 100l43 77z" />
    <glyph glyph-name="a" unicode="a" horiz-adv-x="529" 
d="M472 37l-40 -56q-54 17 -68 73q-36 -36 -69 -51.5t-75 -15.5q-84 0 -122 41.5t-38 100.5q0 85 69.5 132t194.5 47l35 -1v35q0 60 -16 78q-24 27 -67 27q-40 0 -87 -18t-72 -41l-39 56q100 67 209 67q106 0 138 -78q13 -31 11 -110l-4 -164q-2 -62 5.5 -84.5t34.5 -37.5z
M357 253q-26 2 -39 2q-91 0 -131 -30t-40 -89q0 -91 86 -91q38 0 71 21.5t50 56.5z" />
    <glyph glyph-name="b" unicode="b" horiz-adv-x="572" 
d="M507 256q0 -120 -54.5 -194t-143.5 -74q-38 0 -77 19t-60 47q-3 -32 -14 -54h-78q15 33 15 124v490q0 29 -3.5 54.5t-6.5 36.5l-3 11l78 15q13 -42 13 -118v-116l-2 -55q68 67 143 67q89 0 141 -68t52 -185zM420 261q0 94 -29 134q-30 43 -94 43q-36 0 -70 -18.5
t-55 -46.5v-256q20 -26 54 -43t69 -17q26 0 51.5 12.5t38.5 31.5q35 52 35 160z" />
    <glyph glyph-name="c" unicode="c" horiz-adv-x="469" 
d="M424 55q-65 -66 -152 -66q-106 0 -159 75q-48 70 -48 177q0 137 75 212q58 58 135 58q71 0 136 -54l-43 -54q-48 40 -95 40q-29 0 -55 -15.5t-39 -40.5q-28 -52 -28 -163q0 -84 31.5 -128.5t91.5 -44.5q62 0 107 54z" />
    <glyph glyph-name="d" unicode="d" horiz-adv-x="571" 
d="M491 0h-80q-10 25 -11 51q-51 -58 -132 -58q-97 0 -150 66.5t-53 185.5q0 160 103 231q45 31 96 31q88 0 135 -63q-1 41 -1 77v209l78 -13v-556q0 -121 15 -161zM397 127v264q-37 52 -121 52q-61 0 -93 -52q-32 -51 -32 -144q0 -94 20 -130q33 -58 100 -58q51 0 96 32
q9 7 16.5 16t10.5 15z" />
    <glyph glyph-name="e" unicode="e" horiz-adv-x="521" 
d="M466 236h-311v-12q0 -74 23 -109q40 -61 124 -61q71 0 122 47l30 -50q-68 -62 -168 -62q-103 0 -162 70.5t-59 194.5q0 117 60 188q59 69 149 69q83 0 135 -54q33 -33 45 -77.5t12 -132.5v-11zM383 295q-1 76 -23 111q-28 44 -90 44q-109 0 -115 -155h228z" />
    <glyph glyph-name="f" unicode="f" horiz-adv-x="303" 
d="M348 695l-29 -55q-40 23 -74 23q-68 0 -68 -88v-77h138l-24 -59h-114v-439h-82v439h-48v59h48v78q0 80 55 122q35 26 88 26q66 0 110 -29z" />
    <glyph glyph-name="g" unicode="g" horiz-adv-x="514" 
d="M514 454q-42 -30 -84 -30q-20 0 -34 6q30 -38 30 -85q0 -42 -20 -78.5t-54 -58.5t-93 -22q-90 -32 -90 -58q0 -24 40 -24h80q80 0 120 -28q55 -38 55 -105q0 -79 -52 -118t-146 -39q-111 0 -163.5 35t-52.5 92q0 24 10 53l82 7q-14 -22 -14 -45q0 -40 29 -58
q39 -23 101 -23q121 0 121 87q0 42 -27 60q-26 18 -98 18q-10 0 -40 -0.5t-37 -0.5q-44 0 -69 19t-25 53q0 31 20 50.5t70 34.5q-50 16 -81 55.5t-31 88.5q0 75 51 121.5t133 46.5q40 0 81.5 -14t70.5 -14q36 0 69 22zM335 344q0 52 -21.5 76t-70.5 24q-94 0 -94 -103
q0 -99 96 -99q90 0 90 102z" />
    <glyph glyph-name="h" unicode="h" horiz-adv-x="567" 
d="M472 0h-77v344q0 55 -19 74q-20 20 -58 20q-77 0 -145 -84v-354h-78v614q0 29 -3.5 54.5t-6.5 36.5l-3 11l78 15q13 -42 13 -118v-116l-3 -68q85 79 166 79q45 0 81.5 -22.5t46.5 -56.5q8 -27 8 -72v-357z" />
    <glyph glyph-name="i" unicode="i" horiz-adv-x="271" 
d="M176 0h-81v496l81 13v-509zM198 652q0 -26 -18 -43.5t-43 -17.5t-43 17.5t-18 42.5q0 26 18 44t43 18t43 -17.5t18 -43.5z" />
    <glyph glyph-name="j" unicode="j" 
d="M175 10q0 -76 -14 -110q-27 -64 -102 -98l-39 52q48 21 61.5 55.5t13.5 107.5v477l80 16v-500zM196 652q0 -26 -18 -43.5t-43 -17.5t-43 17.5t-18 43.5t18 43.5t43 17.5t43 -17.5t18 -43.5z" />
    <glyph glyph-name="k" unicode="k" horiz-adv-x="514" 
d="M173 0h-78v614q0 29 -3.5 54.5t-6.5 36.5l-3 11l78 15q13 -42 13 -118v-613zM509 0h-104l-229 282l190 216h98l-196 -216z" />
    <glyph glyph-name="l" unicode="l" horiz-adv-x="269" 
d="M228 1q-24 -11 -50 -11q-36 0 -59 21q-24 21 -24 71v528q0 29 -3 54.5t-6 36.5l-3 11l78 15q13 -42 13 -118v-509q0 -29 6 -39.5t22 -10.5l10 2z" />
    <glyph glyph-name="m" unicode="m" horiz-adv-x="812" 
d="M717 0h-80v368q0 73 -64 73q-31 0 -59 -18t-73 -59v-364h-79v354q0 46 -14 64q-17 20 -51 20q-54 0 -127 -66v-372h-75v386q0 32 -4.5 58.5t-8.5 37.5l-5 10l76 18q18 -39 18 -74q27 30 68 52.5t77 22.5q38 0 70.5 -22t45.5 -61q36 38 79 60.5t81 22.5q55 0 90 -38
t35 -97v-376z" />
    <glyph glyph-name="n" unicode="n" horiz-adv-x="556" 
d="M461 0h-79v337q0 39 -3.5 54.5t-14.5 28.5q-18 21 -55 21q-30 0 -70.5 -20.5t-67.5 -49.5v-371h-76v384q0 32 -4.5 58t-9.5 36l-5 11l76 21q18 -37 18 -78q77 77 157 77q40 0 73.5 -20t48.5 -53q12 -27 12 -58v-378z" />
    <glyph glyph-name="o" unicode="o" horiz-adv-x="549" 
d="M489 241q0 -121 -58.5 -187.5t-155.5 -66.5q-102 0 -158.5 70.5t-56.5 194.5q0 121 57 191t155 70q111 0 171 -87q46 -67 46 -185zM400 235q0 103 -23 150q-15 31 -44 47.5t-62 16.5t-61 -14.5t-41 -39.5q-24 -47 -24 -130q0 -112 31 -163q14 -23 41.5 -36.5t59.5 -13.5
q81 0 108 75q15 42 15 108z" />
    <glyph glyph-name="p" unicode="p" horiz-adv-x="569" 
d="M504 250q0 -106 -40 -172q-56 -91 -154 -91q-81 0 -137 58v-238l-78 -15v598q0 34 -2.5 60.5t-5.5 36.5l-3 10l80 14q5 -21 5 -76q62 73 147 73q83 0 133 -62q55 -68 55 -196zM421 240q0 94 -23 143q-12 25 -37 40t-55 15q-75 0 -133 -70v-251q57 -65 122 -65q34 0 63 17
t42 45q21 45 21 126z" />
    <glyph glyph-name="q" unicode="q" horiz-adv-x="569" 
d="M489 498q-15 -45 -15 -128v-557l-75 -16v259q-56 -65 -140 -65q-67 0 -114 40q-80 67 -80 203q0 135 47 199q58 80 149 80q78 0 141 -70q3 40 10 55h77zM399 135v237q-20 32 -55.5 51.5t-71.5 19.5q-70 0 -101 -61q-23 -45 -23 -130q0 -74 12 -109t35 -56q30 -29 83 -29
q80 0 121 77z" />
    <glyph glyph-name="r" unicode="r" horiz-adv-x="324" 
d="M339 508l-32 -85q-10 4 -22 4q-47 0 -83 -36q-17 -17 -23 -33t-6 -46v-312h-78v384q0 32 -4.5 58.5t-8.5 37.5l-4 10l78 21q2 -4 5 -12t7.5 -29t3.5 -40q27 38 64.5 60.5t75.5 22.5z" />
    <glyph glyph-name="s" unicode="s" horiz-adv-x="481" 
d="M426 148q0 -73 -52 -118t-136 -45q-101 0 -183 50l30 58q77 -47 158 -47q46 0 73.5 23t27.5 63q0 65 -82 82l-62 13q-61 13 -93.5 49t-32.5 88q0 67 49.5 110t127.5 43q82 0 152 -40l-29 -58q-75 36 -125 36q-43 0 -68.5 -22.5t-25.5 -59.5q0 -29 16.5 -46.5t55.5 -25.5
l66 -14q133 -28 133 -139z" />
    <glyph glyph-name="t" unicode="t" horiz-adv-x="320" 
d="M300 498l-24 -59h-104v-321q0 -42 14 -58t50 -16q29 0 49 10l11 -50q-38 -20 -88 -20q-35 0 -65 14q-48 23 -48 99v342h-65v59h65l8 126l82 18q-10 -78 -10 -144h125z" />
    <glyph glyph-name="u" unicode="u" horiz-adv-x="557" 
d="M496 32l-50 -53q-45 37 -54 80q-57 -76 -158 -76q-97 0 -131 71q-13 27 -13 74v366l77 15v-358q0 -36 6.5 -54t23.5 -30q25 -17 61 -17q37 0 72 25t55 65v353l77 13v-363q0 -46 7.5 -69.5t26.5 -41.5z" />
    <glyph glyph-name="v" unicode="v" horiz-adv-x="473" 
d="M458 498l-187 -503h-77l-179 499l80 17l116 -343l24 -85h2q8 39 24 84l114 331h83z" />
    <glyph glyph-name="w" unicode="w" horiz-adv-x="695" 
d="M675 498l-141 -502h-77l-99 350l-14 55h-2q-6 -35 -11 -51l-100 -354h-73l-138 498l78 17l80 -329l18 -83h3q7 36 17 72l89 327h85l87 -331l20 -73h2q10 49 15 69l79 335h82z" />
    <glyph glyph-name="x" unicode="x" horiz-adv-x="467" 
d="M462 0h-95l-135 212l-135 -212h-92l186 276l-154 222h96l99 -166l96 166h91l-148 -222z" />
    <glyph glyph-name="y" unicode="y" horiz-adv-x="459" 
d="M444 498l-171 -516q-27 -81 -63 -126.5t-98 -60.5l-23 53q48 15 71.5 46t43.5 107l-32 -5q-13 71 -50 179l-107 312l77 26l102 -323q7 -21 14.5 -52t11.5 -52l4 -20h2q19 64 31 105l98 327h89z" />
    <glyph glyph-name="z" unicode="z" horiz-adv-x="459" 
d="M414 60l-37 -60h-332v60l271 376h-250v62h332v-64l-259 -374h275z" />
    <glyph glyph-name="braceleft" unicode="{" horiz-adv-x="331" 
d="M306 -156h-70q-41 0 -73 34t-32 91v175q0 51 -26 82.5t-60 31.5v60q33 0 59.5 32t26.5 81v176q0 57 33 91t72 34h70v-60h-54q-49 0 -49 -79v-176q0 -59 -29 -90t-57 -38v-2q28 -4 57 -34t29 -95v-175q0 -79 49 -79h54v-60z" />
    <glyph glyph-name="bar" unicode="|" horiz-adv-x="256" 
d="M161 -208h-66v964h66v-964z" />
    <glyph glyph-name="braceright" unicode="}" horiz-adv-x="331" 
d="M286 258q-34 0 -60 -31.5t-26 -82.5v-175q0 -57 -32 -91t-73 -34h-70v60h54q49 0 49 79v175q0 65 29 95t57 34v2q-28 7 -57 38t-29 90v176q0 79 -49 79h-54v60h70q39 0 72 -34t33 -91v-176q0 -49 26.5 -81t59.5 -32v-60z" />
    <glyph glyph-name="asciitilde" unicode="~" horiz-adv-x="590" 
d="M525 324q-21 -29 -33.5 -43t-38 -29.5t-54.5 -15.5q-39 0 -110 34t-107 34q-52 0 -84 -70l-33 48q20 28 32.5 43t38 30t54.5 15q39 0 110.5 -34t106.5 -34q51 0 85 70z" />
    <glyph glyph-name="uni00A0" unicode="&#xa0;" horiz-adv-x="230" 
 />
    <glyph glyph-name="exclamdown" unicode="&#xa1;" horiz-adv-x="292" 
d="M196 -170l-98 -13l19 501h60zM207 461q0 -25 -17.5 -43t-43.5 -18q-25 0 -43 17.5t-18 42.5q0 26 18 44.5t43 18.5t43 -18t18 -44z" />
    <glyph glyph-name="cent" unicode="&#xa2;" horiz-adv-x="469" 
d="M424 55q-55 -57 -122 -64v-76h-55v75q-89 8 -134 74q-48 70 -48 177q0 137 75 212q48 48 107 55v78h55v-78q54 -7 109 -51l-43 -54q-39 32 -66 37v-386q46 10 79 51zM247 53v387q-47 -13 -68 -53q-28 -52 -28 -163q0 -151 96 -171z" />
    <glyph glyph-name="sterling" unicode="&#xa3;" horiz-adv-x="563" 
d="M538 658l-55 -59q-51 49 -108 49q-70 0 -99 -45t-29 -129v-78h162v-66h-162v-252h246v-78h-438v78h108v252h-96v66h96v80q0 124 58.5 184t155.5 60q99 0 161 -62z" />
    <glyph glyph-name="currency" unicode="&#xa4;" horiz-adv-x="457" 
d="M396 87l-64 -41l-41 63q-27 -10 -66 -10q-34 0 -64 11l-41 -64l-62 41l43 65q-37 45 -37 119q0 77 40 122l-44 63l68 40l38 -63q27 8 58 8q32 0 60 -10l37 65l64 -40l-42 -63q17 -12 30 -46.5t13 -81.5q0 -74 -35 -113zM319 261q0 62 -21.5 93.5t-74.5 31.5
q-91 0 -91 -107q0 -65 23 -95t73 -30q91 0 91 107z" />
    <glyph glyph-name="yen" unicode="&#xa5;" horiz-adv-x="539" 
d="M534 686l-166 -312h149v-59h-180l-26 -48v-48h206v-59h-206v-160h-85v160h-194v59h194v53l-23 43h-171v59h139l-166 312h101l130 -262l35 -77q20 44 37 77l132 262h94z" />
    <glyph glyph-name="brokenbar" unicode="&#xa6;" horiz-adv-x="256" 
d="M161 346h-66v410h66v-410zM161 -208h-66v410h66v-410z" />
    <glyph glyph-name="section" unicode="&#xa7;" horiz-adv-x="548" 
d="M483 282q0 -85 -86 -133q69 -45 69 -123q0 -81 -60.5 -125.5t-143.5 -44.5q-68 0 -120.5 31t-76.5 92l77 36q26 -87 126 -87q46 0 77 23t31 69q0 33 -20.5 51t-79.5 49l-122 64q-73 38 -73 122q0 91 101 140q-77 44 -77 118q0 76 57 119t135 43q57 0 105 -23.5t70 -70.5
l-75 -41q-11 31 -39.5 47t-63.5 16q-43 0 -74 -22t-31 -64q0 -49 44 -72l98 -49q36 -18 54 -28.5t45.5 -31.5t40 -47t12.5 -58zM399 270q0 20 -8.5 36.5t-25 30t-29.5 21.5t-34 18l-58 29q-20 -8 -30.5 -13.5t-25.5 -16t-22 -24.5t-7 -32t7 -33t22 -26.5t26 -17.5t31 -16
l89 -43q26 11 45.5 35.5t19.5 51.5z" />
    <glyph glyph-name="dieresis" unicode="&#xa8;" horiz-adv-x="420" 
d="M365 621q0 -22 -15 -37.5t-36 -15.5q-22 0 -37.5 15.5t-15.5 37.5q0 21 15 36t37 15q21 0 36.5 -15t15.5 -36zM158 621q0 -22 -14.5 -37.5t-36.5 -15.5t-37 15.5t-15 37.5q0 21 15 36t36 15q22 0 37 -15t15 -36z" />
    <glyph glyph-name="copyright" unicode="&#xa9;" horiz-adv-x="874" 
d="M809 354q0 -157 -109.5 -264.5t-262.5 -107.5q-154 0 -263 107.5t-109 264.5t109 264.5t263 107.5q153 0 262.5 -107.5t109.5 -264.5zM743 354q0 134 -89 226t-217 92q-129 0 -217.5 -91.5t-88.5 -226.5t88.5 -226.5t217.5 -91.5q128 0 217 92t89 226zM563 173
q-49 -35 -111 -35q-80 0 -129 62q-45 59 -45 148q0 69 27 123q23 45 62 70t87 25q62 0 101 -33l-28 -38q-32 24 -73 24q-62 0 -92 -59q-20 -40 -20 -111q0 -61 15 -97q29 -67 102 -67q44 0 76 25z" />
    <glyph glyph-name="ordfeminine" unicode="&#xaa;" horiz-adv-x="429" 
d="M374 409l-32 -44q-41 13 -52 54q-45 -49 -108 -49q-64 0 -92.5 31.5t-28.5 76.5q0 64 51.5 99.5t145.5 35.5q14 0 26 -1v36q0 66 -60 66q-61 0 -120 -45l-30 46q77 51 159 51q69 0 96 -41q20 -29 18 -102l-4 -134q-1 -34 5.5 -51.5t25.5 -28.5zM284 571q-13 2 -29 2
q-67 0 -98 -21.5t-31 -67.5q0 -69 65 -69q28 0 52.5 16t38.5 43zM368 240h-313v54h313v-54z" />
    <glyph glyph-name="guillemotleft" unicode="&#xab;" horiz-adv-x="504" 
d="M449 62l-55 -36l-143 214l143 214l55 -36l-117 -178zM263 62l-55 -36l-143 214l143 214l55 -36l-117 -178z" />
    <glyph glyph-name="logicalnot" unicode="&#xac;" horiz-adv-x="499" 
d="M444 77h-71v140h-318v71h389v-211z" />
    <glyph glyph-name="uni00AD" unicode="&#xad;" horiz-adv-x="301" 
d="M251 229h-191v76h191v-76z" />
    <glyph glyph-name="registered" unicode="&#xae;" horiz-adv-x="874" 
d="M809 354q0 -157 -109.5 -264.5t-262.5 -107.5q-154 0 -263 107.5t-109 264.5t109 264.5t263 107.5q153 0 262.5 -107.5t109.5 -264.5zM743 354q0 134 -89 226t-217 92q-129 0 -217.5 -91.5t-88.5 -226.5t88.5 -226.5t217.5 -91.5q128 0 217 92t89 226zM593 150h-70
q-9 17 -34 61q-43 71 -72 103q-16 18 -37 19v-183h-58v413h116q66 0 98 -30q37 -33 37 -85q0 -50 -30.5 -82.5t-80.5 -31.5q21 -17 36 -38q11 -14 35 -51q36 -56 60 -95zM512 447q0 45 -38 61q-19 8 -51 8h-43v-144h40q50 0 72 19q20 20 20 56z" />
    <glyph glyph-name="macron" unicode="&#xaf;" horiz-adv-x="324" 
d="M299 683h-274v54h274v-54z" />
    <glyph glyph-name="degree" unicode="&#xb0;" horiz-adv-x="412" 
d="M367 515q0 -73 -40.5 -119.5t-120.5 -46.5q-75 0 -118 46t-43 126t42.5 125t117.5 45q76 0 119 -46t43 -130zM300 511q0 62 -21.5 93.5t-74.5 31.5q-91 0 -91 -107q0 -66 23.5 -95.5t72.5 -29.5q91 0 91 107z" />
    <glyph glyph-name="plusminus" unicode="&#xb1;" horiz-adv-x="481" 
d="M426 294h-150v-140h-71v140h-150v71h150v133h71v-133h150v-71zM424 36h-367v71h367v-71z" />
    <glyph glyph-name="twosuperior" unicode="&#xb2;" horiz-adv-x="358" 
d="M313 316l-15 -56h-247v40q42 28 93 83q90 95 90 153q0 28 -17.5 46.5t-44.5 18.5q-10 0 -20 -2t-21 -7t-17 -8.5t-19 -11.5t-17 -10l-33 35q75 62 143 62q51 0 86 -33t35 -82q0 -45 -25 -83.5t-69 -83.5q-46 -46 -63 -62q4 0 11 0.5t10 0.5h140z" />
    <glyph glyph-name="threesuperior" unicode="&#xb3;" horiz-adv-x="363" 
d="M318 383q0 -40 -27.5 -73t-69.5 -50q-48 -20 -117 -20q-19 0 -37 3l-17 51q27 -4 45 -4q82 0 123 36q28 24 28 62q0 43 -43 55q-20 5 -70 5h-16v51h16q62 0 76 6q28 12 28 45q0 23 -17 37.5t-45 14.5q-44 0 -97 -37l-33 37q64 57 139 57q54 0 89 -29t35 -74
q0 -57 -54 -84q64 -29 64 -89z" />
    <glyph glyph-name="acute" unicode="&#xb4;" horiz-adv-x="360" 
d="M305 665l-224 -100l-26 47l207 130z" />
    <glyph glyph-name="mu" unicode="&#xb5;" horiz-adv-x="563" 
d="M502 32l-50 -53q-45 37 -54 80q-57 -76 -158 -76q-45 0 -67 19v-195l-78 -15v702l78 16v-359q0 -37 6 -53.5t23 -28.5q28 -19 62 -19q37 0 72 25t55 65v353l77 13v-353q0 -53 6 -77.5t28 -43.5z" />
    <glyph glyph-name="paragraph" unicode="&#xb6;" horiz-adv-x="601" 
d="M506 -126h-72v768h-118v-768h-72v442q-91 0 -150 53.5t-59 132.5q0 97 61 151.5t167 54.5h243v-834z" />
    <glyph glyph-name="periodcentered" unicode="&#xb7;" horiz-adv-x="301" 
d="M216 279q0 -27 -19 -46.5t-46 -19.5t-46.5 19.5t-19.5 46.5q0 28 19 47t46 19t46.5 -19t19.5 -47z" />
    <glyph glyph-name="cedilla" unicode="&#xb8;" horiz-adv-x="290" 
d="M235 -114q0 -32 -26.5 -57.5t-71.5 -25.5q-38 0 -82 24l21 47q35 -16 61 -16q14 0 25 8t11 22t-11.5 21.5t-26.5 7.5q-16 0 -26 -2l-9 10l20 75h61l-11 -42q65 -9 65 -72z" />
    <glyph glyph-name="onesuperior" unicode="&#xb9;" horiz-adv-x="325" 
d="M280 260h-190v55h62v256q-24 -15 -90 -43l-17 41l124 83h51v-337h60v-55z" />
    <glyph glyph-name="ordmasculine" unicode="&#xba;" horiz-adv-x="432" 
d="M377 557q0 -91 -43 -140.5t-118 -49.5q-74 0 -117.5 53.5t-43.5 145.5q0 91 42.5 143t116.5 52q80 0 121.5 -54t41.5 -150zM305 554q0 85 -24 118.5t-68 33.5q-89 0 -89 -132q0 -79 23 -115t71 -36q87 0 87 131zM373 240h-313v54h313v-54z" />
    <glyph glyph-name="guillemotright" unicode="&#xbb;" horiz-adv-x="504" 
d="M439 240l-143 -214l-55 36l117 178l-117 178l55 36zM253 240l-143 -214l-55 36l117 178l-117 178l55 36z" />
    <glyph glyph-name="onequarter" unicode="&#xbc;" horiz-adv-x="950" 
d="M781 763l-527 -917h-66l527 917h66zM905 71h-49q0 -2 0.5 -6t0.5 -6v-60l-67 -18v77q0 2 0.5 6.5t0.5 6.5h-179v47l146 275h75q-109 -210 -145 -269l7 1h96l-1 6q0 2 2 32l8 108l57 17v-155l-1 -8h49v-54zM280 260h-190v55h62v256q-24 -15 -90 -43l-17 41l124 83h51v-337
h60v-55z" />
    <glyph glyph-name="onehalf" unicode="&#xbd;" horiz-adv-x="925" 
d="M762 763l-527 -917h-66l527 917h66zM880 56l-15 -56h-247v40q42 28 93 83q90 95 90 153q0 28 -17.5 46.5t-44.5 18.5q-10 0 -20 -2t-21 -7t-17 -8.5t-19 -11.5t-17 -10l-33 35q75 62 143 62q51 0 86 -33t35 -82q0 -45 -25 -83.5t-69 -83.5q-46 -46 -63 -62q3 0 10 0.5
t11 0.5h140zM280 260h-190v55h62v256q-24 -15 -90 -43l-17 41l124 83h51v-337h60v-55z" />
    <glyph glyph-name="threequarters" unicode="&#xbe;" horiz-adv-x="993" 
d="M823 763l-527 -917h-66l527 917h66zM948 71h-49q0 -2 0.5 -6t0.5 -6v-60l-67 -18v77q0 2 0.5 6.5t0.5 6.5h-179v47l146 275h75q-109 -210 -145 -269l7 1h96l-1 6q0 2 2 32l8 108l57 17v-155l-1 -8h49v-54zM318 383q0 -40 -27.5 -73t-69.5 -50q-48 -20 -117 -20
q-19 0 -37 3l-17 51q27 -4 45 -4q82 0 123 36q28 24 28 62q0 43 -43 55q-20 5 -70 5h-16v51h16q62 0 76 6q28 12 28 45q0 23 -17 37.5t-45 14.5q-44 0 -97 -37l-33 37q64 57 139 57q54 0 89 -29t35 -74q0 -57 -54 -84q64 -29 64 -89z" />
    <glyph glyph-name="questiondown" unicode="&#xbf;" horiz-adv-x="438" 
d="M393 -127q-77 -59 -184 -59q-69 0 -111.5 40t-42.5 107q0 23 7 45t16.5 37.5t23.5 30.5t23.5 22.5t21.5 16.5t13 10q69 55 44 164h67q31 -127 -47 -201q-10 -9 -30 -24t-30.5 -25t-20 -29t-9.5 -43q0 -37 25.5 -60t64.5 -23q65 0 136 46zM298 454q0 -28 -19.5 -47.5
t-47.5 -19.5t-48 19.5t-20 47.5q0 29 19.5 49t47.5 20t48 -20.5t20 -48.5z" />
    <glyph glyph-name="Agrave" unicode="&#xc0;" horiz-adv-x="583" 
d="M578 0h-93l-65 211h-256l-66 -211h-83l229 686h107zM399 278l-105 336l-108 -336h213zM384 772l-26 -47l-224 100l43 77z" />
    <glyph glyph-name="Aacute" unicode="&#xc1;" horiz-adv-x="583" 
d="M578 0h-93l-65 211h-256l-66 -211h-83l229 686h107zM399 278l-105 336l-108 -336h213zM460 825l-224 -100l-26 47l207 130z" />
    <glyph glyph-name="Acircumflex" unicode="&#xc2;" horiz-adv-x="583" 
d="M578 0h-93l-65 211h-256l-66 -211h-83l229 686h107zM399 278l-105 336l-108 -336h213zM468 765l-36 -44l-139 85l-135 -85l-31 44l170 135z" />
    <glyph glyph-name="Atilde" unicode="&#xc3;" horiz-adv-x="583" 
d="M578 0h-93l-65 211h-256l-66 -211h-83l229 686h107zM399 278l-105 336l-108 -336h213zM465 816q-27 -33 -53 -48t-68 -15q-31 0 -64.5 18.5t-62.5 18.5q-22 0 -35.5 -9t-33.5 -30l-28 45q27 34 52.5 48.5t67.5 14.5q31 0 64.5 -18.5t62.5 -18.5q22 0 36.5 9.5t33.5 29.5z
" />
    <glyph glyph-name="Adieresis" unicode="&#xc4;" horiz-adv-x="583" 
d="M578 0h-93l-65 211h-256l-66 -211h-83l229 686h107zM399 278l-105 336l-108 -336h213zM246 781q0 -22 -14.5 -37.5t-36.5 -15.5t-37 15.5t-15 37.5q0 21 15 36t36 15q22 0 37 -15t15 -36zM453 781q0 -22 -14.5 -37.5t-36.5 -15.5t-37 15.5t-15 37.5q0 21 15 36t36 15
q22 0 37 -15t15 -36z" />
    <glyph glyph-name="Aring" unicode="&#xc5;" horiz-adv-x="583" 
d="M578 0h-93l-65 211h-256l-66 -211h-83l229 686h107zM399 278l-105 336l-108 -336h213zM401 819q0 -44 -30.5 -75t-73.5 -31t-74.5 31.5t-31.5 74.5q0 44 30.5 75t73.5 31t74.5 -31.5t31.5 -74.5zM356 819q0 24 -18.5 42t-43.5 18q-23 0 -40 -18t-17 -42t18 -42t42 -18
q23 0 41 18t18 42z" />
    <glyph glyph-name="AE" unicode="&#xc6;" horiz-adv-x="885" 
d="M845 0h-385v213h-236l-130 -213h-89l424 686h406l-11 -69h-281v-224h235v-71h-235v-251h302v-71zM460 280v327l-195 -327h195z" />
    <glyph glyph-name="Ccedilla" unicode="&#xc7;" horiz-adv-x="573" 
d="M538 45q-84 -54 -188 -56l-8 -31q65 -9 65 -72q0 -32 -26.5 -57.5t-71.5 -25.5q-38 0 -82 24l21 47q35 -16 61 -16q14 0 25 8t11 22t-11.5 21.5t-26.5 7.5q-16 0 -26 -2l-9 10l19 70q-87 19 -144 85q-82 93 -82 261q0 153 82 253.5t206 100.5q100 0 173 -56l-44 -53
q-59 43 -130 43q-118 0 -169 -118q-29 -67 -29 -182q0 -90 22 -145q26 -63 75 -95.5t109 -32.5q72 0 134 44z" />
    <glyph glyph-name="Egrave" unicode="&#xc8;" horiz-adv-x="520" 
d="M485 0h-385v686h375l-11 -68h-281v-225h235v-71h-235v-251h302v-71zM402 772l-26 -47l-224 100l43 77z" />
    <glyph glyph-name="Eacute" unicode="&#xc9;" horiz-adv-x="520" 
d="M485 0h-385v686h375l-11 -68h-281v-225h235v-71h-235v-251h302v-71zM432 825l-224 -100l-26 47l207 130z" />
    <glyph glyph-name="Ecircumflex" unicode="&#xca;" horiz-adv-x="520" 
d="M485 0h-385v686h375l-11 -68h-281v-225h235v-71h-235v-251h302v-71zM462 765l-36 -44l-139 85l-135 -85l-31 44l170 135z" />
    <glyph glyph-name="Edieresis" unicode="&#xcb;" horiz-adv-x="520" 
d="M485 0h-385v686h375l-11 -68h-281v-225h235v-71h-235v-251h302v-71zM238 781q0 -22 -14.5 -37.5t-36.5 -15.5t-37 15.5t-15 37.5q0 21 15 36t36 15q22 0 37 -15t15 -36zM445 781q0 -22 -14.5 -37.5t-36.5 -15.5t-37 15.5t-15 37.5q0 21 15 36t36 15q22 0 37 -15t15 -36z
" />
    <glyph glyph-name="Igrave" unicode="&#xcc;" 
d="M180 0h-80v686h80v-686zM214 772l-26 -47l-224 100l43 77z" />
    <glyph glyph-name="Iacute" unicode="&#xcd;" 
d="M180 0h-80v686h80v-686zM322 825l-224 -100l-26 47l207 130z" />
    <glyph glyph-name="Icircumflex" unicode="&#xce;" 
d="M180 0h-80v686h80v-686zM311 765l-36 -44l-139 85l-135 -85l-31 44l170 135z" />
    <glyph glyph-name="Idieresis" unicode="&#xcf;" 
d="M180 0h-80v686h80v-686zM87 781q0 -22 -14.5 -37.5t-36.5 -15.5t-37 15.5t-15 37.5q0 21 15 36t36 15q22 0 37 -15t15 -36zM294 781q0 -22 -14.5 -37.5t-36.5 -15.5t-37 15.5t-15 37.5q0 21 15 36t36 15q22 0 37 -15t15 -36z" />
    <glyph glyph-name="Eth" unicode="&#xd0;" horiz-adv-x="633" 
d="M568 342q0 -170 -78 -256q-44 -49 -92.5 -67.5t-123.5 -18.5h-179v321h-84v59h84v306h137q85 0 128.5 -9.5t91.5 -43.5q116 -83 116 -291zM479 332q0 81 -13 132.5t-46 91.5q-32 38 -67.5 50.5t-93.5 12.5h-82v-239h159l-24 -59h-135v-253h82q64 0 106.5 14t67.5 58
q46 79 46 192z" />
    <glyph glyph-name="Ntilde" unicode="&#xd1;" horiz-adv-x="646" 
d="M556 0h-86l-220 420q-20 37 -39.5 78t-28.5 64l-10 23q8 -98 9 -187l4 -398h-85v686h95l228 -438q13 -24 64 -144l-1 12q-1 13 -2 34.5t-2.5 47t-2.5 57t-1 58.5l-3 373h81v-686zM496 816q-27 -33 -53 -48t-68 -15q-31 0 -64.5 18.5t-62.5 18.5q-22 0 -35.5 -9t-33.5 -30
l-28 45q27 34 52.5 48.5t67.5 14.5q31 0 64.5 -18.5t62.5 -18.5q22 0 36.5 9.5t33.5 29.5z" />
    <glyph glyph-name="Ograve" unicode="&#xd2;" horiz-adv-x="681" 
d="M621 332q0 -99 -23.5 -165t-76.5 -114q-73 -66 -174 -66q-119 0 -195 87q-82 94 -82 272q0 163 73 257.5t200 94.5q141 0 216 -112q62 -92 62 -254zM529 320q0 149 -33 218q-20 42 -58.5 68t-94.5 26q-48 0 -88 -21.5t-59 -58.5q-35 -66 -35 -189q0 -164 44 -239
q19 -32 61 -53t85 -21q81 0 128 59q50 63 50 211zM449 772l-26 -47l-224 100l43 77z" />
    <glyph glyph-name="Oacute" unicode="&#xd3;" horiz-adv-x="681" 
d="M621 332q0 -99 -23.5 -165t-76.5 -114q-73 -66 -174 -66q-119 0 -195 87q-82 94 -82 272q0 163 73 257.5t200 94.5q141 0 216 -112q62 -92 62 -254zM529 320q0 149 -33 218q-20 42 -58.5 68t-94.5 26q-48 0 -88 -21.5t-59 -58.5q-35 -66 -35 -189q0 -164 44 -239
q19 -32 61 -53t85 -21q81 0 128 59q50 63 50 211zM512 825l-224 -100l-26 47l207 130z" />
    <glyph glyph-name="Ocircumflex" unicode="&#xd4;" horiz-adv-x="681" 
d="M621 332q0 -99 -23.5 -165t-76.5 -114q-73 -66 -174 -66q-119 0 -195 87q-82 94 -82 272q0 163 73 257.5t200 94.5q141 0 216 -112q62 -92 62 -254zM529 320q0 149 -33 218q-20 42 -58.5 68t-94.5 26q-48 0 -88 -21.5t-59 -58.5q-35 -66 -35 -189q0 -164 44 -239
q19 -32 61 -53t85 -21q81 0 128 59q50 63 50 211zM518 765l-36 -44l-139 85l-135 -85l-31 44l170 135z" />
    <glyph glyph-name="Otilde" unicode="&#xd5;" horiz-adv-x="681" 
d="M621 332q0 -99 -23.5 -165t-76.5 -114q-73 -66 -174 -66q-119 0 -195 87q-82 94 -82 272q0 163 73 257.5t200 94.5q141 0 216 -112q62 -92 62 -254zM529 320q0 149 -33 218q-20 42 -58.5 68t-94.5 26q-48 0 -88 -21.5t-59 -58.5q-35 -66 -35 -189q0 -164 44 -239
q19 -32 61 -53t85 -21q81 0 128 59q50 63 50 211zM518 816q-27 -33 -53 -48t-68 -15q-31 0 -64.5 18.5t-62.5 18.5q-22 0 -35.5 -9t-33.5 -30l-28 45q27 34 52.5 48.5t67.5 14.5q31 0 64.5 -18.5t62.5 -18.5q22 0 36.5 9.5t33.5 29.5z" />
    <glyph glyph-name="Odieresis" unicode="&#xd6;" horiz-adv-x="681" 
d="M621 332q0 -99 -23.5 -165t-76.5 -114q-73 -66 -174 -66q-119 0 -195 87q-82 94 -82 272q0 163 73 257.5t200 94.5q141 0 216 -112q62 -92 62 -254zM529 320q0 149 -33 218q-20 42 -58.5 68t-94.5 26q-48 0 -88 -21.5t-59 -58.5q-35 -66 -35 -189q0 -164 44 -239
q19 -32 61 -53t85 -21q81 0 128 59q50 63 50 211zM290 781q0 -22 -14.5 -37.5t-36.5 -15.5t-37 15.5t-15 37.5q0 21 15 36t36 15q22 0 37 -15t15 -36zM496 781q0 -22 -14.5 -37.5t-36.5 -15.5t-37 15.5t-15 37.5q0 21 15 36t36 15q22 0 37 -15t15 -36z" />
    <glyph glyph-name="multiply" unicode="&#xd7;" horiz-adv-x="544" 
d="M449 124l-51 -51l-126 126l-126 -126l-51 51l126 126l-126 126l51 51l126 -126l126 126l51 -51l-126 -126z" />
    <glyph glyph-name="Oslash" unicode="&#xd8;" horiz-adv-x="681" 
d="M616 332q0 -99 -23.5 -165t-76.5 -114q-73 -66 -174 -66q-85 0 -149 45l-68 -113l-52 32l74 123q-82 94 -82 272q0 163 73 257.5t200 94.5q88 0 155 -47l64 107l53 -32l-71 -119q77 -94 77 -275zM455 588q-47 44 -117 44q-48 0 -88 -21.5t-59 -58.5q-35 -66 -35 -189
q0 -135 33 -218zM524 320q0 140 -30 212l-265 -441q51 -41 117 -41q81 0 128 59q50 63 50 211z" />
    <glyph glyph-name="Ugrave" unicode="&#xd9;" horiz-adv-x="635" 
d="M550 198q0 -63 -11 -97t-41 -60q-62 -53 -180 -53q-79 0 -127 24t-76 75q-20 37 -20 107v492h81v-462q0 -71 12 -99q29 -67 134 -67q89 0 121 43q26 35 26 107v478h81v-488zM410 772l-26 -47l-224 100l43 77z" />
    <glyph glyph-name="Uacute" unicode="&#xda;" horiz-adv-x="635" 
d="M550 198q0 -63 -11 -97t-41 -60q-62 -53 -180 -53q-79 0 -127 24t-76 75q-20 37 -20 107v492h81v-462q0 -71 12 -99q29 -67 134 -67q89 0 121 43q26 35 26 107v478h81v-488zM447 825l-224 -100l-26 47l207 130z" />
    <glyph glyph-name="Ucircumflex" unicode="&#xdb;" horiz-adv-x="635" 
d="M550 198q0 -63 -11 -97t-41 -60q-62 -53 -180 -53q-79 0 -127 24t-76 75q-20 37 -20 107v492h81v-462q0 -71 12 -99q29 -67 134 -67q89 0 121 43q26 35 26 107v478h81v-488zM493 765l-36 -44l-139 85l-135 -85l-31 44l170 135z" />
    <glyph glyph-name="Udieresis" unicode="&#xdc;" horiz-adv-x="635" 
d="M550 198q0 -63 -11 -97t-41 -60q-62 -53 -180 -53q-79 0 -127 24t-76 75q-20 37 -20 107v492h81v-462q0 -71 12 -99q29 -67 134 -67q89 0 121 43q26 35 26 107v478h81v-488zM270 781q0 -22 -14.5 -37.5t-36.5 -15.5t-37 15.5t-15 37.5q0 21 15 36t36 15q22 0 37 -15
t15 -36zM476 781q0 -22 -14.5 -37.5t-36.5 -15.5t-37 15.5t-15 37.5q0 21 15 36t36 15q22 0 37 -15t15 -36z" />
    <glyph glyph-name="Yacute" unicode="&#xdd;" horiz-adv-x="519" 
d="M529 686l-223 -419v-267h-85v272l-221 414h101l130 -262l35 -77q17 37 37 77l132 262h94zM414 826l-224 -100l-26 47l207 130z" />
    <glyph glyph-name="Thorn" unicode="&#xde;" horiz-adv-x="548" 
d="M523 360q0 -107 -62 -163q-61 -54 -166 -54h-120v-143h-80v686h80v-130h110q101 0 150 -32q88 -58 88 -164zM432 344q0 75 -40 109t-130 34h-87v-277h115q42 0 65.5 8.5t41.5 28.5q35 39 35 97z" />
    <glyph glyph-name="germandbls" unicode="&#xdf;" horiz-adv-x="577" 
d="M522 174q0 -78 -53 -132t-135 -54q-63 0 -99 18l23 52q29 -13 65 -13q49 0 82.5 36.5t33.5 89.5q0 52 -22 76.5t-76 49.5q-61 28 -83 46t-22 48q0 8 1.5 15.5t5.5 14t6.5 11.5t10 10.5t10.5 8.5t12.5 8t12.5 6.5l14 7l13 6.5q26 13 41 31t15 51q0 40 -28 65t-74 25
q-104 0 -104 -142v-408q0 -63 -12 -101h-75q10 40 10 117v322h-74v59h74q0 56 7.5 88.5t32.5 60.5q54 62 147 62q77 0 128 -44t51 -110q0 -79 -84 -118q-12 -6 -33 -13t-28.5 -12.5t-7.5 -15.5q0 -8 18 -17t56.5 -26t68.5 -35q33 -19 52 -58t19 -86z" />
    <glyph glyph-name="agrave" unicode="&#xe0;" horiz-adv-x="529" 
d="M477 37l-40 -56q-54 17 -68 73q-36 -36 -69 -51.5t-75 -15.5q-84 0 -122 41.5t-38 100.5q0 85 69.5 132t194.5 47l35 -1v35q0 60 -16 78q-24 27 -67 27q-40 0 -87 -18t-72 -41l-39 56q100 67 209 67q106 0 138 -78q13 -31 11 -110l-4 -164q-2 -62 5.5 -84.5t34.5 -37.5z
M362 253q-26 2 -39 2q-91 0 -131 -30t-40 -89q0 -91 86 -91q38 0 71 21.5t50 56.5zM382 612l-26 -47l-224 100l43 77z" />
    <glyph glyph-name="aacute" unicode="&#xe1;" horiz-adv-x="529" 
d="M477 37l-40 -56q-54 17 -68 73q-36 -36 -69 -51.5t-75 -15.5q-84 0 -122 41.5t-38 100.5q0 85 69.5 132t194.5 47l35 -1v35q0 60 -16 78q-24 27 -67 27q-40 0 -87 -18t-72 -41l-39 56q100 67 209 67q106 0 138 -78q13 -31 11 -110l-4 -164q-2 -62 5.5 -84.5t34.5 -37.5z
M362 253q-26 2 -39 2q-91 0 -131 -30t-40 -89q0 -91 86 -91q38 0 71 21.5t50 56.5zM416 665l-224 -100l-26 47l207 130z" />
    <glyph glyph-name="acircumflex" unicode="&#xe2;" horiz-adv-x="529" 
d="M477 37l-40 -56q-54 17 -68 73q-36 -36 -69 -51.5t-75 -15.5q-84 0 -122 41.5t-38 100.5q0 85 69.5 132t194.5 47l35 -1v35q0 60 -16 78q-24 27 -67 27q-40 0 -87 -18t-72 -41l-39 56q100 67 209 67q106 0 138 -78q13 -31 11 -110l-4 -164q-2 -62 5.5 -84.5t34.5 -37.5z
M362 253q-26 2 -39 2q-91 0 -131 -30t-40 -89q0 -91 86 -91q38 0 71 21.5t50 56.5zM442 605l-36 -44l-139 85l-135 -85l-31 44l170 135z" />
    <glyph glyph-name="atilde" unicode="&#xe3;" horiz-adv-x="529" 
d="M477 37l-40 -56q-54 17 -68 73q-36 -36 -69 -51.5t-75 -15.5q-84 0 -122 41.5t-38 100.5q0 85 69.5 132t194.5 47l35 -1v35q0 60 -16 78q-24 27 -67 27q-40 0 -87 -18t-72 -41l-39 56q100 67 209 67q106 0 138 -78q13 -31 11 -110l-4 -164q-2 -62 5.5 -84.5t34.5 -37.5z
M362 253q-26 2 -39 2q-91 0 -131 -30t-40 -89q0 -91 86 -91q38 0 71 21.5t50 56.5zM445 656q-27 -33 -53 -48t-68 -15q-31 0 -64.5 18.5t-62.5 18.5q-22 0 -35.5 -9t-33.5 -30l-28 45q27 34 52.5 48.5t67.5 14.5q31 0 64.5 -18.5t62.5 -18.5q22 0 36.5 9.5t33.5 29.5z" />
    <glyph glyph-name="adieresis" unicode="&#xe4;" horiz-adv-x="529" 
d="M477 37l-40 -56q-54 17 -68 73q-36 -36 -69 -51.5t-75 -15.5q-84 0 -122 41.5t-38 100.5q0 85 69.5 132t194.5 47l35 -1v35q0 60 -16 78q-24 27 -67 27q-40 0 -87 -18t-72 -41l-39 56q100 67 209 67q106 0 138 -78q13 -31 11 -110l-4 -164q-2 -62 5.5 -84.5t34.5 -37.5z
M362 253q-26 2 -39 2q-91 0 -131 -30t-40 -89q0 -91 86 -91q38 0 71 21.5t50 56.5zM226 621q0 -22 -14.5 -37.5t-36.5 -15.5t-37 15.5t-15 37.5q0 21 15 36t36 15q22 0 37 -15t15 -36zM433 621q0 -22 -14.5 -37.5t-36.5 -15.5t-37 15.5t-15 37.5q0 21 15 36t36 15
q22 0 37 -15t15 -36z" />
    <glyph glyph-name="aring" unicode="&#xe5;" horiz-adv-x="529" 
d="M477 37l-40 -56q-54 17 -68 73q-36 -36 -69 -51.5t-75 -15.5q-84 0 -122 41.5t-38 100.5q0 85 69.5 132t194.5 47l35 -1v35q0 60 -16 78q-24 27 -67 27q-40 0 -87 -18t-72 -41l-39 56q100 67 209 67q106 0 138 -78q13 -31 11 -110l-4 -164q-2 -62 5.5 -84.5t34.5 -37.5z
M362 253q-26 2 -39 2q-91 0 -131 -30t-40 -89q0 -91 86 -91q38 0 71 21.5t50 56.5zM388 659q0 -44 -30.5 -75t-73.5 -31q-44 0 -75 31.5t-31 74.5q0 44 30.5 75t73.5 31t74.5 -31.5t31.5 -74.5zM343 659q0 24 -18.5 42t-43.5 18q-23 0 -40 -18t-17 -42t18 -42t42 -18
q23 0 41 18t18 42z" />
    <glyph glyph-name="ae" unicode="&#xe6;" horiz-adv-x="795" 
d="M740 236h-311v-17q0 -74 35.5 -119.5t111.5 -45.5q71 0 122 47l30 -50q-68 -62 -168 -62q-57 0 -102.5 24.5t-68.5 60.5q-32 -39 -79 -63t-90 -24q-45 0 -78 13t-50 35t-24.5 45.5t-7.5 48.5q0 85 69.5 132t194.5 47l35 -1v35q0 60 -16 78q-24 27 -67 27q-82 0 -159 -59
l-39 56q100 67 209 67q82 0 121 -65q64 66 140 66q83 0 135 -54q33 -33 45 -78t12 -133v-11zM357 253q-25 2 -39 2q-90 0 -130.5 -29.5t-40.5 -89.5q0 -91 86 -91q38 0 71 21.5t50 56.5zM657 295q0 79 -27 117t-86 38q-109 0 -115 -155h228z" />
    <glyph glyph-name="ccedilla" unicode="&#xe7;" horiz-adv-x="469" 
d="M424 55q-63 -65 -147 -66l-8 -31q65 -9 65 -72q0 -32 -26.5 -57.5t-71.5 -25.5q-38 0 -82 24l21 47q35 -16 61 -16q14 0 25 8t11 22t-11.5 21.5t-26.5 7.5q-16 0 -26 -2l-9 10l19 70q-68 15 -105 69q-48 70 -48 177q0 137 75 212q58 58 135 58q71 0 136 -54l-43 -54
q-48 40 -95 40q-29 0 -55 -15.5t-39 -40.5q-28 -52 -28 -163q0 -84 31.5 -128.5t91.5 -44.5q62 0 107 54z" />
    <glyph glyph-name="egrave" unicode="&#xe8;" horiz-adv-x="521" 
d="M471 236h-311v-12q0 -74 23 -109q40 -61 124 -61q71 0 122 47l30 -50q-68 -62 -168 -62q-103 0 -162 70.5t-59 194.5q0 117 60 188q59 69 149 69q83 0 135 -54q33 -33 45 -77.5t12 -132.5v-11zM388 295q-1 76 -23 111q-28 44 -90 44q-109 0 -115 -155h228zM388 612
l-26 -47l-224 100l43 77z" />
    <glyph glyph-name="eacute" unicode="&#xe9;" horiz-adv-x="521" 
d="M471 236h-311v-12q0 -74 23 -109q40 -61 124 -61q71 0 122 47l30 -50q-68 -62 -168 -62q-103 0 -162 70.5t-59 194.5q0 117 60 188q59 69 149 69q83 0 135 -54q33 -33 45 -77.5t12 -132.5v-11zM388 295q-1 76 -23 111q-28 44 -90 44q-109 0 -115 -155h228zM415 665
l-224 -100l-26 47l207 130z" />
    <glyph glyph-name="ecircumflex" unicode="&#xea;" horiz-adv-x="521" 
d="M471 236h-311v-12q0 -74 23 -109q40 -61 124 -61q71 0 122 47l30 -50q-68 -62 -168 -62q-103 0 -162 70.5t-59 194.5q0 117 60 188q59 69 149 69q83 0 135 -54q33 -33 45 -77.5t12 -132.5v-11zM388 295q-1 76 -23 111q-28 44 -90 44q-109 0 -115 -155h228zM449 605
l-36 -44l-139 85l-135 -85l-31 44l170 135z" />
    <glyph glyph-name="edieresis" unicode="&#xeb;" horiz-adv-x="521" 
d="M471 236h-311v-12q0 -74 23 -109q40 -61 124 -61q71 0 122 47l30 -50q-68 -62 -168 -62q-103 0 -162 70.5t-59 194.5q0 117 60 188q59 69 149 69q83 0 135 -54q33 -33 45 -77.5t12 -132.5v-11zM388 295q-1 76 -23 111q-28 44 -90 44q-109 0 -115 -155h228zM223 621
q0 -22 -14.5 -37.5t-36.5 -15.5t-37 15.5t-15 37.5q0 21 15 36t36 15q22 0 37 -15t15 -36zM430 621q0 -22 -14.5 -37.5t-36.5 -15.5t-37 15.5t-15 37.5q0 21 15 36t36 15q22 0 37 -15t15 -36z" />
    <glyph glyph-name="igrave" unicode="&#xec;" horiz-adv-x="271" 
d="M181 0h-81v496l81 13v-509zM241 612l-26 -47l-224 100l43 77z" />
    <glyph glyph-name="iacute" unicode="&#xed;" horiz-adv-x="271" 
d="M181 0h-81v496l81 13v-509zM291 665l-224 -100l-26 47l207 130z" />
    <glyph glyph-name="icircumflex" unicode="&#xee;" horiz-adv-x="271" 
d="M181 0h-81v496l81 13v-509zM312 605l-36 -44l-139 85l-135 -85l-31 44l170 135z" />
    <glyph glyph-name="idieresis" unicode="&#xef;" horiz-adv-x="271" 
d="M181 0h-81v496l81 13v-509zM99 621q0 -22 -14.5 -37.5t-36.5 -15.5t-37 15.5t-15 37.5q0 21 15 36t36 15q22 0 37 -15t15 -36zM285 621q0 -22 -14.5 -37.5t-36.5 -15.5t-37 15.5t-15 37.5q0 21 15 36t36 15q22 0 37 -15t15 -36z" />
    <glyph glyph-name="eth" unicode="&#xf0;" horiz-adv-x="562" 
d="M497 260q0 -126 -63 -200t-156 -74q-89 0 -151 73.5t-62 170.5q0 96 58.5 165.5t147.5 69.5q62 0 112 -22q-35 97 -127 160l-52 -59l-51 36l49 55q-53 28 -125 48l40 48q72 -18 129 -45l43 50l51 -36l-39 -44q196 -123 196 -396zM412 251q0 21 -5.5 65.5t-7.5 54.5
q-53 33 -124 33q-55 0 -89 -51t-34 -125q0 -73 37 -125t95 -52q63 0 95.5 52.5t32.5 147.5z" />
    <glyph glyph-name="ntilde" unicode="&#xf1;" horiz-adv-x="556" 
d="M466 0h-79v337q0 39 -3.5 54.5t-14.5 28.5q-18 21 -55 21q-30 0 -70.5 -20.5t-67.5 -49.5v-371h-76v384q0 32 -5 58t-9 36l-5 11l76 21q18 -37 18 -78q77 77 157 77q40 0 73.5 -20t48.5 -53q12 -27 12 -58v-378zM450 656q-27 -33 -53 -48t-68 -15q-31 0 -64.5 18.5
t-62.5 18.5q-22 0 -35.5 -9t-33.5 -30l-28 45q27 34 52.5 48.5t67.5 14.5q31 0 64.5 -18.5t62.5 -18.5q22 0 36.5 9.5t33.5 29.5z" />
    <glyph glyph-name="ograve" unicode="&#xf2;" horiz-adv-x="549" 
d="M494 241q0 -121 -58.5 -187.5t-155.5 -66.5q-102 0 -158.5 70.5t-56.5 194.5q0 121 57 191t155 70q111 0 171 -87q46 -67 46 -185zM405 235q0 103 -23 150q-15 31 -44 47.5t-62 16.5t-61 -14.5t-41 -39.5q-24 -47 -24 -130q0 -112 31 -163q14 -23 41.5 -36.5t59.5 -13.5
q81 0 108 75q15 42 15 108zM385 612l-26 -47l-224 100l43 77z" />
    <glyph glyph-name="oacute" unicode="&#xf3;" horiz-adv-x="549" 
d="M494 241q0 -121 -58.5 -187.5t-155.5 -66.5q-102 0 -158.5 70.5t-56.5 194.5q0 121 57 191t155 70q111 0 171 -87q46 -67 46 -185zM405 235q0 103 -23 150q-15 31 -44 47.5t-62 16.5t-61 -14.5t-41 -39.5q-24 -47 -24 -130q0 -112 31 -163q14 -23 41.5 -36.5t59.5 -13.5
q81 0 108 75q15 42 15 108zM429 665l-224 -100l-26 47l207 130z" />
    <glyph glyph-name="ocircumflex" unicode="&#xf4;" horiz-adv-x="549" 
d="M494 241q0 -121 -58.5 -187.5t-155.5 -66.5q-102 0 -158.5 70.5t-56.5 194.5q0 121 57 191t155 70q111 0 171 -87q46 -67 46 -185zM405 235q0 103 -23 150q-15 31 -44 47.5t-62 16.5t-61 -14.5t-41 -39.5q-24 -47 -24 -130q0 -112 31 -163q14 -23 41.5 -36.5t59.5 -13.5
q81 0 108 75q15 42 15 108zM451 605l-36 -44l-139 85l-135 -85l-31 44l170 135z" />
    <glyph glyph-name="otilde" unicode="&#xf5;" horiz-adv-x="549" 
d="M494 241q0 -121 -58.5 -187.5t-155.5 -66.5q-102 0 -158.5 70.5t-56.5 194.5q0 121 57 191t155 70q111 0 171 -87q46 -67 46 -185zM405 235q0 103 -23 150q-15 31 -44 47.5t-62 16.5t-61 -14.5t-41 -39.5q-24 -47 -24 -130q0 -112 31 -163q14 -23 41.5 -36.5t59.5 -13.5
q81 0 108 75q15 42 15 108zM455 656q-27 -33 -53 -48t-68 -15q-31 0 -64.5 18.5t-62.5 18.5q-22 0 -35.5 -9t-33.5 -30l-28 45q27 34 52.5 48.5t67.5 14.5q31 0 64.5 -18.5t62.5 -18.5q22 0 36.5 9.5t33.5 29.5z" />
    <glyph glyph-name="odieresis" unicode="&#xf6;" horiz-adv-x="549" 
d="M494 241q0 -121 -58.5 -187.5t-155.5 -66.5q-102 0 -158.5 70.5t-56.5 194.5q0 121 57 191t155 70q111 0 171 -87q46 -67 46 -185zM405 235q0 103 -23 150q-15 31 -44 47.5t-62 16.5t-61 -14.5t-41 -39.5q-24 -47 -24 -130q0 -112 31 -163q14 -23 41.5 -36.5t59.5 -13.5
q81 0 108 75q15 42 15 108zM224 621q0 -22 -14.5 -37.5t-36.5 -15.5t-37 15.5t-15 37.5q0 21 15 36t36 15q22 0 37 -15t15 -36zM432 621q0 -22 -14.5 -37.5t-36.5 -15.5t-37 15.5t-15 37.5q0 21 15 36t36 15q22 0 37 -15t15 -36z" />
    <glyph glyph-name="divide" unicode="&#xf7;" horiz-adv-x="610" 
d="M555 235h-500v65h500v-65zM374 56q0 -28 -20 -48t-48 -20t-47 19.5t-19 47.5q0 29 20 48.5t48 19.5q27 0 46.5 -19.5t19.5 -47.5zM374 472q0 -28 -19.5 -48t-47.5 -20t-47.5 19t-19.5 47q0 29 20 49t48 20q27 0 46.5 -19.5t19.5 -47.5z" />
    <glyph glyph-name="oslash" unicode="&#xf8;" horiz-adv-x="549" 
d="M489 237q0 -138 -78 -206q-55 -48 -136 -48q-65 0 -111 30l-48 -79l-48 30l52 87q-60 71 -60 197q0 121 57 191t155 70q61 0 107 -27l50 83l49 -30l-54 -89q65 -75 65 -209zM400 231q0 95 -20 141l-180 -299q33 -25 77 -25q81 0 108 75q15 42 15 108zM343 422
q-30 23 -72 23q-33 0 -61 -14.5t-41 -39.5q-24 -47 -24 -130t19 -137z" />
    <glyph glyph-name="ugrave" unicode="&#xf9;" horiz-adv-x="557" 
d="M501 32l-50 -53q-45 37 -54 80q-57 -76 -158 -76q-97 0 -131 71q-13 27 -13 74v366l77 15v-358q0 -36 6.5 -54t23.5 -30q25 -17 61 -17q37 0 72 25t55 65v353l77 13v-363q0 -46 7.5 -69.5t26.5 -41.5zM402 612l-26 -47l-224 100l43 77z" />
    <glyph glyph-name="uacute" unicode="&#xfa;" horiz-adv-x="557" 
d="M501 32l-50 -53q-45 37 -54 80q-57 -76 -158 -76q-97 0 -131 71q-13 27 -13 74v366l77 15v-358q0 -36 6.5 -54t23.5 -30q25 -17 61 -17q37 0 72 25t55 65v353l77 13v-363q0 -46 7.5 -69.5t26.5 -41.5zM452 665l-224 -100l-26 47l207 130z" />
    <glyph glyph-name="ucircumflex" unicode="&#xfb;" horiz-adv-x="557" 
d="M501 32l-50 -53q-45 37 -54 80q-57 -76 -158 -76q-97 0 -131 71q-13 27 -13 74v366l77 15v-358q0 -36 6.5 -54t23.5 -30q25 -17 61 -17q37 0 72 25t55 65v353l77 13v-363q0 -46 7.5 -69.5t26.5 -41.5zM453 605l-36 -44l-139 85l-135 -85l-31 44l170 135z" />
    <glyph glyph-name="udieresis" unicode="&#xfc;" horiz-adv-x="557" 
d="M501 32l-50 -53q-45 37 -54 80q-57 -76 -158 -76q-97 0 -131 71q-13 27 -13 74v366l77 15v-358q0 -36 6.5 -54t23.5 -30q25 -17 61 -17q37 0 72 25t55 65v353l77 13v-363q0 -46 7.5 -69.5t26.5 -41.5zM228 621q0 -22 -14.5 -37.5t-36.5 -15.5t-37 15.5t-15 37.5
q0 21 15 36t36 15q22 0 37 -15t15 -36zM435 621q0 -22 -14.5 -37.5t-36.5 -15.5t-37 15.5t-15 37.5q0 21 15 36t36 15q22 0 37 -15t15 -36z" />
    <glyph glyph-name="yacute" unicode="&#xfd;" horiz-adv-x="459" 
d="M449 498l-171 -516q-27 -81 -63 -126.5t-98 -60.5l-23 53q48 15 71.5 46t43.5 107l-32 -5q-13 71 -50 179l-107 312l77 26l102 -323q7 -21 14.5 -52t11.5 -52l4 -20h2q19 64 31 105l98 327h89zM419 662l-224 -100l-26 47l207 130z" />
    <glyph glyph-name="thorn" unicode="&#xfe;" horiz-adv-x="567" 
d="M502 250q0 -98 -44 -170q-56 -91 -154 -91q-79 0 -133 56v-238l-78 -15v818q0 61 -13 106l78 15q13 -55 13 -114v-100q0 -23 -2 -47.5t-2 -30.5q59 69 147 69q83 0 133 -62q55 -68 55 -196zM419 240q0 94 -23 143q-12 25 -37 40t-55 15q-78 0 -133 -66v-255
q56 -63 118 -63q34 0 63 17t42 45q25 53 25 124z" />
    <glyph glyph-name="ydieresis" unicode="&#xff;" horiz-adv-x="459" 
d="M449 498l-171 -516q-27 -81 -63 -126.5t-98 -60.5l-23 53q48 15 71.5 46t43.5 107l-32 -5q-13 71 -50 179l-107 312l77 26l102 -323q7 -21 14.5 -52t11.5 -52l4 -20h2q19 64 31 105l98 327h89zM183 621q0 -22 -14.5 -37.5t-36.5 -15.5t-37 15.5t-15 37.5q0 21 15 36
t36 15q22 0 37 -15t15 -36zM390 621q0 -22 -14.5 -37.5t-36.5 -15.5t-37 15.5t-15 37.5q0 21 15 36t36 15q22 0 37 -15t15 -36z" />
    <glyph glyph-name="Amacron" unicode="&#x100;" horiz-adv-x="583" 
d="M578 0h-93l-65 211h-256l-66 -211h-83l229 686h107zM399 278l-105 336l-108 -336h213zM430 751h-274v54h274v-54z" />
    <glyph glyph-name="amacron" unicode="&#x101;" horiz-adv-x="529" 
d="M477 37l-40 -56q-54 17 -68 73q-36 -36 -69 -51.5t-75 -15.5q-84 0 -122 41.5t-38 100.5q0 85 69.5 132t194.5 47l35 -1v35q0 60 -16 78q-24 27 -67 27q-40 0 -87 -18t-72 -41l-39 56q100 67 209 67q106 0 138 -78q13 -31 11 -110l-4 -164q-2 -62 5.5 -84.5t34.5 -37.5z
M362 253q-26 2 -39 2q-91 0 -131 -30t-40 -89q0 -91 86 -91q38 0 71 21.5t50 56.5zM414 592h-274v54h274v-54z" />
    <glyph glyph-name="Abreve" unicode="&#x102;" horiz-adv-x="583" 
d="M578 0h-93l-65 211h-256l-66 -211h-83l229 686h107zM399 278l-105 336l-108 -336h213zM463 831q-10 -14 -31 -34t-60 -43.5t-72 -23.5q-34 0 -73.5 23.5t-59.5 43t-32 34.5l35 38q21 -19 57.5 -37.5t75.5 -18.5q54 0 130 56z" />
    <glyph glyph-name="abreve" unicode="&#x103;" horiz-adv-x="529" 
d="M477 37l-40 -56q-54 17 -68 73q-36 -36 -69 -51.5t-75 -15.5q-84 0 -122 41.5t-38 100.5q0 85 69.5 132t194.5 47l35 -1v35q0 60 -16 78q-24 27 -67 27q-40 0 -87 -18t-72 -41l-39 56q100 67 209 67q106 0 138 -78q13 -31 11 -110l-4 -164q-2 -62 5.5 -84.5t34.5 -37.5z
M362 253q-26 2 -39 2q-91 0 -131 -30t-40 -89q0 -91 86 -91q38 0 71 21.5t50 56.5zM440 669q-19 -26 -67.5 -62t-95.5 -36q-34 0 -73 23t-59 42t-32 33l34 39q21 -18 58 -37t76 -19q53 0 129 56z" />
    <glyph glyph-name="Aogonek" unicode="&#x104;" horiz-adv-x="583" 
d="M603 -173q-44 -24 -82 -24q-46 0 -72 25t-26 62q0 50 57 111l-65 210h-256l-66 -211h-83l229 686h107l227 -686q-23 0 -55.5 -34t-32.5 -70q0 -15 9.5 -25.5t26.5 -10.5q31 0 61 14zM394 278l-105 336l-108 -336h213z" />
    <glyph glyph-name="aogonek" unicode="&#x105;" horiz-adv-x="529" 
d="M487 -173q-44 -24 -82 -24q-46 0 -72 25t-26 62q0 25 12.5 50t25 39.5t35.5 37.5q-9 12 -16 37q-36 -36 -69 -51.5t-75 -15.5q-84 0 -122 41.5t-38 100.5q0 85 69.5 132t194.5 47l35 -1v35q0 60 -16 78q-24 27 -67 27q-40 0 -87 -18t-72 -41l-39 56q100 67 209 67
q106 0 138 -78q13 -31 11 -110l-4 -164q-1 -58 6 -82.5t28 -44.5q-2 -1 -11 -10t-12.5 -12t-12.5 -11.5t-13.5 -13t-12 -13.5t-11.5 -15t-9.5 -14.5t-8 -15.5t-4.5 -15t-2 -16q0 -15 9.5 -25.5t26.5 -10.5q31 0 61 14zM357 253q-26 2 -39 2q-91 0 -131 -30t-40 -89
q0 -91 86 -91q38 0 71 21.5t50 56.5z" />
    <glyph glyph-name="Cacute" unicode="&#x106;" horiz-adv-x="573" 
d="M543 45q-86 -56 -191 -56q-120 0 -200 91q-82 93 -82 261q0 153 82 253.5t206 100.5q100 0 173 -56l-44 -53q-59 43 -130 43q-118 0 -169 -118q-29 -67 -29 -182q0 -90 22 -145q26 -63 74.5 -95.5t109.5 -32.5q72 0 134 44zM510 825l-224 -100l-26 47l207 130z" />
    <glyph glyph-name="cacute" unicode="&#x107;" horiz-adv-x="469" 
d="M429 55q-65 -66 -152 -66q-107 0 -159 75q-48 70 -48 177q0 137 75 212q58 58 135 58q71 0 136 -54l-43 -54q-48 40 -95 40q-29 0 -55 -15.5t-39 -40.5q-28 -52 -28 -163q0 -84 31.5 -128.5t91.5 -44.5q62 0 107 54zM418 665l-224 -100l-26 47l207 130z" />
    <glyph glyph-name="Ccircumflex" unicode="&#x108;" horiz-adv-x="573" 
d="M543 45q-86 -56 -191 -56q-120 0 -200 91q-82 93 -82 261q0 153 82 253.5t206 100.5q100 0 173 -56l-44 -53q-59 43 -130 43q-118 0 -169 -118q-29 -67 -29 -182q0 -90 22 -145q26 -63 74.5 -95.5t109.5 -32.5q72 0 134 44zM523 765l-36 -44l-139 85l-135 -85l-31 44
l170 135z" />
    <glyph glyph-name="ccircumflex" unicode="&#x109;" horiz-adv-x="469" 
d="M429 55q-65 -66 -152 -66q-107 0 -159 75q-48 70 -48 177q0 137 75 212q58 58 135 58q71 0 136 -54l-43 -54q-48 40 -95 40q-29 0 -55 -15.5t-39 -40.5q-28 -52 -28 -163q0 -84 31.5 -128.5t91.5 -44.5q62 0 107 54zM454 605l-36 -44l-139 85l-135 -85l-31 44l170 135z
" />
    <glyph glyph-name="Cdotaccent" unicode="&#x10a;" horiz-adv-x="573" 
d="M543 45q-86 -56 -191 -56q-120 0 -200 91q-82 93 -82 261q0 153 82 253.5t206 100.5q100 0 173 -56l-44 -53q-59 43 -130 43q-118 0 -169 -118q-29 -67 -29 -182q0 -90 22 -145q26 -63 74.5 -95.5t109.5 -32.5q72 0 134 44zM413 789q0 -25 -17.5 -43t-43.5 -18
q-25 0 -43 17.5t-18 42.5q0 26 18 44t43 18q26 0 43.5 -18t17.5 -43z" />
    <glyph glyph-name="cdotaccent" unicode="&#x10b;" horiz-adv-x="469" 
d="M429 55q-65 -66 -152 -66q-107 0 -159 75q-48 70 -48 177q0 137 75 212q58 58 135 58q71 0 136 -54l-43 -54q-48 40 -95 40q-29 0 -55 -15.5t-39 -40.5q-28 -52 -28 -163q0 -84 31.5 -128.5t91.5 -44.5q62 0 107 54zM341 652q0 -26 -17.5 -43.5t-43.5 -17.5
q-25 0 -43 17.5t-18 42.5q0 26 18 44t43 18q26 0 43.5 -17.5t17.5 -43.5z" />
    <glyph glyph-name="Ccaron" unicode="&#x10c;" horiz-adv-x="573" 
d="M543 45q-86 -56 -191 -56q-120 0 -200 91q-82 93 -82 261q0 153 82 253.5t206 100.5q100 0 173 -56l-44 -53q-59 43 -130 43q-118 0 -169 -118q-29 -67 -29 -182q0 -90 22 -145q26 -63 74.5 -95.5t109.5 -32.5q72 0 134 44zM522 860l-170 -135l-171 135l36 44l139 -85
l135 85z" />
    <glyph glyph-name="ccaron" unicode="&#x10d;" horiz-adv-x="469" 
d="M429 55q-65 -66 -152 -66q-107 0 -159 75q-48 70 -48 177q0 137 75 212q58 58 135 58q71 0 136 -54l-43 -54q-48 40 -95 40q-29 0 -55 -15.5t-39 -40.5q-28 -52 -28 -163q0 -84 31.5 -128.5t91.5 -44.5q62 0 107 54zM451 700l-170 -135l-171 135l36 44l139 -85l135 85z
" />
    <glyph glyph-name="Dcaron" unicode="&#x10e;" horiz-adv-x="633" 
d="M573 342q0 -170 -78 -256q-44 -49 -92.5 -67.5t-123.5 -18.5h-179v686h137q85 0 128.5 -9.5t91.5 -43.5q116 -83 116 -291zM484 332q0 81 -13 132.5t-46 91.5q-32 38 -67.5 50.5t-93.5 12.5h-82v-551h82q64 0 106.5 14t67.5 58q46 79 46 192zM467 860l-170 -135l-171 135
l36 44l139 -85l135 85z" />
    <glyph glyph-name="dcaron" unicode="&#x10f;" horiz-adv-x="571" 
d="M496 0h-80q-10 25 -11 51q-51 -58 -132 -58q-97 0 -150 66.5t-53 185.5q0 160 103 231q45 31 96 31q88 0 135 -63q-1 41 -1 77v209l78 -13v-556q0 -121 15 -161zM402 127v264q-37 52 -121 52q-61 0 -93 -52q-32 -51 -32 -144q0 -94 20 -130q33 -58 100 -58q51 0 96 32
q9 7 16.5 16t10.5 15zM657 649q0 -43 -31 -83q-24 -31 -68 -56l-23 35q49 23 55 73q-4 -1 -10 -1q-19 0 -31.5 15.5t-12.5 36.5q0 25 16.5 42t40.5 17q28 0 46 -22t18 -57z" />
    <glyph glyph-name="Dcroat" unicode="&#x110;" horiz-adv-x="633" 
d="M568 342q0 -170 -78 -256q-44 -49 -92.5 -67.5t-123.5 -18.5h-179v321h-84v59h84v306h137q85 0 128.5 -9.5t91.5 -43.5q116 -83 116 -291zM479 332q0 81 -13 132.5t-46 91.5q-32 38 -67.5 50.5t-93.5 12.5h-82v-239h159l-24 -59h-135v-253h82q64 0 106.5 14t67.5 58
q46 79 46 192z" />
    <glyph glyph-name="dcroat" unicode="&#x111;" horiz-adv-x="571" 
d="M565 570h-89v-409q0 -121 15 -161h-80q-10 25 -11 51q-51 -58 -132 -58q-97 0 -150 66.5t-53 185.5q0 160 103 231q45 31 96 31q88 0 135 -63q-1 41 -1 77v49h-107v54h107v106l78 -13v-93h89v-54zM397 127v264q-37 52 -121 52q-61 0 -93 -52q-32 -51 -32 -144
q0 -94 20 -130q33 -58 100 -58q51 0 96 32q9 7 16.5 16t10.5 15z" />
    <glyph glyph-name="Emacron" unicode="&#x112;" horiz-adv-x="520" 
d="M485 0h-385v686h375l-11 -68h-281v-225h235v-71h-235v-251h302v-71zM426 751h-274v54h274v-54z" />
    <glyph glyph-name="emacron" unicode="&#x113;" horiz-adv-x="521" 
d="M471 236h-311v-12q0 -74 23 -109q40 -61 124 -61q71 0 122 47l30 -50q-68 -62 -168 -62q-103 0 -162 70.5t-59 194.5q0 117 60 188q59 69 149 69q83 0 135 -54q33 -33 45 -77.5t12 -132.5v-11zM388 295q-1 76 -23 111q-28 44 -90 44q-109 0 -115 -155h228zM414 592h-274
v54h274v-54z" />
    <glyph glyph-name="Edotaccent" unicode="&#x116;" horiz-adv-x="520" 
d="M485 0h-385v686h375l-11 -68h-281v-225h235v-71h-235v-251h302v-71zM351 789q0 -25 -17.5 -43t-43.5 -18q-25 0 -43 17.5t-18 42.5q0 26 18 44t43 18q26 0 43.5 -18t17.5 -43z" />
    <glyph glyph-name="edotaccent" unicode="&#x117;" horiz-adv-x="521" 
d="M471 236h-311v-12q0 -74 23 -109q40 -61 124 -61q71 0 122 47l30 -50q-68 -62 -168 -62q-103 0 -162 70.5t-59 194.5q0 117 60 188q59 69 149 69q83 0 135 -54q33 -33 45 -77.5t12 -132.5v-11zM388 295q-1 76 -23 111q-28 44 -90 44q-109 0 -115 -155h228zM336 652
q0 -26 -18 -43.5t-43 -17.5t-43 17.5t-18 42.5q0 26 18 44t43 18t43 -17.5t18 -43.5z" />
    <glyph glyph-name="Eogonek" unicode="&#x118;" horiz-adv-x="520" 
d="M510 -173q-44 -24 -82 -24q-46 0 -72 25t-26 62q0 50 56 110h-291v686h375l-11 -68h-281v-225h235v-71h-235v-251h302v-71q-23 0 -55.5 -34t-32.5 -70q0 -15 9.5 -25.5t26.5 -10.5q31 0 61 14z" />
    <glyph glyph-name="eogonek" unicode="&#x119;" horiz-adv-x="521" 
d="M466 236h-311v-12q0 -74 23 -109q40 -61 124 -61q71 0 122 47l30 -50q-120 -96 -120 -155q0 -15 9.5 -25.5t26.5 -10.5q31 0 61 14l21 -47q-44 -24 -82 -24q-46 0 -72 25t-26 62q0 49 48 101q-22 -2 -34 -2q-103 0 -162 70.5t-59 194.5q0 117 60 188q59 69 149 69
q83 0 135 -54q33 -33 45 -77.5t12 -132.5v-11zM383 295q-1 76 -23 111q-28 44 -90 44q-109 0 -115 -155h228z" />
    <glyph glyph-name="Ecaron" unicode="&#x11a;" horiz-adv-x="520" 
d="M485 0h-385v686h375l-11 -68h-281v-225h235v-71h-235v-251h302v-71zM461 860l-170 -135l-171 135l36 44l139 -85l135 85z" />
    <glyph glyph-name="ecaron" unicode="&#x11b;" horiz-adv-x="521" 
d="M471 236h-311v-12q0 -74 23 -109q40 -61 124 -61q71 0 122 47l30 -50q-68 -62 -168 -62q-103 0 -162 70.5t-59 194.5q0 117 60 188q59 69 149 69q83 0 135 -54q33 -33 45 -77.5t12 -132.5v-11zM388 295q-1 76 -23 111q-28 44 -90 44q-109 0 -115 -155h228zM451 700
l-170 -135l-171 135l36 44l139 -85l135 85z" />
    <glyph glyph-name="Gcircumflex" unicode="&#x11c;" horiz-adv-x="639" 
d="M559 41q-80 -52 -193 -52q-131 0 -211 86q-85 92 -85 266q0 192 106 288q72 65 179 65q109 0 188 -68l-37 -51q-78 53 -149 53q-130 0 -171 -116q-27 -76 -27 -174q0 -138 48 -208q23 -33 69.5 -53t96.5 -20q65 0 109 27v209h-138l-16 68h231v-320zM527 765l-36 -44
l-139 85l-135 -85l-31 44l170 135z" />
    <glyph glyph-name="gcircumflex" unicode="&#x11d;" horiz-adv-x="514" 
d="M519 454q-42 -30 -84 -30q-21 0 -34 6q30 -38 30 -85q0 -42 -20 -78.5t-54 -58.5t-93 -22q-90 -32 -90 -58q0 -24 40 -24h80q80 0 120 -28q55 -38 55 -105q0 -79 -52 -118t-146 -39q-111 0 -163.5 35t-52.5 92q0 24 10 53l82 7q-14 -22 -14 -45q0 -40 29 -58
q39 -23 101 -23q121 0 121 87q0 42 -27 60q-26 18 -98 18q-11 0 -40 -0.5t-37 -0.5q-44 0 -69 19t-25 53q0 31 20 50.5t70 34.5q-50 16 -81 55.5t-31 88.5q0 75 51 121.5t133 46.5q40 0 81.5 -14t70.5 -14q36 0 69 22zM340 344q0 52 -21.5 76t-70.5 24q-94 0 -94 -103
q0 -99 96 -99q90 0 90 102zM425 605l-36 -44l-139 85l-135 -85l-31 44l170 135z" />
    <glyph glyph-name="Gbreve" unicode="&#x11e;" horiz-adv-x="639" 
d="M559 41q-80 -52 -193 -52q-131 0 -211 86q-85 92 -85 266q0 192 106 288q72 65 179 65q109 0 188 -68l-37 -51q-78 53 -149 53q-130 0 -171 -116q-27 -76 -27 -174q0 -138 48 -208q23 -33 69.5 -53t96.5 -20q65 0 109 27v209h-138l-16 68h231v-320zM518 832
q-10 -14 -31 -34t-60 -43.5t-72 -23.5q-34 0 -73.5 23.5t-59.5 43t-32 34.5l35 38q21 -19 57.5 -37.5t75.5 -18.5q54 0 130 56z" />
    <glyph glyph-name="gbreve" unicode="&#x11f;" horiz-adv-x="514" 
d="M519 454q-42 -30 -84 -30q-21 0 -34 6q30 -38 30 -85q0 -42 -20 -78.5t-54 -58.5t-93 -22q-90 -32 -90 -58q0 -24 40 -24h80q80 0 120 -28q55 -38 55 -105q0 -79 -52 -118t-146 -39q-111 0 -163.5 35t-52.5 92q0 24 10 53l82 7q-14 -22 -14 -45q0 -40 29 -58
q39 -23 101 -23q121 0 121 87q0 42 -27 60q-26 18 -98 18q-11 0 -40 -0.5t-37 -0.5q-44 0 -69 19t-25 53q0 31 20 50.5t70 34.5q-50 16 -81 55.5t-31 88.5q0 75 51 121.5t133 46.5q40 0 81.5 -14t70.5 -14q36 0 69 22zM340 344q0 52 -21.5 76t-70.5 24q-94 0 -94 -103
q0 -99 96 -99q90 0 90 102zM422 668q-19 -26 -67.5 -62t-95.5 -36q-34 0 -73 23t-59 42t-32 33l34 39q21 -18 58 -37t76 -19q53 0 129 56z" />
    <glyph glyph-name="Gdotaccent" unicode="&#x120;" horiz-adv-x="639" 
d="M559 41q-80 -52 -193 -52q-131 0 -211 86q-85 92 -85 266q0 192 106 288q72 65 179 65q109 0 188 -68l-37 -51q-78 53 -149 53q-130 0 -171 -116q-27 -76 -27 -174q0 -138 48 -208q23 -33 69.5 -53t96.5 -20q65 0 109 27v209h-138l-16 68h231v-320zM416 789
q0 -25 -18 -43t-43 -18t-43 17.5t-18 42.5q0 26 18 44t43 18t43 -18t18 -43z" />
    <glyph glyph-name="gdotaccent" unicode="&#x121;" horiz-adv-x="514" 
d="M519 454q-42 -30 -84 -30q-21 0 -34 6q30 -38 30 -85q0 -42 -20 -78.5t-54 -58.5t-93 -22q-90 -32 -90 -58q0 -24 40 -24h80q80 0 120 -28q55 -38 55 -105q0 -79 -52 -118t-146 -39q-111 0 -163.5 35t-52.5 92q0 24 10 53l82 7q-14 -22 -14 -45q0 -40 29 -58
q39 -23 101 -23q121 0 121 87q0 42 -27 60q-26 18 -98 18q-11 0 -40 -0.5t-37 -0.5q-44 0 -69 19t-25 53q0 31 20 50.5t70 34.5q-50 16 -81 55.5t-31 88.5q0 75 51 121.5t133 46.5q40 0 81.5 -14t70.5 -14q36 0 69 22zM340 344q0 52 -21.5 76t-70.5 24q-94 0 -94 -103
q0 -99 96 -99q90 0 90 102zM311 652q0 -26 -17.5 -43.5t-43.5 -17.5q-25 0 -43 17.5t-18 42.5q0 26 18 44t43 18q26 0 43.5 -17.5t17.5 -43.5z" />
    <glyph glyph-name="Gcommaaccent" unicode="&#x122;" horiz-adv-x="639" 
d="M559 41q-80 -52 -193 -52q-131 0 -211 86q-85 92 -85 266q0 192 106 288q72 65 179 65q109 0 188 -68l-37 -51q-78 53 -149 53q-130 0 -171 -116q-27 -76 -27 -174q0 -138 48 -208q23 -33 69.5 -53t96.5 -20q65 0 109 27v209h-138l-16 68h231v-320zM405 -138
q0 -43 -31 -83q-24 -31 -68 -56l-23 35q49 23 55 73q-4 -1 -10 -1q-19 0 -31.5 15.5t-12.5 36.5q0 25 16.5 42t40.5 17q28 0 46 -22t18 -57z" />
    <glyph glyph-name="gcommaaccent" unicode="&#x123;" horiz-adv-x="514" 
d="M519 454q-42 -30 -84 -30q-21 0 -34 6q30 -38 30 -85q0 -42 -20 -78.5t-54 -58.5t-93 -22q-90 -32 -90 -58q0 -24 40 -24h80q80 0 120 -28q55 -38 55 -105q0 -79 -52 -118t-146 -39q-111 0 -163.5 35t-52.5 92q0 24 10 53l82 7q-14 -22 -14 -45q0 -40 29 -58
q39 -23 101 -23q121 0 121 87q0 42 -27 60q-26 18 -98 18q-11 0 -40 -0.5t-37 -0.5q-44 0 -69 19t-25 53q0 31 20 50.5t70 34.5q-50 16 -81 55.5t-31 88.5q0 75 51 121.5t133 46.5q40 0 81.5 -14t70.5 -14q36 0 69 22zM340 344q0 52 -21.5 76t-70.5 24q-94 0 -94 -103
q0 -99 96 -99q90 0 90 102zM192 648q0 43 31 83q24 31 68 56l23 -35q-49 -23 -55 -73q4 1 10 1q19 0 31.5 -15.5t12.5 -36.5q0 -25 -16.5 -42t-40.5 -17q-28 0 -46 22t-18 57z" />
    <glyph glyph-name="Hcircumflex" unicode="&#x124;" horiz-adv-x="641" 
d="M551 0h-82v332h-289v-332h-80v686h80v-287h289v287h82v-686zM500 765l-36 -44l-139 85l-135 -85l-31 44l170 135z" />
    <glyph glyph-name="hcircumflex" unicode="&#x125;" horiz-adv-x="567" 
d="M477 0h-77v344q0 55 -19 74q-20 20 -58 20q-77 0 -145 -84v-354h-78v614q0 29 -3 54.5t-7 36.5l-3 11l78 15q13 -42 13 -118v-116l-3 -68q85 79 166 79q45 0 81.5 -22.5t46.5 -56.5q8 -27 8 -72v-357zM309 778l-36 -44l-139 85l-135 -85l-31 44l170 135z" />
    <glyph glyph-name="Hbar" unicode="&#x126;" horiz-adv-x="641" 
d="M546 0h-82v332h-289v-332h-80v505h-90v66h90v115h80v-115h289v115h82v-115h90v-66h-90v-505zM175 399h289v106h-289v-106z" />
    <glyph glyph-name="hbar" unicode="&#x127;" horiz-adv-x="567" 
d="M472 0h-77v344q0 55 -19 74q-20 20 -58 20q-77 0 -145 -84v-354h-78v562h-65v60h65q0 27 -3.5 50.5t-6.5 33.5l-3 10l78 15q12 -39 13 -109h192v-60h-192v-65l-3 -68q85 79 166 79q45 0 81.5 -22.5t46.5 -56.5q8 -27 8 -72v-357z" />
    <glyph glyph-name="Imacron" unicode="&#x12a;" 
d="M180 0h-80v686h80v-686zM277 751h-274v54h274v-54z" />
    <glyph glyph-name="imacron" unicode="&#x12b;" horiz-adv-x="271" 
d="M181 0h-81v496l81 13v-509zM287 592h-274v54h274v-54z" />
    <glyph glyph-name="Iogonek" unicode="&#x12e;" 
d="M218 -173q-44 -24 -82 -24q-46 0 -72 25t-26 62q0 50 57 111v685h80v-686q-17 -4 -46 -38t-29 -66q0 -15 9.5 -25.5t26.5 -10.5q31 0 61 14z" />
    <glyph glyph-name="iogonek" unicode="&#x12f;" horiz-adv-x="271" 
d="M218 -173q-44 -24 -82 -24q-46 0 -72 25t-26 62q0 50 57 111v495l81 13v-509q-17 -4 -46.5 -37t-29.5 -67q0 -15 9.5 -25.5t26.5 -10.5q31 0 61 14zM198 652q0 -26 -18 -43.5t-43 -17.5t-43 17.5t-18 42.5q0 26 18 44t43 18t43 -17.5t18 -43.5z" />
    <glyph glyph-name="Idotaccent" unicode="&#x130;" 
d="M180 0h-80v686h80v-686zM201 789q0 -25 -17.5 -43t-43.5 -18q-25 0 -43 17.5t-18 42.5q0 26 18 44t43 18q26 0 43.5 -18t17.5 -43z" />
    <glyph glyph-name="dotlessi" unicode="&#x131;" horiz-adv-x="271" 
d="M176 0h-81v496l81 13v-509z" />
    <glyph glyph-name="Jcircumflex" unicode="&#x134;" horiz-adv-x="279" 
d="M189 117q0 -67 -5 -98.5t-20 -58.5q-34 -60 -116 -88l-40 51q57 23 82 67q17 30 17 125v571h82v-569zM317 765l-36 -44l-139 85l-135 -85l-31 44l170 135z" />
    <glyph glyph-name="jcircumflex" unicode="&#x135;" 
d="M313 605l-36 -44l-139 85l-135 -85l-31 44l170 135zM180 88q0 -65 -9 -93q-23 -74 -119 -106l-39 47q48 19 71 57q16 25 16 96v443h80v-444z" />
    <glyph glyph-name="Kcommaaccent" unicode="&#x136;" horiz-adv-x="556" 
d="M556 686l-276 -322l274 -364h-105l-262 363l264 323h105zM183 0h-83v686h83v-686zM356 -138q0 -43 -31 -83q-24 -31 -68 -56l-23 35q49 23 55 73q-4 -1 -10 -1q-19 0 -31.5 15.5t-12.5 36.5q0 25 16.5 42t40.5 17q28 0 46 -22t18 -57z" />
    <glyph glyph-name="kcommaaccent" unicode="&#x137;" horiz-adv-x="514" 
d="M178 0h-78v614q0 29 -3 54.5t-7 36.5l-3 11l78 15q13 -42 13 -118v-613zM514 0h-104l-229 282l190 216h98l-196 -216zM341 -138q0 -43 -31 -83q-24 -31 -68 -56l-23 35q49 23 55 73q-4 -1 -10 -1q-19 0 -31.5 15.5t-12.5 36.5q0 25 16.5 42t40.5 17q28 0 46 -22t18 -57z
" />
    <glyph glyph-name="Lacute" unicode="&#x139;" horiz-adv-x="463" 
d="M453 69l-11 -69h-342v686h82v-617h271zM323 825l-224 -100l-26 47l207 130z" />
    <glyph glyph-name="lacute" unicode="&#x13a;" horiz-adv-x="269" 
d="M233 1q-24 -11 -50 -11q-37 0 -59 21q-24 21 -24 71v528q0 29 -3 54.5t-6 36.5l-3 11l78 15q13 -42 13 -118v-509q0 -29 6 -39.5t22 -10.5l10 2zM296 851l-224 -100l-26 47l207 130z" />
    <glyph glyph-name="Lcommaaccent" unicode="&#x13b;" horiz-adv-x="463" 
d="M453 69l-11 -69h-342v686h82v-617h271zM332 -138q0 -43 -31 -83q-24 -31 -68 -56l-23 35q49 23 55 73q-4 -1 -10 -1q-19 0 -31.5 15.5t-12.5 36.5q0 25 16.5 42t40.5 17q28 0 46 -22t18 -57z" />
    <glyph glyph-name="lcommaaccent" unicode="&#x13c;" horiz-adv-x="269" 
d="M233 1q-24 -11 -50 -11q-37 0 -59 21q-24 21 -24 71v528q0 29 -3 54.5t-6 36.5l-3 11l78 15q13 -42 13 -118v-509q0 -29 6 -39.5t22 -10.5l10 2zM229 -138q0 -43 -31 -83q-24 -31 -68 -56l-23 35q49 23 55 73q-4 -1 -10 -1q-19 0 -31.5 15.5t-12.5 36.5q0 25 16.5 42
t40.5 17q28 0 46 -22t18 -57z" />
    <glyph glyph-name="Lcaron" unicode="&#x13d;" horiz-adv-x="463" 
d="M453 69l-11 -69h-342v686h82v-617h271zM410 607q0 -43 -31 -83q-24 -31 -68 -56l-23 35q49 23 55 73q-4 -1 -10 -1q-19 0 -31.5 15.5t-12.5 36.5q0 25 16.5 42t40.5 17q28 0 46 -22t18 -57z" />
    <glyph glyph-name="lcaron" unicode="&#x13e;" horiz-adv-x="269" 
d="M233 1q-24 -11 -50 -11q-37 0 -59 21q-24 21 -24 71v528q0 29 -3 54.5t-6 36.5l-3 11l78 15q13 -42 13 -118v-509q0 -29 6 -39.5t22 -10.5l10 2zM355 649q0 -43 -31 -83q-24 -31 -68 -56l-23 35q49 23 55 73q-4 -1 -10 -1q-19 0 -31.5 15.5t-12.5 36.5q0 25 16.5 42
t40.5 17q28 0 46 -22t18 -57z" />
    <glyph glyph-name="Lslash" unicode="&#x141;" horiz-adv-x="463" 
d="M448 69l-11 -69h-342v308l-67 -22v72l67 22v306h82v-280l178 57v-72l-178 -57v-265h271z" />
    <glyph glyph-name="lslash" unicode="&#x142;" horiz-adv-x="269" 
d="M240 358l-73 -26v-232q0 -29 6 -39.5t22 -10.5l10 2l16 -51q-24 -11 -50 -11q-37 0 -59 21q-24 21 -24 71v224l-59 -20v72l59 20v232q0 29 -3 54.5t-6 36.5l-3 11l78 15q13 -42 13 -118v-205l73 26v-72z" />
    <glyph glyph-name="Nacute" unicode="&#x143;" horiz-adv-x="646" 
d="M556 0h-86l-220 420q-20 37 -39.5 78t-28.5 64l-10 23q8 -98 9 -187l4 -398h-85v686h95l228 -438q13 -24 64 -144l-1 12q-1 13 -2 34.5t-2.5 47t-2.5 57t-1 58.5l-3 373h81v-686zM462 825l-224 -100l-26 47l207 130z" />
    <glyph glyph-name="nacute" unicode="&#x144;" horiz-adv-x="556" 
d="M466 0h-79v337q0 39 -3.5 54.5t-14.5 28.5q-18 21 -55 21q-30 0 -70.5 -20.5t-67.5 -49.5v-371h-76v384q0 32 -5 58t-9 36l-5 11l76 21q18 -37 18 -78q77 77 157 77q40 0 73.5 -20t48.5 -53q12 -27 12 -58v-378zM410 665l-224 -100l-26 47l207 130z" />
    <glyph glyph-name="Ncommaaccent" unicode="&#x145;" horiz-adv-x="646" 
d="M556 0h-86l-220 420q-20 37 -39.5 78t-28.5 64l-10 23q8 -98 9 -187l4 -398h-85v686h95l228 -438q13 -24 64 -144l-1 12q-1 13 -2 34.5t-2.5 47t-2.5 57t-1 58.5l-3 373h81v-686zM390 -138q0 -43 -31 -83q-24 -31 -68 -56l-23 35q49 23 55 73q-4 -1 -10 -1
q-19 0 -31.5 15.5t-12.5 36.5q0 25 16.5 42t40.5 17q28 0 46 -22t18 -57z" />
    <glyph glyph-name="ncommaaccent" unicode="&#x146;" horiz-adv-x="556" 
d="M466 0h-79v337q0 39 -3.5 54.5t-14.5 28.5q-18 21 -55 21q-30 0 -70.5 -20.5t-67.5 -49.5v-371h-76v384q0 32 -5 58t-9 36l-5 11l76 21q18 -37 18 -78q77 77 157 77q40 0 73.5 -20t48.5 -53q12 -27 12 -58v-378zM346 -138q0 -43 -31 -83q-24 -31 -68 -56l-23 35
q49 23 55 73q-4 -1 -10 -1q-19 0 -31.5 15.5t-12.5 36.5q0 25 16.5 42t40.5 17q28 0 46 -22t18 -57z" />
    <glyph glyph-name="Ncaron" unicode="&#x147;" horiz-adv-x="646" 
d="M556 0h-86l-220 420q-20 37 -39.5 78t-28.5 64l-10 23q8 -98 9 -187l4 -398h-85v686h95l228 -438q13 -24 64 -144l-1 12q-1 13 -2 34.5t-2.5 47t-2.5 57t-1 58.5l-3 373h81v-686zM498 860l-170 -135l-171 135l36 44l139 -85l135 85z" />
    <glyph glyph-name="ncaron" unicode="&#x148;" horiz-adv-x="556" 
d="M466 0h-79v337q0 39 -3.5 54.5t-14.5 28.5q-18 21 -55 21q-30 0 -70.5 -20.5t-67.5 -49.5v-371h-76v384q0 32 -5 58t-9 36l-5 11l76 21q18 -37 18 -78q77 77 157 77q40 0 73.5 -20t48.5 -53q12 -27 12 -58v-378zM449 700l-170 -135l-171 135l36 44l139 -85l135 85z" />
    <glyph glyph-name="Omacron" unicode="&#x14c;" horiz-adv-x="681" 
d="M621 332q0 -99 -23.5 -165t-76.5 -114q-73 -66 -174 -66q-119 0 -195 87q-82 94 -82 272q0 163 73 257.5t200 94.5q141 0 216 -112q62 -92 62 -254zM529 320q0 149 -33 218q-20 42 -58.5 68t-94.5 26q-48 0 -88 -21.5t-59 -58.5q-35 -66 -35 -189q0 -164 44 -239
q19 -32 61 -53t85 -21q81 0 128 59q50 63 50 211zM481 751h-274v54h274v-54z" />
    <glyph glyph-name="omacron" unicode="&#x14d;" horiz-adv-x="549" 
d="M494 241q0 -121 -58.5 -187.5t-155.5 -66.5q-102 0 -158.5 70.5t-56.5 194.5q0 121 57 191t155 70q111 0 171 -87q46 -67 46 -185zM405 235q0 103 -23 150q-15 31 -44 47.5t-62 16.5t-61 -14.5t-41 -39.5q-24 -47 -24 -130q0 -112 31 -163q14 -23 41.5 -36.5t59.5 -13.5
q81 0 108 75q15 42 15 108zM415 592h-274v54h274v-54z" />
    <glyph glyph-name="Ohungarumlaut" unicode="&#x150;" horiz-adv-x="681" 
d="M621 332q0 -99 -23.5 -165t-76.5 -114q-73 -66 -174 -66q-119 0 -195 87q-82 94 -82 272q0 163 73 257.5t200 94.5q141 0 216 -112q62 -92 62 -254zM529 320q0 149 -33 218q-20 42 -58.5 68t-94.5 26q-48 0 -88 -21.5t-59 -58.5q-35 -66 -35 -189q0 -164 44 -239
q19 -32 61 -53t85 -21q81 0 128 59q50 63 50 211zM439 902l-147 -177l-46 29l118 194zM654 876l-179 -147l-39 38l152 167z" />
    <glyph glyph-name="ohungarumlaut" unicode="&#x151;" horiz-adv-x="549" 
d="M494 241q0 -121 -58.5 -187.5t-155.5 -66.5q-102 0 -158.5 70.5t-56.5 194.5q0 121 57 191t155 70q111 0 171 -87q46 -67 46 -185zM405 235q0 103 -23 150q-15 31 -44 47.5t-62 16.5t-61 -14.5t-41 -39.5q-24 -47 -24 -130q0 -112 31 -163q14 -23 41.5 -36.5t59.5 -13.5
q81 0 108 75q15 42 15 108zM330 763l-117 -198l-50 21l86 210zM521 744l-154 -173l-44 31l124 189z" />
    <glyph glyph-name="OE" unicode="&#x152;" horiz-adv-x="881" 
d="M841 0h-440q-86 0 -129.5 9t-90.5 43q-116 83 -116 290q0 170 78 256q42 47 90 67.5t126 20.5h472l-11 -69h-281v-224h235v-71h-235v-251h302v-71zM456 72v536q-54 7 -88 7q-63 0 -103.5 -15.5t-64.5 -55.5q-46 -75 -46 -192q0 -82 12.5 -133.5t46.5 -90.5
q53 -62 129 -62q74 0 114 6z" />
    <glyph glyph-name="oe" unicode="&#x153;" horiz-adv-x="849" 
d="M794 236h-311v-12q0 -74 23 -109q40 -61 124 -61q71 0 122 47l30 -50q-68 -62 -168 -62q-55 0 -101 22.5t-66 58.5q-36 -45 -76 -66t-96 -21q-100 0 -157.5 71t-57.5 194q0 121 57 191t155 70q111 0 168 -85q60 88 162 88q82 0 135 -55q33 -33 45 -77.5t12 -132.5v-11z
M400 231q0 103 -23 150q-15 31 -44 47.5t-62 16.5t-61 -14.5t-41 -39.5q-24 -47 -24 -130q0 -112 31 -163q14 -23 41.5 -36.5t59.5 -13.5q81 0 108 75q15 42 15 108zM711 295q-1 76 -23 111q-28 44 -90 44q-109 0 -115 -155h228z" />
    <glyph glyph-name="Racute" unicode="&#x154;" horiz-adv-x="556" 
d="M536 0h-103q-44 99 -175 266q-20 26 -35.5 34.5t-40.5 9.5v-310h-82v686h160q119 0 173 -44q68 -55 68 -144q0 -85 -50 -136.5t-132 -51.5h-10q31 -25 69 -77zM415 499q0 34 -19 63t-48 41q-34 14 -86 14h-79v-256h73q86 0 124 35q35 32 35 103zM431 825l-224 -100
l-26 47l207 130z" />
    <glyph glyph-name="racute" unicode="&#x155;" horiz-adv-x="324" 
d="M344 508l-32 -85q-10 4 -22 4q-47 0 -83 -36q-17 -17 -23 -33t-6 -46v-312h-78v384q0 32 -4 58.5t-8 37.5l-5 10l78 21q2 -4 5 -12t7.5 -29t3.5 -40q27 38 64.5 60.5t75.5 22.5zM340 665l-224 -100l-26 47l207 130z" />
    <glyph glyph-name="Rcommaaccent" unicode="&#x156;" horiz-adv-x="556" 
d="M536 0h-103q-44 99 -175 266q-20 26 -35.5 34.5t-40.5 9.5v-310h-82v686h160q119 0 173 -44q68 -55 68 -144q0 -85 -50 -136.5t-132 -51.5h-10q31 -25 69 -77zM415 499q0 34 -19 63t-48 41q-34 14 -86 14h-79v-256h73q86 0 124 35q35 32 35 103zM357 -138q0 -43 -31 -83
q-24 -31 -68 -56l-23 35q49 23 55 73q-4 -1 -10 -1q-19 0 -31.5 15.5t-12.5 36.5q0 25 16.5 42t40.5 17q28 0 46 -22t18 -57z" />
    <glyph glyph-name="rcommaaccent" unicode="&#x157;" horiz-adv-x="324" 
d="M344 508l-32 -85q-10 4 -22 4q-47 0 -83 -36q-17 -17 -23 -33t-6 -46v-312h-78v384q0 32 -4 58.5t-8 37.5l-5 10l78 21q2 -4 5 -12t7.5 -29t3.5 -40q27 38 64.5 60.5t75.5 22.5zM203 -138q0 -43 -31 -83q-24 -31 -68 -56l-23 35q49 23 55 73q-4 -1 -10 -1
q-19 0 -31.5 15.5t-12.5 36.5q0 25 16.5 42t40.5 17q28 0 46 -22t18 -57z" />
    <glyph glyph-name="Rcaron" unicode="&#x158;" horiz-adv-x="556" 
d="M536 0h-103q-44 99 -175 266q-20 26 -35.5 34.5t-40.5 9.5v-310h-82v686h160q119 0 173 -44q68 -55 68 -144q0 -85 -50 -136.5t-132 -51.5h-10q31 -25 69 -77zM415 499q0 34 -19 63t-48 41q-34 14 -86 14h-79v-256h73q86 0 124 35q35 32 35 103zM450 860l-170 -135
l-171 135l36 44l139 -85l135 85z" />
    <glyph glyph-name="rcaron" unicode="&#x159;" horiz-adv-x="324" 
d="M344 508l-32 -85q-10 4 -22 4q-47 0 -83 -36q-17 -17 -23 -33t-6 -46v-312h-78v384q0 32 -4 58.5t-8 37.5l-5 10l78 21q2 -4 5 -12t7.5 -29t3.5 -40q27 38 64.5 60.5t75.5 22.5zM377 700l-170 -135l-171 135l36 44l139 -85l135 85z" />
    <glyph glyph-name="Sacute" unicode="&#x15a;" horiz-adv-x="579" 
d="M529 194q0 -49 -25 -92.5t-70 -72.5q-65 -42 -154 -42q-120 0 -220 62l36 64q82 -59 184 -59q69 0 109 30q49 37 49 98q0 91 -123 128l-69 21q-90 27 -122 61q-43 46 -43 112q0 88 61 142.5t161 54.5q109 0 207 -66l-36 -59q-50 32 -86.5 45t-80.5 13q-64 0 -100.5 -30
t-36.5 -83q0 -41 26.5 -66.5t87.5 -45.5l79 -25q83 -26 121 -69q45 -51 45 -121zM463 825l-224 -100l-26 47l207 130z" />
    <glyph glyph-name="sacute" unicode="&#x15b;" horiz-adv-x="481" 
d="M431 148q0 -73 -52 -118t-136 -45q-101 0 -183 50l30 58q77 -47 158 -47q46 0 73.5 23t27.5 63q0 65 -82 82l-62 13q-61 13 -93.5 49t-32.5 88q0 67 49.5 110t127.5 43q82 0 152 -40l-29 -58q-75 36 -125 36q-43 0 -68.5 -22.5t-25.5 -59.5q0 -29 16.5 -46.5t55.5 -25.5
l66 -14q133 -28 133 -139zM401 665l-224 -100l-26 47l207 130z" />
    <glyph glyph-name="Scircumflex" unicode="&#x15c;" horiz-adv-x="579" 
d="M529 194q0 -49 -25 -92.5t-70 -72.5q-65 -42 -154 -42q-120 0 -220 62l36 64q82 -59 184 -59q69 0 109 30q49 37 49 98q0 91 -123 128l-69 21q-90 27 -122 61q-43 46 -43 112q0 88 61 142.5t161 54.5q109 0 207 -66l-36 -59q-50 32 -86.5 45t-80.5 13q-64 0 -100.5 -30
t-36.5 -83q0 -41 26.5 -66.5t87.5 -45.5l79 -25q83 -26 121 -69q45 -51 45 -121zM478 765l-36 -44l-139 85l-135 -85l-31 44l170 135z" />
    <glyph glyph-name="scircumflex" unicode="&#x15d;" horiz-adv-x="481" 
d="M431 148q0 -73 -52 -118t-136 -45q-101 0 -183 50l30 58q77 -47 158 -47q46 0 73.5 23t27.5 63q0 65 -82 82l-62 13q-61 13 -93.5 49t-32.5 88q0 67 49.5 110t127.5 43q82 0 152 -40l-29 -58q-75 36 -125 36q-43 0 -68.5 -22.5t-25.5 -59.5q0 -29 16.5 -46.5t55.5 -25.5
l66 -14q133 -28 133 -139zM424 605l-36 -44l-139 85l-135 -85l-31 44l170 135z" />
    <glyph glyph-name="Scedilla" unicode="&#x15e;" horiz-adv-x="579" 
d="M524 194q0 -49 -25 -92.5t-70 -72.5q-56 -35 -125 -41l-8 -30q65 -9 65 -72q0 -32 -26.5 -57.5t-71.5 -25.5q-38 0 -82 24l21 47q35 -16 61 -16q14 0 25 8t11 22t-11.5 21.5t-26.5 7.5q-16 0 -26 -2l-9 10l17 63q-100 7 -188 61l36 64q82 -59 184 -59q69 0 109 30
q49 37 49 98q0 91 -123 128l-69 21q-90 27 -122 61q-43 46 -43 112q0 88 61 142.5t161 54.5q110 0 207 -66l-36 -59q-50 32 -86.5 45t-80.5 13q-64 0 -100.5 -30t-36.5 -83q0 -41 26.5 -66.5t87.5 -45.5l79 -25q83 -26 121 -69q45 -51 45 -121z" />
    <glyph glyph-name="scedilla" unicode="&#x15f;" horiz-adv-x="481" 
d="M426 148q0 -67 -45 -111t-119 -51l-7 -28q65 -9 65 -72q0 -32 -26.5 -57.5t-71.5 -25.5q-38 0 -82 24l21 47q35 -16 61 -16q14 0 25 8t11 22t-11.5 21.5t-26.5 7.5q-16 0 -26 -2l-9 10l17 62q-84 10 -147 48l30 58q77 -47 158 -47q46 0 73.5 23t27.5 63q0 65 -82 82
l-62 13q-61 13 -93.5 49t-32.5 88q0 67 49.5 110t127.5 43q82 0 152 -40l-29 -58q-75 36 -125 36q-43 0 -68.5 -22.5t-25.5 -59.5q0 -29 16.5 -46.5t55.5 -25.5l66 -14q133 -28 133 -139z" />
    <glyph glyph-name="Scaron" unicode="&#x160;" horiz-adv-x="579" 
d="M529 194q0 -49 -25 -92.5t-70 -72.5q-65 -42 -154 -42q-120 0 -220 62l36 64q82 -59 184 -59q69 0 109 30q49 37 49 98q0 91 -123 128l-69 21q-90 27 -122 61q-43 46 -43 112q0 88 61 142.5t161 54.5q109 0 207 -66l-36 -59q-50 32 -86.5 45t-80.5 13q-64 0 -100.5 -30
t-36.5 -83q0 -41 26.5 -66.5t87.5 -45.5l79 -25q83 -26 121 -69q45 -51 45 -121zM472 858l-170 -135l-171 135l36 44l139 -85l135 85z" />
    <glyph glyph-name="scaron" unicode="&#x161;" horiz-adv-x="481" 
d="M431 148q0 -73 -52 -118t-136 -45q-101 0 -183 50l30 58q77 -47 158 -47q46 0 73.5 23t27.5 63q0 65 -82 82l-62 13q-61 13 -93.5 49t-32.5 88q0 67 49.5 110t127.5 43q82 0 152 -40l-29 -58q-75 36 -125 36q-43 0 -68.5 -22.5t-25.5 -59.5q0 -29 16.5 -46.5t55.5 -25.5
l66 -14q133 -28 133 -139zM423 693l-170 -135l-171 135l36 44l139 -85l135 85z" />
    <glyph glyph-name="Tcommaaccent" unicode="&#x162;" horiz-adv-x="464" 
d="M484 686l-5 -69h-186v-617h-79v617h-184v69h454zM318 -138q0 -43 -31 -83q-24 -31 -68 -56l-23 35q49 23 55 73q-4 -1 -10 -1q-19 0 -31.5 15.5t-12.5 36.5q0 25 16.5 42t40.5 17q28 0 46 -22t18 -57z" />
    <glyph glyph-name="tcommaaccent" unicode="&#x163;" horiz-adv-x="320" 
d="M305 498l-24 -59h-104v-321q0 -42 14 -58t50 -16q29 0 49 10l11 -50q-38 -20 -88 -20q-35 0 -65 14q-48 23 -48 99v342h-65v59h65l8 126l82 18q-10 -78 -10 -144h125zM251 -138q0 -43 -31 -83q-24 -31 -68 -56l-23 35q49 23 55 73q-4 -1 -10 -1q-19 0 -31.5 15.5
t-12.5 36.5q0 25 16.5 42t40.5 17q28 0 46 -22t18 -57z" />
    <glyph glyph-name="Tcaron" unicode="&#x164;" horiz-adv-x="464" 
d="M484 686l-5 -69h-186v-617h-79v617h-184v69h454zM419 860l-170 -135l-171 135l36 44l139 -85l135 85z" />
    <glyph glyph-name="tcaron" unicode="&#x165;" horiz-adv-x="320" 
d="M305 498l-24 -59h-104v-321q0 -42 14 -58t50 -16q29 0 49 10l11 -50q-38 -20 -88 -20q-35 0 -65 14q-48 23 -48 99v342h-65v59h65l8 126l82 18q-10 -78 -10 -144h125zM366 669q0 -43 -31 -83q-24 -31 -68 -56l-23 35q49 23 55 73q-4 -1 -10 -1q-19 0 -31.5 15.5
t-12.5 36.5q0 25 16.5 42t40.5 17q28 0 46 -22t18 -57z" />
    <glyph glyph-name="Umacron" unicode="&#x16a;" horiz-adv-x="635" 
d="M550 198q0 -63 -11 -97t-41 -60q-62 -53 -180 -53q-79 0 -127 24t-76 75q-20 37 -20 107v492h81v-462q0 -71 12 -99q29 -67 134 -67q89 0 121 43q26 35 26 107v478h81v-488zM462 751h-274v54h274v-54z" />
    <glyph glyph-name="umacron" unicode="&#x16b;" horiz-adv-x="557" 
d="M501 32l-50 -53q-45 37 -54 80q-57 -76 -158 -76q-97 0 -131 71q-13 27 -13 74v366l77 15v-358q0 -36 6.5 -54t23.5 -30q25 -17 61 -17q37 0 72 25t55 65v353l77 13v-363q0 -46 7.5 -69.5t26.5 -41.5zM421 592h-274v54h274v-54z" />
    <glyph glyph-name="Ubreve" unicode="&#x16c;" horiz-adv-x="635" 
d="M550 198q0 -63 -11 -97t-41 -60q-62 -53 -180 -53q-79 0 -127 24t-76 75q-20 37 -20 107v492h81v-462q0 -71 12 -99q29 -67 134 -67q89 0 121 43q26 35 26 107v478h81v-488zM484 832q-10 -14 -31 -34t-60 -43.5t-72 -23.5q-34 0 -73.5 23.5t-59.5 43t-32 34.5l35 38
q21 -19 57.5 -37.5t75.5 -18.5q54 0 130 56z" />
    <glyph glyph-name="ubreve" unicode="&#x16d;" horiz-adv-x="557" 
d="M501 32l-50 -53q-45 37 -54 80q-57 -76 -158 -76q-97 0 -131 71q-13 27 -13 74v366l77 15v-358q0 -36 6.5 -54t23.5 -30q25 -17 61 -17q37 0 72 25t55 65v353l77 13v-363q0 -46 7.5 -69.5t26.5 -41.5zM446 669q-19 -26 -67.5 -62t-95.5 -36q-34 0 -73 23t-59 42t-32 33
l34 39q21 -18 58 -37t76 -19q53 0 129 56z" />
    <glyph glyph-name="Uring" unicode="&#x16e;" horiz-adv-x="635" 
d="M550 198q0 -63 -11 -97t-41 -60q-62 -53 -180 -53q-79 0 -127 24t-76 75q-20 37 -20 107v492h81v-462q0 -71 12 -99q29 -67 134 -67q89 0 121 43q26 35 26 107v478h81v-488zM425 819q0 -44 -30.5 -75t-73.5 -31t-74.5 31.5t-31.5 74.5q0 44 30.5 75t73.5 31t74.5 -31.5
t31.5 -74.5zM380 819q0 24 -18.5 42t-43.5 18q-23 0 -40 -18t-17 -42t18 -42t42 -18q23 0 41 18t18 42z" />
    <glyph glyph-name="uring" unicode="&#x16f;" horiz-adv-x="557" 
d="M501 32l-50 -53q-45 37 -54 80q-57 -76 -158 -76q-97 0 -131 71q-13 27 -13 74v366l77 15v-358q0 -36 6.5 -54t23.5 -30q25 -17 61 -17q37 0 72 25t55 65v353l77 13v-363q0 -46 7.5 -69.5t26.5 -41.5zM390 659q0 -44 -30.5 -75t-73.5 -31q-44 0 -75 31.5t-31 74.5
q0 44 30.5 75t73.5 31t74.5 -31.5t31.5 -74.5zM345 659q0 24 -18.5 42t-43.5 18q-23 0 -40 -18t-17 -42t18 -42t42 -18q23 0 41 18t18 42z" />
    <glyph glyph-name="Uhungarumlaut" unicode="&#x170;" horiz-adv-x="635" 
d="M550 198q0 -63 -11 -97t-41 -60q-62 -53 -180 -53q-79 0 -127 24t-76 75q-20 37 -20 107v492h81v-462q0 -71 12 -99q29 -67 134 -67q89 0 121 43q26 35 26 107v478h81v-488zM381 902l-147 -177l-46 29l118 194zM596 876l-179 -147l-39 38l152 167z" />
    <glyph glyph-name="uhungarumlaut" unicode="&#x171;" horiz-adv-x="557" 
d="M501 32l-50 -53q-45 37 -54 80q-57 -76 -158 -76q-97 0 -131 71q-13 27 -13 74v366l77 15v-358q0 -36 6.5 -54t23.5 -30q25 -17 61 -17q37 0 72 25t55 65v353l77 13v-363q0 -46 7.5 -69.5t26.5 -41.5zM354 763l-117 -198l-50 21l86 210zM545 744l-154 -173l-44 31
l124 189z" />
    <glyph glyph-name="Uogonek" unicode="&#x172;" horiz-adv-x="635" 
d="M550 198q0 -63 -11 -97t-41 -60q-38 -32 -95 -45q-29 -7 -56 -35.5t-27 -64.5q0 -15 9.5 -25.5t26.5 -10.5q31 0 61 14l21 -47q-44 -24 -82 -24q-46 0 -72 25t-26 62q0 48 45 98q-137 4 -188 99q-20 37 -20 107v492h81v-462q0 -71 12 -99q29 -67 134 -67q89 0 121 43
q26 35 26 107v478h81v-488z" />
    <glyph glyph-name="uogonek" unicode="&#x173;" horiz-adv-x="557" 
d="M517 -173q-44 -24 -82 -24q-46 0 -72 25t-26 62q0 25 12.5 50t25 39.5t35.5 37.5q-14 18 -18 42q-57 -76 -158 -76q-97 0 -131 71q-13 27 -13 74v366l77 15v-358q0 -36 6.5 -54t23.5 -30q25 -17 61 -17q37 0 72 25t55 65v353l77 13v-363q0 -46 7.5 -69.5t26.5 -41.5
q-2 -1 -11 -10t-12.5 -12t-12.5 -11.5t-13.5 -13t-12 -13.5t-11.5 -15t-9.5 -14.5t-8 -15.5t-4.5 -15t-2 -16q0 -15 9.5 -25.5t26.5 -10.5q31 0 61 14z" />
    <glyph glyph-name="Ydieresis" unicode="&#x178;" horiz-adv-x="519" 
d="M529 686l-223 -419v-267h-85v272l-221 414h101l130 -262l35 -77q17 37 37 77l132 262h94zM211 781q0 -22 -14.5 -37.5t-36.5 -15.5t-37 15.5t-15 37.5q0 21 15 36t36 15q22 0 37 -15t15 -36zM418 781q0 -22 -14.5 -37.5t-36.5 -15.5t-37 15.5t-15 37.5q0 21 15 36t36 15
q22 0 37 -15t15 -36z" />
    <glyph glyph-name="Zacute" unicode="&#x179;" horiz-adv-x="518" 
d="M478 70l-21 -70h-407v63l293 489l44 66q-29 -1 -71 -1h-256l23 69h391v-70l-285 -481l-42 -66q28 1 59 1h272zM408 825l-224 -100l-26 47l207 130z" />
    <glyph glyph-name="zacute" unicode="&#x17a;" horiz-adv-x="459" 
d="M419 60l-37 -60h-332v60l271 376h-250v62h332v-64l-259 -374h275zM373 665l-224 -100l-26 47l207 130z" />
    <glyph glyph-name="Zdotaccent" unicode="&#x17b;" horiz-adv-x="518" 
d="M478 70l-21 -70h-407v63l293 489l44 66q-29 -1 -71 -1h-256l23 69h391v-70l-285 -481l-42 -66q28 1 59 1h272zM336 789q0 -25 -18 -43t-43 -18t-43 17.5t-18 42.5q0 26 18 44t43 18t43 -18t18 -43z" />
    <glyph glyph-name="zdotaccent" unicode="&#x17c;" horiz-adv-x="459" 
d="M419 60l-37 -60h-332v60l271 376h-250v62h332v-64l-259 -374h275zM296 652q0 -26 -18 -43.5t-43 -17.5t-43 17.5t-18 42.5q0 26 18 44t43 18t43 -17.5t18 -43.5z" />
    <glyph glyph-name="Zcaron" unicode="&#x17d;" horiz-adv-x="518" 
d="M478 70l-21 -70h-407v63l293 489l44 66q-29 -1 -71 -1h-256l23 69h391v-70l-285 -481l-42 -66q28 1 59 1h272zM439 858l-170 -135l-171 135l36 44l139 -85l135 85z" />
    <glyph glyph-name="zcaron" unicode="&#x17e;" horiz-adv-x="459" 
d="M419 60l-37 -60h-332v60l271 376h-250v62h332v-64l-259 -374h275zM411 693l-170 -135l-171 135l36 44l139 -85l135 85z" />
    <glyph glyph-name="longs" unicode="&#x17f;" horiz-adv-x="323" 
d="M375 698l-31 -59q-42 25 -73 25q-104 0 -104 -142v-522h-77v439h-74v59h74v13q0 57 7.5 91.5t32.5 62.5q52 60 147 60q48 0 98 -27z" />
    <glyph glyph-name="florin" unicode="&#x192;" horiz-adv-x="324" 
d="M369 695l-33 -55q-36 23 -69 23q-66 0 -72 -88l-5 -77h134l-28 -59h-110l-26 -384q-2 -38 -3 -48.5t-4 -38.5t-6 -36t-9.5 -28t-15 -28.5t-21.5 -23.5t-30 -26t-39 -24l-37 56q17 10 29.5 21t21 18.5t15 21t9.5 19.5t6 24.5t3.5 23.5t2 30t1.5 32l25 391h-46v59h50l5 78
q3 48 18.5 74.5t43.5 47.5q37 26 86 26q27 0 58.5 -10t45.5 -19z" />
    <glyph glyph-name="Scommaaccent" unicode="&#x218;" horiz-adv-x="579" 
d="M529 194q0 -49 -25 -92.5t-70 -72.5q-65 -42 -154 -42q-120 0 -220 62l36 64q82 -59 184 -59q69 0 109 30q49 37 49 98q0 91 -123 128l-69 21q-90 27 -122 61q-43 46 -43 112q0 88 61 142.5t161 54.5q109 0 207 -66l-36 -59q-50 32 -86.5 45t-80.5 13q-64 0 -100.5 -30
t-36.5 -83q0 -41 26.5 -66.5t87.5 -45.5l79 -25q83 -26 121 -69q45 -51 45 -121zM356 -138q0 -43 -31 -83q-24 -31 -68 -56l-23 35q49 23 55 73q-4 -1 -10 -1q-19 0 -31.5 15.5t-12.5 36.5q0 25 16.5 42t40.5 17q28 0 46 -22t18 -57z" />
    <glyph glyph-name="scommaaccent" unicode="&#x219;" horiz-adv-x="481" 
d="M431 148q0 -73 -52 -118t-136 -45q-101 0 -183 50l30 58q77 -47 158 -47q46 0 73.5 23t27.5 63q0 65 -82 82l-62 13q-61 13 -93.5 49t-32.5 88q0 67 49.5 110t127.5 43q82 0 152 -40l-29 -58q-75 36 -125 36q-43 0 -68.5 -22.5t-25.5 -59.5q0 -29 16.5 -46.5t55.5 -25.5
l66 -14q133 -28 133 -139zM308 -138q0 -43 -31 -83q-24 -31 -68 -56l-23 35q49 23 55 73q-4 -1 -10 -1q-19 0 -31.5 15.5t-12.5 36.5q0 25 16.5 42t40.5 17q28 0 46 -22t18 -57z" />
    <glyph glyph-name="uni021A" unicode="&#x21a;" horiz-adv-x="464" 
d="M484 686l-5 -69h-186v-617h-79v617h-184v69h454zM318 -138q0 -43 -31 -83q-24 -31 -68 -56l-23 35q49 23 55 73q-4 -1 -10 -1q-19 0 -31.5 15.5t-12.5 36.5q0 25 16.5 42t40.5 17q28 0 46 -22t18 -57z" />
    <glyph glyph-name="uni021B" unicode="&#x21b;" horiz-adv-x="320" 
d="M305 498l-24 -59h-104v-321q0 -42 14 -58t50 -16q29 0 49 10l11 -50q-38 -20 -88 -20q-35 0 -65 14q-48 23 -48 99v342h-65v59h65l8 126l82 18q-10 -78 -10 -144h125zM251 -138q0 -43 -31 -83q-24 -31 -68 -56l-23 35q49 23 55 73q-4 -1 -10 -1q-19 0 -31.5 15.5
t-12.5 36.5q0 25 16.5 42t40.5 17q28 0 46 -22t18 -57z" />
    <glyph glyph-name="dotlessj" unicode="&#x237;" 
d="M175 10q0 -76 -14 -110q-27 -64 -102 -98l-39 52q48 21 61.5 55.5t13.5 107.5v477l80 16v-500z" />
    <glyph glyph-name="circumflex" unicode="&#x2c6;" horiz-adv-x="411" 
d="M376 605l-36 -44l-139 85l-135 -85l-31 44l170 135z" />
    <glyph glyph-name="caron" unicode="&#x2c7;" horiz-adv-x="411" 
d="M376 693l-170 -135l-171 135l36 44l139 -85l135 85z" />
    <glyph glyph-name="breve" unicode="&#x2d8;" horiz-adv-x="411" 
d="M376 693q-21 -31 -71 -73t-99 -42q-35 0 -76 27t-61.5 49t-33.5 39l36 44q69 -65 139 -65q55 0 135 65z" />
    <glyph glyph-name="dotaccent" unicode="&#x2d9;" horiz-adv-x="252" 
d="M187 652q0 -26 -17.5 -43.5t-43.5 -17.5q-25 0 -43 17.5t-18 42.5q0 26 18 44t43 18q26 0 43.5 -17.5t17.5 -43.5z" />
    <glyph glyph-name="ring" unicode="&#x2da;" horiz-adv-x="300" 
d="M255 659q0 -44 -30.5 -75t-73.5 -31t-74.5 31.5t-31.5 74.5q0 44 30.5 75t73.5 31t74.5 -31.5t31.5 -74.5zM210 659q0 24 -18.5 42t-43.5 18q-23 0 -40 -18t-17 -42t18 -42t42 -18q23 0 41 18t18 42z" />
    <glyph glyph-name="ogonek" unicode="&#x2db;" horiz-adv-x="290" 
d="M235 -173q-44 -24 -82 -24q-46 0 -72 25t-26 62q0 41 21 75t44 52l51 -29q-6 -5 -15 -13t-24 -32.5t-15 -46.5q0 -15 9.5 -25.5t26.5 -10.5q31 0 61 14z" />
    <glyph glyph-name="tilde" unicode="&#x2dc;" horiz-adv-x="395" 
d="M370 656q-27 -33 -53 -48t-68 -15q-31 0 -64.5 18.5t-62.5 18.5q-22 0 -35.5 -9t-33.5 -30l-28 45q27 34 52.5 48.5t67.5 14.5q31 0 64.5 -18.5t62.5 -18.5q22 0 36.5 9.5t33.5 29.5z" />
    <glyph glyph-name="hungarumlaut" unicode="&#x2dd;" horiz-adv-x="428" 
d="M202 722l-117 -198l-50 21l86 210zM393 703l-154 -173l-44 31l124 189z" />
    <glyph glyph-name="uni037E" unicode="&#x37e;" horiz-adv-x="320" 
d="M240 29q0 -52 -38 -103q-31 -40 -84 -69l-28 44q59 29 67 89q-4 -1 -11 -1q-23 0 -39 19t-16 45q0 30 20.5 51t49.5 21q35 0 57 -27t22 -69zM225 372q0 -29 -19.5 -49t-47.5 -20t-48 21t-20 50q0 26 19.5 45t47.5 19t48 -19.5t20 -46.5z" />
    <glyph glyph-name="tonos" unicode="&#x384;" horiz-adv-x="310" 
d="M225 760l-103 -196l-37 16l70 210z" />
    <glyph glyph-name="dieresistonos" unicode="&#x385;" horiz-adv-x="460" 
d="M405 621q0 -22 -15 -37.5t-36 -15.5q-22 0 -37.5 15.5t-15.5 37.5q0 21 15 36t37 15q21 0 36.5 -15t15.5 -36zM333 778l-103 -196l-37 16l70 210zM158 621q0 -22 -14.5 -37.5t-36.5 -15.5t-37 15.5t-15 37.5q0 21 15 36t36 15q22 0 37 -15t15 -36z" />
    <glyph glyph-name="Alphatonos" unicode="&#x386;" horiz-adv-x="583" 
d="M573 0h-93l-65 211h-256l-66 -211h-83l229 686h107zM103 668l-103 -196l-37 16l70 210zM394 278l-105 336l-108 -336h213z" />
    <glyph glyph-name="anoteleia" unicode="&#x387;" horiz-adv-x="301" 
d="M216 279q0 -27 -19 -46.5t-46 -19.5t-46.5 19.5t-19.5 46.5q0 28 19 47t46 19t46.5 -19t19.5 -47z" />
    <glyph glyph-name="Epsilontonos" unicode="&#x388;" horiz-adv-x="520" 
d="M480 0h-385v686h375l-11 -68h-281v-225h235v-71h-235v-251h302v-71zM13 668l-103 -196l-37 16l70 210z" />
    <glyph glyph-name="Etatonos" unicode="&#x389;" horiz-adv-x="641" 
d="M546 0h-82v332h-289v-332h-80v686h80v-287h289v287h82v-686zM13 668l-103 -196l-37 16l70 210z" />
    <glyph glyph-name="Iotatonos" unicode="&#x38a;" 
d="M13 668l-103 -196l-37 16l70 210zM175 0h-80v686h80v-686z" />
    <glyph glyph-name="Omicrontonos" unicode="&#x38c;" horiz-adv-x="681" 
d="M616 332q0 -99 -23.5 -165t-76.5 -114q-73 -66 -174 -66q-119 0 -195 87q-82 94 -82 272q0 163 73 257.5t200 94.5q141 0 216 -112q62 -92 62 -254zM63 668l-103 -196l-37 16l70 210zM524 320q0 149 -33 218q-20 42 -58.5 68t-94.5 26q-48 0 -88 -21.5t-59 -58.5
q-35 -66 -35 -189q0 -164 44 -239q19 -32 61 -53t85 -21q81 0 128 59q50 63 50 211z" />
    <glyph glyph-name="Upsilontonos" unicode="&#x38e;" horiz-adv-x="519" 
d="M524 686l-223 -419v-267h-85v272l-221 414h101l130 -262l35 -77q17 37 37 77l132 262h94zM-17 668l-103 -196l-37 16l70 210z" />
    <glyph glyph-name="Omegatonos" unicode="&#x38f;" horiz-adv-x="699" 
d="M634 341q0 -88 -33.5 -160.5t-93.5 -109.5h122l-13 -71h-197v71q58 33 90.5 92t32.5 166q0 130 -38 209q-19 41 -59.5 67.5t-96.5 26.5q-48 0 -89.5 -21.5t-60.5 -58.5q-42 -79 -42 -180q0 -89 19.5 -153t44.5 -93.5t61 -54.5v-71h-214l13 71h110q-59 46 -92 122t-33 162
q0 163 88 261q74 82 195 82q144 0 219 -112q67 -100 67 -245zM63 668l-103 -196l-37 16l70 210z" />
    <glyph glyph-name="iotadieresistonos" unicode="&#x390;" horiz-adv-x="262" 
d="M243 778l-103 -196l-37 16l70 210zM295 621q0 -22 -15 -37.5t-36 -15.5q-22 0 -37.5 15.5t-15.5 37.5q0 21 15 36t37 15q21 0 36.5 -15t15.5 -36zM78 621q0 -22 -14.5 -37.5t-36.5 -15.5t-37 15.5t-15 37.5q0 21 15 36t36 15q22 0 37 -15t15 -36zM222 1q-24 -11 -50 -11
q-36 0 -59 21q-24 21 -24 71v311q0 29 -3 54.5t-6 36.5l-3 11l78 15q13 -42 13 -118v-292q0 -29 6 -39.5t22 -10.5l10 2z" />
    <glyph glyph-name="Alpha" unicode="&#x391;" horiz-adv-x="583" 
d="M573 0h-93l-65 211h-256l-66 -211h-83l229 686h107zM394 278l-105 336l-108 -336h213z" />
    <glyph glyph-name="Beta" unicode="&#x392;" horiz-adv-x="609" 
d="M544 188q0 -57 -28.5 -103t-78.5 -65q-30 -11 -61.5 -15.5t-103.5 -4.5h-177v686h99q100 0 138.5 -3t65.5 -12q53 -18 85 -61.5t32 -95.5q0 -53 -32 -92t-91 -58q58 -11 90 -36q62 -47 62 -140zM424 503q0 40 -21.5 69.5t-56.5 38.5q-23 6 -75 6h-97v-226h119q55 0 80 12
t40 47q11 25 11 53zM458 195q0 45 -23 79.5t-60 41.5q-33 7 -80 7h-121v-256h146q73 0 105.5 32t32.5 96z" />
    <glyph glyph-name="Gamma" unicode="&#x393;" horiz-adv-x="416" 
d="M441 686l-13 -68h-250v-618h-83v686h346z" />
    <glyph glyph-name="uni0394" unicode="&#x394;" horiz-adv-x="604" 
d="M583 70l-16 -70h-549v58l234 628h103zM490 70l-190 544l-195 -544h385z" />
    <glyph glyph-name="Epsilon" unicode="&#x395;" horiz-adv-x="520" 
d="M480 0h-385v686h375l-11 -68h-281v-225h235v-71h-235v-251h302v-71z" />
    <glyph glyph-name="Zeta" unicode="&#x396;" horiz-adv-x="518" 
d="M473 70l-21 -70h-407v63l293 489l44 66q-29 -1 -71 -1h-256l23 69h391v-70l-285 -481l-42 -66q28 1 59 1h272z" />
    <glyph glyph-name="Eta" unicode="&#x397;" horiz-adv-x="641" 
d="M546 0h-82v332h-289v-332h-80v686h80v-287h289v287h82v-686z" />
    <glyph glyph-name="Theta" unicode="&#x398;" horiz-adv-x="701" 
d="M636 332q0 -63 -17 -122.5t-50.5 -110t-89.5 -81.5t-127 -31q-59 0 -107.5 22t-81.5 57.5t-55.5 82.5t-32.5 97t-10 100q0 159 78 255.5t205 96.5q61 0 111 -22.5t82 -59t54 -85t31.5 -98.5t9.5 -101zM541 393q-24 239 -193 239q-51 0 -89 -21t-58.5 -58t-31 -76
t-12.5 -84h384zM544 320v2h-387q2 -39 8 -73.5t20 -72.5t35 -64.5t56 -44t80 -17.5q55 0 94 25.5t58.5 68.5t27.5 86t8 90z" />
    <glyph glyph-name="Iota" unicode="&#x399;" 
d="M175 0h-80v686h80v-686z" />
    <glyph glyph-name="Kappa" unicode="&#x39a;" horiz-adv-x="556" 
d="M551 686l-276 -322l274 -364h-105l-262 363l264 323h105zM178 0h-83v686h83v-686z" />
    <glyph glyph-name="Lambda" unicode="&#x39b;" horiz-adv-x="565" 
d="M552 0h-93l-179 614l-185 -614h-82l217 686h107z" />
    <glyph glyph-name="Mu" unicode="&#x39c;" horiz-adv-x="806" 
d="M736 0h-82l-40 503q-5 72 -5 116q-1 -2 -5 -20t-10.5 -43.5t-11.5 -43.5l-147 -512h-70l-136 487q-31 111 -34 133q0 -23 -8 -132l-38 -488h-79l60 686h120l125 -448q17 -60 27 -119q15 75 25 111l129 456h121z" />
    <glyph glyph-name="Nu" unicode="&#x39d;" horiz-adv-x="646" 
d="M551 0h-86l-220 420q-20 37 -39.5 78t-29.5 64l-9 23q8 -98 9 -187l4 -398h-85v686h95l228 -438q13 -24 64 -144l-1 12q-1 13 -2 34.5t-2.5 47t-2.5 57t-1 58.5l-3 373h81v-686z" />
    <glyph glyph-name="Xi" unicode="&#x39e;" horiz-adv-x="520" 
d="M470 686l-12 -74h-403v74h415zM422 397l-13 -75h-312l13 75h312zM480 0h-437l13 75h424v-75z" />
    <glyph glyph-name="Omicron" unicode="&#x39f;" horiz-adv-x="681" 
d="M616 332q0 -99 -23.5 -165t-76.5 -114q-73 -66 -174 -66q-119 0 -195 87q-82 94 -82 272q0 163 73 257.5t200 94.5q141 0 216 -112q62 -92 62 -254zM524 320q0 149 -33 218q-20 42 -58.5 68t-94.5 26q-48 0 -88 -21.5t-59 -58.5q-35 -66 -35 -189q0 -164 44 -239
q19 -32 61 -53t85 -21q81 0 128 59q50 63 50 211z" />
    <glyph glyph-name="Pi" unicode="&#x3a0;" horiz-adv-x="631" 
d="M536 0h-82v619h-279v-619h-80v686h441v-686z" />
    <glyph glyph-name="Rho" unicode="&#x3a1;" horiz-adv-x="548" 
d="M523 490q0 -107 -62 -163q-61 -54 -166 -54h-120v-273h-80v686h190q101 0 150 -32q88 -58 88 -164zM432 474q0 75 -40 109t-130 34h-87v-277h115q42 0 65.5 8.5t41.5 28.5q35 39 35 97z" />
    <glyph glyph-name="Sigma" unicode="&#x3a3;" horiz-adv-x="495" 
d="M455 686l-23 -68h-279l190 -236l-208 -311h317v-71h-407v63l206 313l-197 241l23 69h378z" />
    <glyph glyph-name="Tau" unicode="&#x3a4;" horiz-adv-x="464" 
d="M479 686l-5 -69h-186v-617h-79v617h-184v69h454z" />
    <glyph glyph-name="Upsilon" unicode="&#x3a5;" horiz-adv-x="519" 
d="M524 686l-223 -419v-267h-85v272l-221 414h101l130 -262l35 -77q17 37 37 77l132 262h94z" />
    <glyph glyph-name="Phi" unicode="&#x3a6;" horiz-adv-x="727" 
d="M679 339q0 -138 -103 -207q-76 -50 -171 -50v-82h-80v82q-122 0 -198 66q-79 69 -79 202q0 122 75 192.5t202 70.5v73h80v-73q139 0 215 -85q59 -66 59 -189zM587 332q0 104 -30 146q-44 62 -152 62v-387q81 0 129 39q53 45 53 140zM325 153v387q-48 0 -88.5 -14
t-59.5 -38q-38 -49 -38 -126q0 -112 41 -159q19 -22 60.5 -36t84.5 -14z" />
    <glyph glyph-name="Chi" unicode="&#x3a7;" horiz-adv-x="546" 
d="M536 0h-99l-170 315l-161 -315h-96l203 368l-182 318h97l137 -254l131 254h96l-172 -312z" />
    <glyph glyph-name="Psi" unicode="&#x3a8;" horiz-adv-x="740" 
d="M675 411q0 -117 -72 -186t-193 -71v-154h-80v154q-114 2 -189.5 65.5t-75.5 202.5v264h80v-252q0 -46 7.5 -79.5t26.5 -64.5t57 -47.5t94 -17.5v461h80v-461q87 2 136 47.5t49 132.5v281h80v-275z" />
    <glyph glyph-name="uni03A9" unicode="&#x3a9;" horiz-adv-x="699" 
d="M634 341q0 -88 -33.5 -160.5t-93.5 -109.5h122l-13 -71h-197v71q58 33 90.5 92t32.5 166q0 130 -38 209q-19 41 -59.5 67.5t-96.5 26.5q-48 0 -89.5 -21.5t-60.5 -58.5q-42 -79 -42 -180q0 -89 19.5 -153t44.5 -93.5t61 -54.5v-71h-214l13 71h110q-59 46 -92 122t-33 162
q0 163 88 261q74 82 195 82q144 0 219 -112q67 -100 67 -245z" />
    <glyph glyph-name="Iotadieresis" unicode="&#x3aa;" 
d="M290 781q0 -22 -15 -37.5t-36 -15.5q-22 0 -37.5 15.5t-15.5 37.5q0 21 15 36t37 15q21 0 36.5 -15t15.5 -36zM83 781q0 -22 -14.5 -37.5t-36.5 -15.5t-37 15.5t-15 37.5q0 21 15 36t36 15q22 0 37 -15t15 -36zM175 0h-80v686h80v-686z" />
    <glyph glyph-name="Upsilondieresis" unicode="&#x3ab;" horiz-adv-x="519" 
d="M414 781q0 -22 -15 -37.5t-36 -15.5q-22 0 -37.5 15.5t-15.5 37.5q0 21 15 36t37 15q21 0 36.5 -15t15.5 -36zM207 781q0 -22 -14.5 -37.5t-36.5 -15.5t-37 15.5t-15 37.5q0 21 15 36t36 15q22 0 37 -15t15 -36zM524 686l-223 -419v-267h-85v272l-221 414h101l130 -262
l35 -77q17 37 37 77l132 262h94z" />
    <glyph glyph-name="alphatonos" unicode="&#x3ac;" horiz-adv-x="574" 
d="M395 760l-103 -196l-37 16l70 210zM514 42l-40 -56q-54 17 -68 73q-70 -70 -147 -70q-66 0 -114 41q-80 67 -80 204q0 135 47 199q58 80 149 80q78 0 141 -70q3 40 10 55h77q-15 -45 -15 -128v-206q0 -64 6.5 -86t33.5 -36zM399 132v240q-20 32 -55.5 51.5t-71.5 19.5
q-70 0 -101 -61q-23 -45 -23 -130q0 -74 12 -109.5t35 -56.5q31 -30 83 -30q81 0 121 76z" />
    <glyph glyph-name="epsilontonos" unicode="&#x3ad;" horiz-adv-x="505" 
d="M385 760l-103 -196l-37 16l70 210zM459 49q-74 -62 -206 -62q-33 0 -63 6.5t-60.5 21.5t-49 45.5t-18.5 72.5q0 53 32 86.5t86 45.5q-100 26 -100 109q0 58 51.5 99t129.5 41q113 0 188 -69l-34 -45q-69 52 -151 52q-46 0 -73.5 -21.5t-27.5 -54.5q0 -44 32 -64.5
t76 -20.5h58v-57h-56q-126 0 -126 -91q0 -46 36 -68.5t84 -22.5q105 0 162 47z" />
    <glyph glyph-name="etatonos" unicode="&#x3ae;" horiz-adv-x="556" 
d="M395 760l-103 -196l-37 16l70 210zM501 40l-40 -56q-47 16 -64 53q-15 30 -15 78v222q0 39 -3.5 54.5t-14.5 28.5q-18 21 -55 21q-30 0 -70.5 -20.5t-67.5 -49.5v-371h-76v384q0 32 -4.5 58t-9.5 36l-5 11l76 21q18 -37 18 -78q77 77 157 77q40 0 73.5 -20t48.5 -53
q12 -27 12 -58v-216q0 -64 6.5 -86t33.5 -36z" />
    <glyph glyph-name="iotatonos" unicode="&#x3af;" horiz-adv-x="262" 
d="M245 760l-103 -196l-37 16l70 210zM222 1q-24 -11 -50 -11q-36 0 -59 21q-24 21 -24 71v311q0 29 -3 54.5t-6 36.5l-3 11l78 15q13 -42 13 -118v-292q0 -29 6 -39.5t22 -10.5l10 2z" />
    <glyph glyph-name="upsilondieresistonos" unicode="&#x3b0;" horiz-adv-x="544" 
d="M447 621q0 -22 -15 -37.5t-36 -15.5q-22 0 -37.5 15.5t-15.5 37.5q0 21 15 36t37 15q21 0 36.5 -15t15.5 -36zM375 778l-103 -196l-37 16l70 210zM200 621q0 -22 -14.5 -37.5t-36.5 -15.5t-37 15.5t-15 37.5q0 21 15 36t36 15q22 0 37 -15t15 -36zM458 158
q0 -75 -52 -124.5t-141 -49.5q-90 0 -134.5 42.5t-44.5 118.5v349l77 15v-348q0 -60 23 -88.5t83 -28.5q112 0 112 118v331l77 13v-348z" />
    <glyph glyph-name="alpha" unicode="&#x3b1;" horiz-adv-x="574" 
d="M514 42l-40 -56q-54 17 -68 73q-70 -70 -147 -70q-66 0 -114 41q-80 67 -80 204q0 135 47 199q58 80 149 80q78 0 141 -70q3 40 10 55h77q-15 -45 -15 -128v-206q0 -64 6.5 -86t33.5 -36zM399 132v240q-20 32 -55.5 51.5t-71.5 19.5q-70 0 -101 -61q-23 -45 -23 -130
q0 -74 12 -109.5t35 -56.5q31 -30 83 -30q81 0 121 76z" />
    <glyph glyph-name="beta" unicode="&#x3b2;" horiz-adv-x="565" 
d="M508 204q0 -50 -21.5 -98t-71.5 -83.5t-118 -35.5q-33 0 -68.5 15.5t-61.5 42.5v-238l-77 -15v696q0 106 45.5 158t151.5 52q82 0 133 -49t51 -122q0 -115 -109 -146q72 -17 109 -64t37 -113zM420 192q0 77 -41 112.5t-127 35.5h-14l15 58q133 0 133 119q0 53 -28 88
t-82 35q-109 0 -109 -141v-382q57 -65 123 -65q63 0 96.5 43t33.5 97z" />
    <glyph glyph-name="gamma" unicode="&#x3b3;" horiz-adv-x="486" 
d="M461 498l-175 -498v-193l-79 -15v208l-129 399q-13 41 -31 41q-14 0 -25 -7l-22 52q35 22 69 22q61 0 81 -69l80 -266q12 -39 19 -74h2q13 53 20 74l108 326h82z" />
    <glyph glyph-name="delta" unicode="&#x3b4;" horiz-adv-x="549" 
d="M489 241q0 -121 -58.5 -187.5t-155.5 -66.5q-102 0 -158.5 70.5t-56.5 194.5q0 113 56 179.5t154 66.5q-92 81 -154 118l12 70h318l-11 -67h-206q89 -56 156 -130q104 -113 104 -248zM400 235q0 40 -4 70t-16.5 62t-40 49.5t-68.5 17.5q-126 0 -126 -169q0 -112 31 -163
q14 -23 41.5 -36.5t59.5 -13.5q81 0 108 75q15 42 15 108z" />
    <glyph glyph-name="epsilon" unicode="&#x3b5;" horiz-adv-x="505" 
d="M459 49q-74 -62 -206 -62q-33 0 -63 6.5t-60.5 21.5t-49 45.5t-18.5 72.5q0 53 32 86.5t86 45.5q-100 26 -100 109q0 58 51.5 99t129.5 41q113 0 188 -69l-34 -45q-69 52 -151 52q-46 0 -73.5 -21.5t-27.5 -54.5q0 -44 32 -64.5t76 -20.5h58v-57h-56q-126 0 -126 -91
q0 -46 36 -68.5t84 -22.5q105 0 162 47z" />
    <glyph glyph-name="zeta" unicode="&#x3b6;" horiz-adv-x="448" 
d="M443 686l-11 -66q-128 -85 -204 -198t-76 -234q0 -109 119 -109h50q58 0 89 -34t31 -92q0 -31 -12.5 -62t-22.5 -45t-39 -54l-48 33q2 2 8.5 11.5t7.5 11.5t6 10t6.5 10t5 9t4.5 10.5t3 10t2.5 11.5t1.5 12t1 14q0 25 -14 45t-46 20h-57q-89 0 -136 48.5t-47 123.5
q0 132 71.5 247t192.5 200h-248l11 67h351z" />
    <glyph glyph-name="eta" unicode="&#x3b7;" horiz-adv-x="556" 
d="M501 40l-40 -56q-47 16 -64 53q-15 30 -15 78v222q0 39 -3.5 54.5t-14.5 28.5q-18 21 -55 21q-30 0 -70.5 -20.5t-67.5 -49.5v-371h-76v384q0 32 -4.5 58t-9.5 36l-5 11l76 21q18 -37 18 -78q77 77 157 77q40 0 73.5 -20t48.5 -53q12 -27 12 -58v-216q0 -64 6.5 -86
t33.5 -36z" />
    <glyph glyph-name="theta" unicode="&#x3b8;" horiz-adv-x="560" 
d="M490 339q0 -171 -53 -259q-27 -44 -69 -68.5t-88 -24.5q-100 0 -157 95q-53 88 -53 263q0 172 53 260q27 44 68.5 68.5t87.5 24.5q100 0 158 -95q53 -88 53 -264zM403 393q-4 103 -22 154q-31 87 -102 87q-61 0 -95 -69q-26 -53 -29 -172h248zM405 322v9h-250
q1 -128 24 -193q31 -87 101 -87q63 0 97 69q28 56 28 202z" />
    <glyph glyph-name="iota" unicode="&#x3b9;" horiz-adv-x="262" 
d="M222 1q-24 -11 -50 -11q-36 0 -59 21q-24 21 -24 71v311q0 29 -3 54.5t-6 36.5l-3 11l78 15q13 -42 13 -118v-292q0 -29 6 -39.5t22 -10.5l10 2z" />
    <glyph glyph-name="kappa" unicode="&#x3ba;" horiz-adv-x="505" 
d="M488 0h-104l-218 269v-269h-78v393q0 29 -3 53t-7 34l-3 10l78 20q13 -42 13 -118v-123l201 229h99l-208 -229z" />
    <glyph glyph-name="lambda" unicode="&#x3bb;" horiz-adv-x="493" 
d="M488 1q-24 -11 -50 -11q-66 0 -86 68l-81 269l-31 105h-2q-15 -77 -30 -124l-102 -323l-77 26l107 312q36 106 50 179l32 -5l-20 62q-34 105 -101 105q-29 0 -51 -10l-11 50q37 20 82 20q61 0 94.5 -42t67.5 -143l157 -473q5 -16 26 -16q4 0 10 2z" />
    <glyph glyph-name="uni03BC" unicode="&#x3bc;" horiz-adv-x="563" 
d="M507 32l-50 -53q-45 37 -54 80q-57 -76 -158 -76q-45 0 -67 19v-195l-78 -15v702l78 16v-359q0 -37 6 -53.5t23 -28.5q28 -19 62 -19q37 0 72 25t55 65v353l77 13v-353q0 -53 6 -77.5t28 -43.5z" />
    <glyph glyph-name="nu" unicode="&#x3bd;" horiz-adv-x="473" 
d="M458 498l-187 -503h-77l-179 499l80 17l116 -343l24 -85h2q8 39 24 84l114 331h83z" />
    <glyph glyph-name="xi" unicode="&#x3be;" horiz-adv-x="482" 
d="M462 686l-11 -67h-147q-54 0 -84.5 -40t-30.5 -85q0 -44 33 -74.5t86 -30.5h99l-9 -56h-82q-78 0 -121 -40t-43 -100q0 -49 31 -83.5t96 -34.5h60q59 0 89.5 -32.5t30.5 -89.5q0 -31 -12.5 -62t-22.5 -45t-39 -54l-48 33q2 2 8.5 11.5t7.5 11.5t6 10t6.5 10t5 9t4.5 10.5
t3 10t2.5 11.5t1.5 12t1 14q0 25 -14 45t-46 20h-67q-83 0 -137 52.5t-54 124.5q0 64 41.5 116.5t99.5 69.5q-49 12 -76 49t-27 80q0 36 20.5 71t55.5 56h-98l11 67h370z" />
    <glyph glyph-name="omicron" unicode="&#x3bf;" horiz-adv-x="549" 
d="M489 241q0 -121 -58.5 -187.5t-155.5 -66.5q-102 0 -158.5 70.5t-56.5 194.5q0 121 57 191t155 70q111 0 171 -87q46 -67 46 -185zM400 235q0 103 -23 150q-15 31 -44 47.5t-62 16.5t-61 -14.5t-41 -39.5q-24 -47 -24 -130q0 -112 31 -163q14 -23 41.5 -36.5t59.5 -13.5
q81 0 108 75q15 42 15 108z" />
    <glyph glyph-name="pi" unicode="&#x3c0;" horiz-adv-x="550" 
d="M520 498l-24 -62h-50v-274q0 -64 6.5 -86t33.5 -36l-40 -56q-43 14 -61 53q-15 30 -15 78v321h-183v-436h-76v436h-66v62h475z" />
    <glyph glyph-name="rho" unicode="&#x3c1;" horiz-adv-x="539" 
d="M479 250q0 -106 -40 -172q-56 -91 -154 -91q-81 0 -137 58v-238l-78 -15v489q0 110 51 170t154 60q100 0 152 -68t52 -193zM396 240q0 210 -132 210q-53 0 -84.5 -41.5t-31.5 -115.5v-176q57 -65 122 -65q34 0 63 17t42 45q21 45 21 126z" />
    <glyph glyph-name="sigma1" unicode="&#x3c2;" horiz-adv-x="451" 
d="M416 -47q0 -31 -12.5 -62t-22.5 -45t-39 -54l-48 33q3 4 9 13t8.5 12.5t7.5 11t6.5 11t5 10t4.5 11.5t2.5 12t2 14t0.5 15q0 39 -23.5 56t-65.5 22q-97 13 -144 66.5t-47 157.5q0 141 75 216q58 58 135 58q71 0 136 -54l-43 -54q-48 40 -95 40q-29 0 -55 -15.5t-39 -40.5
q-28 -52 -28 -150q0 -76 31 -108t91 -44q41 -8 62 -14.5t44 -20.5t32.5 -37.5t9.5 -59.5z" />
    <glyph glyph-name="sigma" unicode="&#x3c3;" horiz-adv-x="565" 
d="M537 498l-24 -62h-91q67 -69 67 -195q0 -121 -58.5 -187.5t-155.5 -66.5q-102 0 -158.5 70.5t-56.5 194.5q0 112 57 179t156 67h264zM400 235q0 32 -2 56t-9 53t-20.5 47.5t-38 31.5t-59.5 13q-40 0 -66 -13.5t-38.5 -39.5t-17 -53.5t-4.5 -64.5q0 -112 31 -163
q14 -23 41.5 -36.5t59.5 -13.5q81 0 108 75q15 42 15 108z" />
    <glyph glyph-name="tau" unicode="&#x3c4;" horiz-adv-x="405" 
d="M377 498l-24 -59h-124v-321q0 -42 14 -58t50 -16q29 0 49 10l11 -50q-38 -20 -88 -20q-35 0 -65 14q-48 23 -48 99v342h-132v59h357z" />
    <glyph glyph-name="upsilon" unicode="&#x3c5;" horiz-adv-x="544" 
d="M458 158q0 -75 -52 -124.5t-141 -49.5q-90 0 -134.5 42.5t-44.5 118.5v349l77 15v-348q0 -60 23 -88.5t83 -28.5q112 0 112 118v331l77 13v-348z" />
    <glyph glyph-name="phi" unicode="&#x3c6;" horiz-adv-x="698" 
d="M639 241q0 -120 -67.5 -186t-180.5 -68v-180l-79 -15v195q-122 0 -187.5 70t-65.5 195q0 104 48.5 170.5t135.5 83.5v-66q-54 -16 -76.5 -57t-22.5 -118q0 -112 41 -163q40 -48 127 -50v459q40 2 71 2q128 0 201 -87q55 -67 55 -185zM551 235q0 103 -30 150
q-20 30 -55.5 47t-74.5 17v-397q106 0 140 75q20 41 20 108z" />
    <glyph glyph-name="chi" unicode="&#x3c7;" horiz-adv-x="467" 
d="M462 0h-95l-135 212l-135 -212h-92l186 276l-154 222h96l99 -166l96 166h91l-148 -222z" />
    <glyph glyph-name="psi" unicode="&#x3c8;" horiz-adv-x="683" 
d="M601 201q0 -96 -57 -152t-163 -62v-180l-79 -15v195q-114 5 -167 62t-53 165v280l77 15v-303q0 -71 33 -109t110 -43v556q0 29 -3 54.5t-6 36.5l-3 11l78 15q13 -42 13 -118v-555q75 4 109 37t34 106v297l77 15v-308z" />
    <glyph glyph-name="omega" unicode="&#x3c9;" horiz-adv-x="693" 
d="M633 192q0 -97 -44 -151t-124 -54q-37 0 -70 26.5t-48 71.5q-16 -45 -49 -71.5t-70 -26.5q-80 0 -124 54t-44 151t35 181.5t92 142.5l41 -22q-85 -128 -85 -276q0 -78 23 -120.5t65 -42.5q34 0 55 34t21 86v196h79v-196q0 -52 20 -86t56 -34q42 0 65 42.5t23 120.5
q0 141 -84 274l37 27q57 -59 93.5 -145t36.5 -182z" />
    <glyph glyph-name="iotadieresis" unicode="&#x3ca;" horiz-adv-x="262" 
d="M262 621q0 -22 -15 -37.5t-36 -15.5q-22 0 -37.5 15.5t-15.5 37.5q0 21 15 36t37 15q21 0 36.5 -15t15.5 -36zM105 621q0 -22 -14.5 -37.5t-36.5 -15.5t-37 15.5t-15 37.5q0 21 15 36t36 15q22 0 37 -15t15 -36zM222 1q-24 -11 -50 -11q-36 0 -59 21q-24 21 -24 71v311
q0 29 -3 54.5t-6 36.5l-3 11l78 15q13 -42 13 -118v-292q0 -29 6 -39.5t22 -10.5l10 2z" />
    <glyph glyph-name="upsilondieresis" unicode="&#x3cb;" horiz-adv-x="544" 
d="M426 621q0 -22 -15 -37.5t-36 -15.5q-22 0 -37.5 15.5t-15.5 37.5q0 21 15 36t37 15q21 0 36.5 -15t15.5 -36zM219 621q0 -22 -14.5 -37.5t-36.5 -15.5t-37 15.5t-15 37.5q0 21 15 36t36 15q22 0 37 -15t15 -36zM458 158q0 -75 -52 -124.5t-141 -49.5q-90 0 -134.5 42.5
t-44.5 118.5v349l77 15v-348q0 -60 23 -88.5t83 -28.5q112 0 112 118v331l77 13v-348z" />
    <glyph glyph-name="omicrontonos" unicode="&#x3cc;" horiz-adv-x="549" 
d="M395 760l-103 -196l-37 16l70 210zM489 241q0 -121 -58.5 -187.5t-155.5 -66.5q-102 0 -158.5 70.5t-56.5 194.5q0 121 57 191t155 70q111 0 171 -87q46 -67 46 -185zM400 235q0 103 -23 150q-15 31 -44 47.5t-62 16.5t-61 -14.5t-41 -39.5q-24 -47 -24 -130
q0 -112 31 -163q14 -23 41.5 -36.5t59.5 -13.5q81 0 108 75q15 42 15 108z" />
    <glyph glyph-name="upsilontonos" unicode="&#x3cd;" horiz-adv-x="544" 
d="M385 760l-103 -196l-37 16l70 210zM458 158q0 -75 -52 -124.5t-141 -49.5q-90 0 -134.5 42.5t-44.5 118.5v349l77 15v-348q0 -60 23 -88.5t83 -28.5q112 0 112 118v331l77 13v-348z" />
    <glyph glyph-name="omegatonos" unicode="&#x3ce;" horiz-adv-x="693" 
d="M465 760l-103 -196l-37 16l70 210zM633 192q0 -97 -44 -151t-124 -54q-37 0 -70 26.5t-48 71.5q-16 -45 -49 -71.5t-70 -26.5q-80 0 -124 54t-44 151t35 181.5t92 142.5l41 -22q-85 -128 -85 -276q0 -78 23 -120.5t65 -42.5q34 0 55 34t21 86v196h79v-196q0 -52 20 -86
t56 -34q42 0 65 42.5t23 120.5q0 141 -84 274l37 27q57 -59 93.5 -145t36.5 -182z" />
    <glyph glyph-name="beta1" unicode="&#x3d0;" horiz-adv-x="565" 
d="M513 204q0 -80 -55 -148.5t-153 -68.5q-37 0 -74.5 19.5t-58.5 47.5q-3 -32 -14 -54h-78q15 33 15 124v364q0 106 45.5 158t151.5 52q82 0 133 -49t51 -122q0 -115 -109 -146q72 -17 109 -64t37 -113zM425 192q0 77 -41 112.5t-127 35.5h-14l15 58q133 0 133 119
q0 53 -28 88t-82 35q-109 0 -109 -141v-382q57 -65 123 -65q63 0 96.5 43t33.5 97z" />
    <glyph glyph-name="phi1" unicode="&#x3d5;" horiz-adv-x="704" 
d="M633 241q0 -117 -66 -183t-175 -71v-180l-79 -15v196q-114 6 -176 75.5t-62 188.5q0 116 63 185t175 75v98q0 29 -3 54.5t-6 36.5l-3 11l78 15q13 -42 13 -118v-96q118 -5 186 -87q55 -67 55 -185zM545 235q0 103 -30 150q-18 28 -52 45t-71 19v-397q100 5 133 75
q20 41 20 108zM313 53v395q-90 -7 -121 -53q-32 -47 -32 -130q0 -112 41 -163q33 -41 112 -49z" />
    <glyph glyph-name="afii10023" unicode="&#x401;" horiz-adv-x="520" 
d="M480 0h-385v686h375l-11 -70h-282v-223h236v-70h-236v-253h303v-70zM333 805q0 24 15.5 39.5t39.5 15.5t39.5 -15.5t15.5 -39.5t-15.5 -39.5t-39.5 -15.5t-39.5 15.5t-15.5 39.5zM131 805q0 24 15.5 39.5t39.5 15.5t39.5 -15.5t15.5 -39.5t-15.5 -39.5t-39.5 -15.5
t-39.5 15.5t-15.5 39.5z" />
    <glyph glyph-name="afii10051" unicode="&#x402;" horiz-adv-x="660" 
d="M451 686l-4 -69h-195v-220q80 36 141 36q81 0 130 -47q58 -54 58 -168q0 -57 -11 -99t-44 -78q-49 -53 -121 -53q-50 0 -96 25l19 63l14 -8q27 -16 61 -16q48 -1 71 38q20 34 20 112q0 91 -22 123q-29 43 -95 43q-63 0 -125 -33v-335h-82v617h-175v69h456z" />
    <glyph glyph-name="afii10052" unicode="&#x403;" horiz-adv-x="460" 
d="M95 686h367l-5 -70h-280v-616h-82v686zM408 829l-224 -100l-26 47l207 130z" />
    <glyph glyph-name="afii10053" unicode="&#x404;" horiz-adv-x="587" 
d="M415 389v-64h-257v-16q0 -140 53 -199q52 -58 146 -58q81 0 157 59l36 -62q-30 -21 -63 -35q-64 -26 -126 -26q-119 0 -196 72q-100 94 -100 288q0 174 87 268q75 82 199 82q107 0 187 -62l-33 -54q-73 52 -155 52q-87 0 -137 -54q-25 -28 -40 -76.5t-15 -96.5v-18h257z
" />
    <glyph glyph-name="afii10054" unicode="&#x405;" horiz-adv-x="577" 
d="M503 632l-36 -58q-38 26 -77 41q-44 16 -87 16q-65 0 -103 -31q-35 -29 -35 -81q0 -40 24 -65q24 -26 89 -47l79 -25q85 -27 120 -68q45 -53 45 -121q0 -103 -95 -164q-63 -41 -153 -41q-120 0 -219 62l36 64q79 -59 187 -59q66 0 105 29q48 36 48 97q0 46 -30 78
q-28 30 -92 50l-69 21q-34 10 -48 15t-36 17t-37 28q-43 44 -43 112q0 91 69 148q60 48 152 48q113 0 206 -66z" />
    <glyph glyph-name="afii10055" unicode="&#x406;" horiz-adv-x="272" 
d="M177 0h-82v686h82v-686z" />
    <glyph glyph-name="afii10056" unicode="&#x407;" horiz-adv-x="281" 
d="M181 0h-82v686h82v-686zM291 785q0 -22 -15 -37.5t-36 -15.5q-22 0 -37.5 15.5t-15.5 37.5q0 21 15 36t37 15q21 0 36.5 -15t15.5 -36zM93 785q0 -22 -14.5 -37.5t-36.5 -15.5t-37 15.5t-15 37.5q0 21 15 36t36 15q22 0 37 -15t15 -36z" />
    <glyph glyph-name="afii10057" unicode="&#x408;" horiz-adv-x="279" 
d="M184 686v-569q0 -63 -4.5 -96t-20.5 -61q-34 -59 -116 -88l-40 51q57 23 82 67q17 29 17 125v571h82z" />
    <glyph glyph-name="afii10058" unicode="&#x409;" horiz-adv-x="894" 
d="M499 686v-278h101q116 0 174 -40q80 -55 80 -163q0 -102 -69 -159q-58 -46 -175 -46h-193v622h-171l-9 -165q-11 -187 -26.5 -281.5t-53.5 -135.5q-33 -35 -100 -43l-34 -4l-15 57l20 6q20 6 40 16q32 16 50 59t30 134t20 257l8 164h323zM499 65h123q68 0 102 29
q44 38 44 109q0 82 -58 119q-34 21 -105 21h-106v-278z" />
    <glyph glyph-name="afii10059" unicode="&#x40a;" horiz-adv-x="929" 
d="M534 686v-283h101q116 0 174 -40q80 -55 80 -158q0 -50 -19 -92t-50 -67q-58 -46 -175 -46h-193v338h-275v-338h-82v686h82v-283h275v283h82zM534 65h123q68 0 102 29q44 38 44 109q0 76 -58 114q-34 21 -105 21h-106v-273z" />
    <glyph glyph-name="afii10060" unicode="&#x40b;" horiz-adv-x="656" 
d="M451 686l-4 -69h-195v-221q72 37 145 37q80 0 127 -37q52 -43 52 -126v-270h-82v270q0 27 -9.5 46.5t-21.5 29t-29 15t-27 6.5t-20 1q-58 0 -135 -33v-335h-82v617h-175v69h456z" />
    <glyph glyph-name="afii10061" unicode="&#x40c;" horiz-adv-x="604" 
d="M541 694l16 -57l-33 -8q-24 -7 -32 -14q-17 -13 -25 -45l-27 -98q-12 -44 -30 -68q-20 -27 -47 -39v-2q25 -10 41 -30q21 -27 34 -73l39 -138q1 -2 2 -7.5t2 -8l3 -7.5t4 -8t5 -6.5t7 -6.5t9 -6q12 -7 40 -16l20 -6l-15 -57l-56 6q-57 6 -82 37q-16 20 -30 87l-22 111
q-9 50 -33 73q-24 24 -68 24h-86v-331h-82v686h82v-288h96q44 0 66 22q21 20 32 70l20 99q9 49 32 72q24 23 74 28zM427 829l-224 -100l-26 47l207 130z" />
    <glyph glyph-name="afii10062" unicode="&#x40e;" horiz-adv-x="479" 
d="M72 686l137 -345q23 -56 36 -101q12 39 34 105l113 341h80l-174 -507q-30 -84 -35 -95q-22 -49 -49 -69q-29 -21 -93 -30l-29 -4l-15 58l20 5q23 7 43 16q27 13 43 36q17 24 30 66l10 32l-38 -3l-202 495h89zM338 861l41 -30q-18 -39 -46 -60q-40 -31 -94 -31t-94 31
q-28 21 -46 60l41 30q21 -27 44 -41q25 -14 55 -14t55 14q23 14 44 41z" />
    <glyph glyph-name="afii10145" unicode="&#x40f;" horiz-adv-x="618" 
d="M523 686v-686h-173v-182h-82v182h-173v686h82v-622h264v622h82z" />
    <glyph glyph-name="afii10017" unicode="&#x410;" horiz-adv-x="583" 
d="M573 0h-93l-65 211h-256l-66 -211h-83l229 686h107zM394 278l-105 336l-108 -336h213z" />
    <glyph glyph-name="afii10018" unicode="&#x411;" horiz-adv-x="599" 
d="M272 0h-177v686h387l-11 -70h-294v-214h113q120 0 178 -41q76 -54 76 -166q0 -87 -54 -139q-26 -26 -63.5 -39t-67.5 -15t-87 -2zM177 67h143q70 0 102 31q36 34 36 98q0 77 -45 112q-34 27 -118 27h-118v-268z" />
    <glyph glyph-name="afii10019" unicode="&#x412;" horiz-adv-x="609" 
d="M95 686h161q42 0 65.5 -1t59.5 -10t62 -27q72 -50 72 -134q0 -65 -47 -108q-30 -28 -76 -42q53 -8 90 -36q62 -47 62 -140q0 -84 -54 -134q-26 -25 -63.5 -37t-68.5 -14.5t-86 -2.5h-177v686zM174 67h146q70 0 102 29q36 32 36 93q0 74 -45 109q-33 25 -118 25h-121v-256
zM174 390h119q65 0 96 27q35 31 35 86q0 57 -40 90q-6 5 -12 8.5t-13 6.5t-12.5 5t-13.5 3t-12.5 1.5t-13 1t-12 0.5h-13h-11.5h-97v-229z" />
    <glyph glyph-name="afii10020" unicode="&#x413;" horiz-adv-x="460" 
d="M95 686h367l-5 -70h-280v-616h-82v686z" />
    <glyph glyph-name="afii10021" unicode="&#x414;" horiz-adv-x="613" 
d="M506 686v-622h70v-246h-80v182h-406v-182h-80v246h43q53 111 82 222q33 127 40 296l5 104h326zM249 622l-6 -93q-9 -158 -42 -276q-22 -79 -71 -189h294v558h-175z" />
    <glyph glyph-name="afii10022" unicode="&#x415;" horiz-adv-x="520" 
d="M480 0h-385v686h375l-11 -70h-282v-223h236v-70h-236v-253h303v-70z" />
    <glyph glyph-name="afii10024" unicode="&#x416;" horiz-adv-x="890" 
d="M830 694l16 -57l-33 -8q-24 -7 -32 -14q-17 -13 -25 -45l-27 -98q-12 -44 -30 -68q-20 -27 -47 -39v-2q25 -10 41 -30q21 -27 34 -73l39 -138q1 -2 2 -7.5t2 -8l3 -7.5t4 -8t5 -6.5t7 -6.5t9 -6q12 -7 40 -16l20 -6l-15 -57l-56 6q-57 6 -82 37q-16 20 -30 87l-22 111
q-9 50 -33 73q-24 24 -68 24h-66v-331h-82v331h-66q-44 0 -68 -24q-24 -23 -33 -73l-22 -111q-14 -67 -30 -87q-25 -31 -82 -37l-56 -6l-15 57l20 6q28 9 40 16q6 3 11 7.5t7.5 7t5 9t3.5 8t3 9.5t2 9l39 138q13 46 34 73q16 20 41 30v2q-27 12 -47 39q-18 24 -30 68l-27 98
q-8 32 -25 45q-8 7 -32 14l-33 8l16 57l44 -5q50 -5 74 -28q23 -23 32 -72l20 -99q11 -50 32 -70q22 -22 66 -22h76v288h82v-288h76q44 0 66 22q21 20 32 70l20 99q9 49 32 72q24 23 74 28z" />
    <glyph glyph-name="afii10025" unicode="&#x417;" horiz-adv-x="547" 
d="M242 323h-88v64h75q71 0 105 32q33 31 33 91t-31 91q-33 33 -96 33q-90 0 -155 -57l-36 55q38 30 79 45q56 21 113 21q85 0 139 -37q72 -50 72 -141q0 -73 -47 -117q-32 -29 -75 -41q49 -6 89 -36q63 -46 63 -132q0 -103 -88 -163q-63 -43 -155 -43q-120 0 -209 62l36 60
q76 -58 173 -58q86 0 124 50q27 35 27 87q0 74 -46 108q-35 26 -102 26z" />
    <glyph glyph-name="afii10026" unicode="&#x418;" horiz-adv-x="667" 
d="M572 0h-82v476q0 68 5 131q-11 -41 -27 -72l-288 -535h-85v686h82v-485q0 -45 -8 -109q15 48 40 95l265 499h98v-686z" />
    <glyph glyph-name="afii10027" unicode="&#x419;" horiz-adv-x="667" 
d="M572 0h-82v476q0 68 5 131q-11 -41 -27 -72l-288 -535h-85v686h82v-485q0 -45 -8 -109q15 48 40 95l265 499h98v-686zM436 861l42 -30q-19 -38 -47 -60q-41 -31 -97 -31t-97 31q-28 22 -47 60l42 30q20 -27 45 -41q23 -14 57 -14t57 14q25 14 45 41z" />
    <glyph glyph-name="afii10028" unicode="&#x41a;" horiz-adv-x="604" 
d="M541 694l16 -57l-33 -8q-24 -7 -32 -14q-17 -13 -25 -45l-27 -98q-12 -44 -30 -68q-20 -27 -47 -39v-2q25 -10 41 -30q21 -27 34 -73l39 -138q1 -2 2 -7.5t2 -8l3 -7.5t4 -8t5 -6.5t7 -6.5t9 -6q12 -7 40 -16l20 -6l-15 -57l-56 6q-57 6 -82 37q-16 20 -30 87l-22 111
q-9 50 -33 73q-24 24 -68 24h-86v-331h-82v686h82v-288h96q44 0 66 22q21 20 32 70l20 99q9 49 32 72q24 23 74 28z" />
    <glyph glyph-name="afii10029" unicode="&#x41b;" horiz-adv-x="599" 
d="M246 622l-9 -165q-11 -187 -26.5 -281.5t-53.5 -135.5q-33 -35 -100 -43l-34 -4l-15 57l20 6q20 6 40 16q32 16 50 59t30 134t20 257l8 164h328v-686h-82v622h-176z" />
    <glyph glyph-name="afii10030" unicode="&#x41c;" horiz-adv-x="805" 
d="M133 686h117l122 -448q16 -60 29 -126h2q20 92 27 118l127 456h118l60 -686h-78l-40 503l-3 45q-1 12 -2.5 36.5t-2.5 36.5h-2l-28 -109l-144 -512h-70l-170 621h-2q-2 -82 -6 -133l-41 -488h-76z" />
    <glyph glyph-name="afii10031" unicode="&#x41d;" horiz-adv-x="642" 
d="M547 0h-82v332h-288v-332h-82v686h82v-287h288v287h82v-686z" />
    <glyph glyph-name="afii10032" unicode="&#x41e;" horiz-adv-x="682" 
d="M341 698q125 0 199 -92q77 -96 77 -263t-77 -263q-74 -92 -199 -92t-199 92q-77 96 -77 263t77 263q74 92 199 92zM341 634q-96 0 -144 -82q-40 -67 -40 -209t40 -209q48 -82 144 -82t144 82q40 67 40 209t-40 209q-48 82 -144 82z" />
    <glyph glyph-name="afii10033" unicode="&#x41f;" horiz-adv-x="626" 
d="M531 0h-82v622h-272v-622h-82v686h436v-686z" />
    <glyph glyph-name="afii10034" unicode="&#x420;" horiz-adv-x="550" 
d="M95 686h192q54 0 87 -6t63 -26q88 -56 88 -164q0 -107 -62 -163q-59 -54 -166 -54h-120v-273h-82v686zM177 340h115q74 0 107 37q35 38 35 100q0 71 -40 106q-39 34 -130 34h-87v-277z" />
    <glyph glyph-name="afii10035" unicode="&#x421;" horiz-adv-x="573" 
d="M494 99l44 -55q-87 -56 -191 -56q-120 0 -200 92q-82 95 -82 261t93 269q80 88 199 88q96 0 169 -56l-44 -53q-58 43 -130 43q-118 0 -169 -121q-29 -68 -29 -182q0 -91 22 -145q20 -50 65 -89.5t119 -39.5q75 0 134 44z" />
    <glyph glyph-name="afii10036" unicode="&#x422;" horiz-adv-x="460" 
d="M462 686l-5 -69h-186v-617h-82v617h-184v69h457z" />
    <glyph glyph-name="afii10037" unicode="&#x423;" horiz-adv-x="479" 
d="M72 686l137 -345q23 -56 36 -101q12 39 34 105l113 341h80l-174 -507q-30 -84 -35 -95q-22 -49 -49 -69q-29 -21 -93 -30l-29 -4l-15 58l20 5q23 7 43 16q27 13 43 36q17 24 30 66l10 32l-38 -3l-202 495h89z" />
    <glyph glyph-name="afii10038" unicode="&#x424;" horiz-adv-x="722" 
d="M402 0h-82v111h-16q-101 0 -163 52q-76 64 -76 205t76 205q62 52 163 52h16v101h82v-101h16q101 0 163 -52q76 -64 76 -205t-76 -205q-62 -52 -163 -52h-16v-111zM400 568v-400h16q74 0 112 37q21 20 32 52t12 52t1 59t-1 59t-12 52t-32 52q-38 37 -112 37h-16zM322 568
h-16q-74 0 -112 -37q-21 -20 -32 -52t-12 -52t-1 -59t1 -59t12 -52t32 -52q38 -37 112 -37h16v400z" />
    <glyph glyph-name="afii10039" unicode="&#x425;" horiz-adv-x="546" 
d="M536 0h-99l-170 315l-161 -315h-96l203 368l-182 318h97l137 -254l131 254h96l-172 -312z" />
    <glyph glyph-name="afii10040" unicode="&#x426;" horiz-adv-x="646" 
d="M95 686h82v-622h272v622h82v-622h70v-246h-82v182h-424v686z" />
    <glyph glyph-name="afii10041" unicode="&#x427;" horiz-adv-x="600" 
d="M505 0h-82v308q-72 -33 -156 -33q-95 0 -143 48q-44 44 -44 118v245h82v-235q0 -60 33 -88q29 -24 86 -24q64 0 142 30v317h82v-686z" />
    <glyph glyph-name="afii10042" unicode="&#x428;" horiz-adv-x="848" 
d="M95 686h80v-624h209v624h80v-624h209v624h80v-686h-658v686z" />
    <glyph glyph-name="afii10043" unicode="&#x429;" horiz-adv-x="868" 
d="M753 62h70v-244h-80v182h-648v686h80v-624h209v624h80v-624h209v624h80v-624z" />
    <glyph glyph-name="afii10044" unicode="&#x42a;" horiz-adv-x="676" 
d="M279 408h103q116 0 174 -40q80 -55 80 -163q0 -102 -69 -159q-58 -46 -175 -46h-195v621h-196l-6 65h284v-278zM279 65h125q68 0 102 29q44 38 44 109q0 82 -58 119q-34 21 -105 21h-108v-278z" />
    <glyph glyph-name="afii10045" unicode="&#x42b;" horiz-adv-x="809" 
d="M177 686v-278h103q116 0 174 -40q80 -55 80 -163q0 -102 -69 -159q-58 -46 -175 -46h-195v686h82zM177 62h120q84 0 122 43q33 39 33 98q0 82 -58 118q-40 25 -109 25h-108v-284zM714 686v-686h-82v686h82z" />
    <glyph glyph-name="afii10046" unicode="&#x42c;" horiz-adv-x="574" 
d="M177 686v-278h103q116 0 174 -40q80 -55 80 -163q0 -102 -69 -159q-58 -46 -175 -46h-195v686h82zM177 65h125q68 0 102 29q44 38 44 109q0 82 -58 119q-34 21 -105 21h-108v-278z" />
    <glyph glyph-name="afii10047" unicode="&#x42d;" horiz-adv-x="587" 
d="M172 389h257v18q0 48 -15 96.5t-40 76.5q-50 54 -137 54q-82 0 -155 -52l-33 54q80 62 187 62q124 0 199 -82q87 -94 87 -268q0 -194 -100 -288q-77 -72 -196 -72q-62 0 -126 26q-33 14 -63 35l36 62q76 -59 157 -59q94 0 146 58q53 59 53 199v16h-257v64z" />
    <glyph glyph-name="afii10048" unicode="&#x42e;" horiz-adv-x="891" 
d="M177 399h118q10 125 74 207q71 92 189 92q120 0 192 -92q76 -96 76 -263t-76 -263q-72 -92 -192 -92q-118 0 -189 92q-36 47 -56.5 114.5t-19.5 137.5h-116v-332h-82v686h82v-287zM558 634q-95 0 -140 -81q-36 -65 -36 -210t36 -210q45 -81 140 -81t140 81q36 65 36 210
t-36 210q-45 81 -140 81z" />
    <glyph glyph-name="afii10049" unicode="&#x42f;" horiz-adv-x="616" 
d="M521 0h-82v310h-107q-44 0 -68 -24q-21 -20 -33 -73l-18 -90q-12 -64 -30 -87q-25 -31 -82 -37l-56 -6l-15 57l20 6q28 9 40 16q21 11 32 49l30 112q13 49 35 73q25 27 62 36v2q-50 6 -86 35q-56 45 -56 121q0 40 17 79.5t50 64.5q32 24 72 33t102 9h173v-686zM438 622
h-92q-58 0 -96 -22q-57 -33 -57 -107q0 -59 47 -93q37 -26 112 -26h86v248z" />
    <glyph glyph-name="afii10065" unicode="&#x430;" horiz-adv-x="529" 
d="M472 37l-40 -56q-54 17 -68 73q-63 -66 -144 -66q-75 0 -117.5 37.5t-42.5 103.5q0 85 71 133q70 46 194 46q24 0 34 -1v55q0 39 -18 60q-22 25 -65 25q-39 0 -89 -19q-39 -15 -70 -40l-39 56q50 32 98 49q52 18 108 18q113 0 141 -78q11 -32 11 -87v-23l-4 -164
q0 -7 -0.5 -19.5t-0.5 -17.5q0 -33 8 -53t33 -32zM354 123l3 130l-13 1q-8 1 -27 1q-101 0 -139 -37q-31 -29 -31 -82q0 -45 22 -67q23 -23 63 -23q36 0 69.5 20t52.5 57z" />
    <glyph glyph-name="afii10066" unicode="&#x431;" horiz-adv-x="555" 
d="M446 772l32 -65q-38 -21 -100 -49l-144 -65q-48 -21 -71 -62q-23 -38 -28 -88l-3 -31l5 -1q20 35 55 58q44 29 96 29q100 0 153 -69q54 -69 54 -187q0 -120 -57 -186q-57 -68 -158 -68q-100 0 -158 70q-25 31 -38.5 75t-16 74.5t-2.5 76.5q0 175 33 252q39 95 146 143
l134 60zM280 434q-73 0 -105 -62q-23 -42 -23 -130q0 -87 23 -129q35 -61 105 -61t105 61q23 42 23 129q0 88 -23 130q-32 62 -105 62z" />
    <glyph glyph-name="afii10067" unicode="&#x432;" horiz-adv-x="519" 
d="M88 498h197q63 0 100 -24q51 -34 51 -104q0 -44 -28 -75q-19 -21 -49 -31q43 -9 69 -36q31 -31 31 -86q0 -63 -41 -102q-43 -40 -128 -40h-202v498zM166 231v-173h123q46 0 69 23q22 22 22 64q0 46 -29 68q-25 18 -62 18h-123zM166 440v-153h117q38 0 60 24q18 20 18 52
q0 38 -23 59q-20 18 -53 18h-119z" />
    <glyph glyph-name="afii10068" unicode="&#x433;" horiz-adv-x="386" 
d="M166 428v-428h-78v498h283l-11 -70h-194z" />
    <glyph glyph-name="afii10069" unicode="&#x434;" horiz-adv-x="518" 
d="M486 60v-203h-76v143h-312v-143h-76v203h36q80 145 84 346l2 92h280v-438h62zM346 438h-134l-3 -72q-8 -167 -76 -306h213v378z" />
    <glyph glyph-name="afii10070" unicode="&#x435;" horiz-adv-x="521" 
d="M466 235h-311v-11q0 -72 23 -109q37 -61 124 -61q72 0 122 47l30 -50q-74 -63 -168 -63q-102 0 -162 71q-59 71 -59 195q0 107 51 176q59 80 158 80q85 0 135 -52q27 -26 43 -76q14 -49 14 -135v-12zM155 295h228q2 72 -23 111q-29 44 -90 44q-59 0 -89 -48
q-28 -43 -26 -107z" />
    <glyph glyph-name="afii10072" unicode="&#x436;" horiz-adv-x="674" 
d="M376 289h49q30 0 45 15q16 16 22 47l15 76q7 35 23 52q18 20 60 24l44 4l14 -50l-30 -7q-15 -4 -22 -11q-12 -12 -15 -28l-21 -75q-10 -37 -23 -50q-13 -15 -37 -24v-3q20 -8 32 -21q18 -19 27 -54l26 -94q7 -25 21 -33q3 -2 29 -11l19 -6l-13 -49l-54 4q-42 2 -64 30
q-15 20 -23 64l-13 75q-5 33 -23 50q-17 15 -46 15h-42v-229h-78v229h-42q-29 0 -46 -15q-18 -17 -23 -50l-13 -75q-8 -44 -23 -64q-22 -28 -64 -30l-54 -4l-13 49l19 6q26 9 29 11q14 8 21 33l26 94q9 35 27 54q12 13 32 21v3q-24 9 -37 24q-13 13 -23 50l-21 75
q-3 16 -15 28q-7 7 -22 11l-30 7l14 50l44 -4q42 -4 60 -24q16 -17 23 -52l15 -76q6 -31 22 -47q15 -15 45 -15h49v205l78 15v-220z" />
    <glyph glyph-name="afii10073" unicode="&#x437;" horiz-adv-x="446" 
d="M142 293h43q58 0 84 20q27 22 27 62q0 33 -26 53q-25 18 -71 18q-40 0 -73 -11q-30 -11 -50 -24l-29 55q29 18 68 30q49 14 94 14q75 0 119 -32q49 -36 49 -98q0 -41 -26 -72q-24 -28 -68 -41q43 -10 74 -39q34 -34 34 -84q0 -83 -70 -126q-49 -30 -123 -30
q-92 0 -173 52l30 58q67 -46 139 -46q57 0 85 26q26 24 26 65q0 51 -33 72q-28 18 -79 18h-51v60z" />
    <glyph glyph-name="afii10074" unicode="&#x438;" horiz-adv-x="560" 
d="M85 0v494l78 15v-308l-3 -108h3q23 57 51 102l181 303l80 11v-509h-78v297l3 106h-3q-22 -52 -51 -99l-181 -304h-80z" />
    <glyph glyph-name="afii10075" unicode="&#x439;" horiz-adv-x="560" 
d="M85 0v494l78 15v-308l-3 -108h3q23 57 51 102l181 303l80 11v-509h-78v297l3 106h-3q-22 -52 -51 -99l-181 -304h-80zM389 724l45 -33q-45 -99 -154 -99q-107 0 -154 99l45 33q20 -33 48 -49q24 -14 61 -14q36 0 61 14q30 18 48 49z" />
    <glyph glyph-name="afii10076" unicode="&#x43a;" horiz-adv-x="501" 
d="M85 0v494l78 15v-220h84q30 0 45 15q16 16 22 47l15 76q7 35 23 52q18 20 60 24l44 4l14 -50l-30 -7q-15 -4 -22 -11q-12 -12 -15 -28l-21 -75q-10 -37 -23 -50q-13 -15 -37 -24v-3q20 -8 32 -21q18 -19 27 -54l26 -94q7 -25 21 -33q3 -2 29 -11l19 -6l-13 -49l-54 4
q-42 2 -64 30q-15 20 -23 64l-13 75q-5 33 -23 50q-17 15 -46 15h-77v-229h-78z" />
    <glyph glyph-name="afii10077" unicode="&#x43b;" horiz-adv-x="506" 
d="M149 498h272v-498h-78v438h-129l-6 -77q-2 -38 -16 -147q-6 -49 -15 -96q-6 -30 -9 -42t-11 -28t-21 -27q-26 -23 -72 -27l-33 -3l-13 49l19 6q14 5 29 13q23 14 33.5 40t19.5 102q13 102 19 179z" />
    <glyph glyph-name="afii10078" unicode="&#x43c;" horiz-adv-x="667" 
d="M107 498h104l92 -286q22 -66 30 -112q21 81 28 103l94 295h104l48 -498h-79l-29 338q-3 35 -3 84h-4q-4 -38 -17 -76l-111 -346h-65l-109 342q-15 50 -21 80h-4q0 -21 -0.5 -36t-1 -20.5t-0.5 -6.5l-28 -359h-75z" />
    <glyph glyph-name="afii10079" unicode="&#x43d;" horiz-adv-x="542" 
d="M163 236v-236h-78v494l78 15v-213h216v198l78 15v-509h-78v236h-216z" />
    <glyph glyph-name="afii10080" unicode="&#x43e;" horiz-adv-x="550" 
d="M275 510q44 0 87 -18.5t71 -51.5q57 -67 57 -191q0 -123 -57 -190q-59 -71 -158 -71t-158 71q-57 66 -57 190t57 191q28 33 71 51.5t87 18.5zM275 446q-71 0 -105 -63q-23 -43 -23 -134t23 -134q34 -63 105 -63t105 63q23 43 23 134t-23 134q-34 63 -105 63z" />
    <glyph glyph-name="afii10081" unicode="&#x43f;" horiz-adv-x="531" 
d="M163 438v-438h-78v498h361v-498h-78v438h-205z" />
    <glyph glyph-name="afii10082" unicode="&#x440;" horiz-adv-x="569" 
d="M84 497l80 14q5 -42 5 -76q57 75 147 75q84 0 133 -64q55 -69 55 -196q0 -109 -40 -172q-23 -37 -62 -63.5t-92 -26.5q-81 0 -137 57v-238l-78 -15v598q0 63 -11 107zM173 368v-251q56 -65 122 -65q74 0 105 62q21 43 21 117q0 103 -23 151q-27 58 -92 58q-81 0 -133 -72
z" />
    <glyph glyph-name="afii10083" unicode="&#x441;" horiz-adv-x="469" 
d="M381 105l43 -50q-33 -35 -69 -51q-35 -16 -86 -16q-101 0 -156 76q-48 68 -48 177q0 143 79 217q55 53 132 53q78 0 135 -54l-43 -54q-41 40 -91 40q-57 0 -88 -42q-37 -48 -37 -168q0 -91 30 -136q31 -46 92 -46q38 0 72 22q17 11 35 32z" />
    <glyph glyph-name="afii10084" unicode="&#x442;" horiz-adv-x="373" 
d="M222 434v-434h-78v434h-144v64h373l-7 -64h-144z" />
    <glyph glyph-name="afii10085" unicode="&#x443;" horiz-adv-x="459" 
d="M92 513l102 -323q19 -60 30 -124h2q8 29 18 61t13 44l98 327h89l-171 -516q-27 -82 -59 -122q-35 -44 -89 -61l-13 -4l-23 53q41 11 66 39q27 29 45 99l4 15l-32 -5q-21 95 -50 179l-107 312z" />
    <glyph glyph-name="afii10086" unicode="&#x444;" horiz-adv-x="724" 
d="M401 732v-260q43 40 93 40q76 0 122 -65q48 -67 48 -195q0 -120 -46 -191q-48 -75 -132 -75q-47 0 -85 32v-215h-78v215q-38 -32 -85 -32q-84 0 -132 75q-46 71 -46 191q0 128 48 195q46 65 122 65q50 0 93 -40v245zM399 415v-339q35 -30 79 -30q48 0 73 32
q15 19 22.5 53.5t8 53.5t0.5 63q0 70 -5 108t-24 62q-26 34 -71 34q-46 0 -83 -37zM325 76v339q-37 37 -83 37q-45 0 -71 -34q-19 -24 -24 -62t-5 -108q0 -44 0.5 -63t8 -53.5t22.5 -53.5q25 -32 73 -32q44 0 79 30z" />
    <glyph glyph-name="afii10087" unicode="&#x445;" horiz-adv-x="467" 
d="M462 0h-95l-135 212l-135 -212h-92l186 276l-154 222h96l99 -166l96 166h91l-148 -222z" />
    <glyph glyph-name="afii10088" unicode="&#x446;" horiz-adv-x="556" 
d="M85 494l78 15v-449h198v434l78 15v-449h62v-207h-76v147h-340v494z" />
    <glyph glyph-name="afii10089" unicode="&#x447;" horiz-adv-x="503" 
d="M143 509v-189q0 -36 26 -56q25 -18 71 -18q60 0 100 20v228l78 15v-509h-78v207q-58 -21 -113 -21q-89 0 -131 47q-31 34 -31 100v161z" />
    <glyph glyph-name="afii10090" unicode="&#x448;" horiz-adv-x="738" 
d="M85 494l78 15v-451h167v436l78 15v-451h167v436l78 15v-509h-568v494z" />
    <glyph glyph-name="afii10091" unicode="&#x449;" horiz-adv-x="770" 
d="M85 494l78 15v-451h167v436l78 15v-451h167v436l78 15v-451h62v-205h-76v147h-554v494z" />
    <glyph glyph-name="afii10092" unicode="&#x44a;" horiz-adv-x="547" 
d="M229 306h75q107 0 157 -44q46 -39 46 -111q0 -73 -51 -114q-46 -37 -122 -37h-183v434h-144l-7 64h229v-192zM229 246v-186h93q45 0 73 24q30 26 30 68q0 48 -28 71q-26 23 -85 23h-83z" />
    <glyph glyph-name="afii10093" unicode="&#x44b;" horiz-adv-x="677" 
d="M163 509v-203h83q92 0 141 -40q50 -41 50 -115q0 -72 -52 -114q-46 -37 -115 -37h-185v494zM514 494l78 15v-509h-78v494zM163 246v-186h92q47 0 75 24q28 26 28 68q0 47 -27 70q-27 24 -89 24h-79z" />
    <glyph glyph-name="afii10094" unicode="&#x44c;" horiz-adv-x="487" 
d="M163 509v-203h75q113 0 163 -44q46 -39 46 -111q0 -73 -51 -114q-46 -37 -122 -37h-189v494zM162 246v-186h101q45 0 73 24q30 26 30 68q0 48 -28 71q-26 23 -85 23h-91z" />
    <glyph glyph-name="afii10095" unicode="&#x44d;" horiz-adv-x="478" 
d="M48 54l41 47q47 -55 122 -55q53 0 83 31q37 38 37 122v35h-169v60h169v18q0 67 -33 104q-32 36 -91 36t-104 -42l-42 46q59 54 150 54q84 0 139 -56q68 -70 68 -193q0 -141 -61 -209q-57 -64 -150 -64q-95 0 -159 66z" />
    <glyph glyph-name="afii10096" unicode="&#x44e;" horiz-adv-x="720" 
d="M166 291h84q7 93 51 149q54 70 151 70t153 -70q55 -77 55 -191t-55 -191q-56 -70 -153 -70t-151 70q-23 29 -37.5 78t-15.5 95h-82v-231h-78v494l78 15v-218zM452 450q-66 0 -99 -61q-22 -41 -22 -140q0 -95 22 -139q31 -62 99 -62q66 0 99 61q22 41 22 140
q0 111 -29 153q-32 48 -92 48z" />
    <glyph glyph-name="afii10097" unicode="&#x44f;" horiz-adv-x="516" 
d="M255 498h166v-498h-78v215h-68q-33 0 -50 -15t-27 -49l-20 -68q-12 -44 -28 -62q-22 -23 -71 -27l-41 -3l-13 49l19 6q14 4 30 14q12 9 23 37l28 73q9 28 26 49q15 17 36 24v2q-49 6 -79 36q-32 32 -32 79q0 64 49 103q43 35 130 35zM343 275v163h-87q-58 0 -79 -23
q-19 -21 -19 -58q0 -41 25 -61q25 -21 81 -21h79z" />
    <glyph glyph-name="afii10071" unicode="&#x451;" horiz-adv-x="521" 
d="M466 235h-311v-11q0 -72 23 -109q37 -61 124 -61q72 0 122 47l30 -50q-74 -63 -168 -63q-102 0 -162 71q-59 71 -59 195q0 107 51 176q59 80 158 80q85 0 135 -52q27 -26 43 -76q14 -49 14 -135v-12zM155 295h228q2 72 -23 111q-29 44 -90 44q-59 0 -89 -48
q-28 -43 -26 -107zM425 621q0 -22 -15.5 -37.5t-35.5 -15.5q-21 0 -37 16t-16 37t15.5 36t36.5 15t36.5 -15.5t15.5 -35.5zM218 621q0 -19 -13.5 -36t-37.5 -17q-21 0 -36.5 15.5t-15.5 37.5q0 20 15.5 35.5t35.5 15.5q21 0 36.5 -15.5t15.5 -35.5z" />
    <glyph glyph-name="afii10099" unicode="&#x452;" horiz-adv-x="568" 
d="M173 611h179l-23 -58h-156v-56q0 -8 -3 -68q83 74 166 74q137 0 137 -151v-267q0 -148 -26 -200q-30 -60 -95 -83l-39 52q17 7 30.5 17.5t22 20t14.5 27t9 28.5t4.5 34t2 33.5t0 38.5t-0.5 37v249q0 19 -2 32t-9 29t-23.5 24.5t-42.5 8.5q-76 0 -145 -79v-354h-78v553
h-60v58h60v119l78 -13v-106z" />
    <glyph glyph-name="afii10100" unicode="&#x453;" horiz-adv-x="386" 
d="M166 428v-428h-78v498h283l-11 -70h-194zM363 665l-224 -100l-26 47l207 130z" />
    <glyph glyph-name="afii10101" unicode="&#x454;" horiz-adv-x="478" 
d="M389 101l41 -47q-64 -66 -159 -66q-93 0 -150 64q-61 68 -61 209q0 123 68 193q55 56 139 56q91 0 150 -54l-42 -46q-45 42 -104 42t-91 -36q-33 -37 -33 -104v-18h169v-60h-169v-35q0 -84 37 -122q30 -31 83 -31q75 0 122 55z" />
    <glyph glyph-name="afii10102" unicode="&#x455;" horiz-adv-x="481" 
d="M227 301l66 -14q66 -14 99 -48q34 -36 34 -91q0 -70 -48 -114q-53 -49 -140 -49q-96 0 -183 50l30 58q74 -47 158 -47q50 0 79 29q22 24 22 59q0 33 -21 53q-20 19 -61 27l-62 13q-56 12 -88 43q-38 37 -38 94q0 76 62 120q47 33 115 33q78 0 152 -40l-29 -58
q-73 36 -125 36q-45 0 -69 -23q-25 -23 -25 -62q0 -28 18 -45t54 -24z" />
    <glyph glyph-name="afii10103" unicode="&#x456;" horiz-adv-x="271" 
d="M176 0h-78v496l78 13v-509zM198 652q0 -25 -18 -43t-43 -18t-43 17.5t-18 42.5t18 43.5t43 18.5t43 -18t18 -43z" />
    <glyph glyph-name="afii10104" unicode="&#x457;" horiz-adv-x="271" 
d="M176 0h-81v496l81 13v-509zM84 621q0 -21 -15 -37t-36 -16t-37 15.5t-16 37.5q0 20 16 35.5t36 15.5q21 0 36.5 -15.5t15.5 -35.5zM291 621q0 -22 -15.5 -37.5t-35.5 -15.5q-21 0 -37 16t-16 37t15.5 36t36.5 15t36.5 -15.5t15.5 -35.5z" />
    <glyph glyph-name="afii10105" unicode="&#x458;" 
d="M175 510v-500q0 -74 -14 -110q-25 -65 -102 -98l-39 52q27 10 44 26.5t23.5 42t8 44t1.5 50.5v477zM196 652q0 -25 -18 -43t-43 -18t-43 18t-18 43t18 43t43 18t43 -18t18 -43z" />
    <glyph glyph-name="afii10106" unicode="&#x459;" horiz-adv-x="733" 
d="M415 306h69q113 0 163 -44q46 -39 46 -111q0 -73 -51 -114q-46 -37 -122 -37h-183v438h-123l-7 -77q-8 -90 -15 -147q-7 -56 -15 -96q-6 -30 -9 -42t-11 -28t-21 -27q-26 -23 -72 -27l-33 -3l-13 49l19 6q14 5 29 13q23 14 33.5 40t19.5 102q13 102 19 179l11 118h266
v-192zM415 246v-186h94q45 0 73 24q30 26 30 68q0 48 -28 71q-26 23 -85 23h-84z" />
    <glyph glyph-name="afii10107" unicode="&#x45a;" horiz-adv-x="769" 
d="M451 301h69q113 0 163 -43q46 -38 46 -107q0 -73 -51 -114q-46 -37 -122 -37h-183v241h-210v-241h-78v494l78 15v-208h210v193l78 15v-208zM451 241v-181h94q45 0 73 24q30 26 30 68q0 44 -28 67q-28 22 -85 22h-84z" />
    <glyph glyph-name="afii10108" unicode="&#x45b;" horiz-adv-x="568" 
d="M473 0h-78v339q0 54 -19 74t-58 20q-35 0 -75 -22t-70 -57v-354h-78v553h-60v58h60v119l78 -13v-106h188l-23 -58h-165v-56q0 -8 -3 -68q83 74 166 74q67 0 106 -42q31 -34 31 -109v-352z" />
    <glyph glyph-name="afii10109" unicode="&#x45c;" horiz-adv-x="501" 
d="M85 0v494l78 15v-220h84q30 0 45 15q16 16 22 47l15 76q7 35 23 52q18 20 60 24l44 4l14 -50l-30 -7q-15 -4 -22 -11q-12 -12 -15 -28l-21 -75q-10 -37 -23 -50q-13 -15 -37 -24v-3q20 -8 32 -21q18 -19 27 -54l26 -94q7 -25 21 -33q3 -2 29 -11l19 -6l-13 -49l-54 4
q-42 2 -64 30q-15 20 -23 64l-13 75q-5 33 -23 50q-17 15 -46 15h-77v-229h-78zM375 665l-224 -100l-26 47l207 130z" />
    <glyph glyph-name="afii10110" unicode="&#x45e;" horiz-adv-x="459" 
d="M92 513l102 -323q19 -60 30 -124h2q8 29 18 61t13 44l98 327h89l-171 -516q-27 -82 -59 -122q-35 -44 -89 -61l-13 -4l-23 53q41 11 66 39q27 29 45 99l4 15l-32 -5q-21 95 -50 179l-107 312zM339 724l45 -33q-45 -99 -154 -99q-107 0 -154 99l45 33q20 -33 48 -49
q24 -14 61 -14q36 0 61 14q30 18 48 49z" />
    <glyph glyph-name="afii10193" unicode="&#x45f;" horiz-adv-x="526" 
d="M163 60h200v438h78v-498h-140v-147h-76v147h-140v498h78v-438z" />
    <glyph glyph-name="afii10050" unicode="&#x490;" horiz-adv-x="477" 
d="M95 686h291v116h76v-184h-285v-618h-82v686z" />
    <glyph glyph-name="afii10098" unicode="&#x491;" horiz-adv-x="400" 
d="M166 428v-428h-78v498h224v99h73v-169h-219z" />
    <glyph glyph-name="endash" unicode="&#x2013;" horiz-adv-x="595" 
d="M540 250h-485v59h485v-59z" />
    <glyph glyph-name="emdash" unicode="&#x2014;" horiz-adv-x="822" 
d="M767 250h-712v59h712v-59z" />
    <glyph glyph-name="afii00208" unicode="&#x2015;" horiz-adv-x="822" 
d="M767 250h-712v59h712v-59z" />
    <glyph glyph-name="quoteleft" unicode="&#x2018;" 
d="M215 667q-59 -29 -67 -89q5 1 11 1q23 0 39 -19t16 -45q0 -30 -20.5 -51t-49.5 -21q-35 0 -57 27t-22 69q0 52 38 103q31 40 84 69z" />
    <glyph glyph-name="quoteright" unicode="&#x2019;" 
d="M205 602q0 -52 -38 -103q-31 -40 -84 -69l-28 44q59 29 67 89q-5 -1 -11 -1q-23 0 -39 19t-16 45q0 30 20.5 51t49.5 21q35 0 57 -27t22 -69z" />
    <glyph glyph-name="quotesinglbase" unicode="&#x201a;" 
d="M205 29q0 -52 -38 -103q-31 -40 -84 -69l-28 44q59 29 67 89q-5 -1 -11 -1q-23 0 -39 19t-16 45q0 30 20.5 51t49.5 21q35 0 57 -27t22 -69z" />
    <glyph glyph-name="quotedblleft" unicode="&#x201c;" horiz-adv-x="467" 
d="M412 667q-59 -29 -67 -89q5 1 11 1q23 0 39 -19t16 -45q0 -30 -20.5 -51t-49.5 -21q-35 0 -57 27t-22 69q0 52 38 103q31 40 84 69zM215 667q-59 -29 -67 -89q5 1 11 1q23 0 39 -19t16 -45q0 -30 -20.5 -51t-49.5 -21q-35 0 -57 27t-22 69q0 52 38 103q31 40 84 69z" />
    <glyph glyph-name="quotedblright" unicode="&#x201d;" horiz-adv-x="467" 
d="M402 602q0 -52 -38 -103q-31 -40 -84 -69l-28 44q59 29 67 89q-5 -1 -11 -1q-23 0 -39 19t-16 45q0 30 20.5 51t49.5 21q35 0 57 -27t22 -69zM205 602q0 -52 -38 -103q-31 -40 -84 -69l-28 44q59 29 67 89q-5 -1 -11 -1q-23 0 -39 19t-16 45q0 30 20.5 51t49.5 21
q35 0 57 -27t22 -69z" />
    <glyph glyph-name="quotedblbase" unicode="&#x201e;" horiz-adv-x="468" 
d="M403 29q0 -52 -38 -103q-31 -40 -84 -69l-28 44q59 29 67 89q-5 -1 -11 -1q-23 0 -39 19t-16 45q0 30 20.5 51t49.5 21q35 0 57 -27t22 -69zM205 29q0 -52 -38 -103q-31 -40 -84 -69l-28 44q59 29 67 89q-5 -1 -11 -1q-23 0 -39 19t-16 45q0 30 20.5 51t49.5 21
q35 0 57 -27t22 -69z" />
    <glyph glyph-name="dagger" unicode="&#x2020;" horiz-adv-x="476" 
d="M441 524l-10 -69h-150v-455h-79v455h-157v69h157v162h79v-162h160z" />
    <glyph glyph-name="daggerdbl" unicode="&#x2021;" horiz-adv-x="489" 
d="M444 524l-10 -69h-150v-224h157v-69h-157v-162h-79v162h-160l10 69h150v224h-157v69h157v162h79v-162h160z" />
    <glyph glyph-name="bullet" unicode="&#x2022;" horiz-adv-x="524" 
d="M439 354q0 -74 -51.5 -125.5t-125.5 -51.5t-125.5 51.5t-51.5 125.5t51.5 125.5t125.5 51.5t125.5 -51.5t51.5 -125.5z" />
    <glyph glyph-name="ellipsis" unicode="&#x2026;" horiz-adv-x="744" 
d="M669 56q0 -28 -19.5 -48.5t-46.5 -20.5q-28 0 -48 20t-20 49q0 28 19 47t47 19q29 0 48.5 -19t19.5 -47zM439 56q0 -28 -19.5 -48.5t-46.5 -20.5q-28 0 -48 20t-20 49q0 28 19 47t47 19q29 0 48.5 -19t19.5 -47zM209 56q0 -28 -19.5 -48.5t-46.5 -20.5q-28 0 -48 20
t-20 49q0 28 19 47t47 19q29 0 48.5 -19t19.5 -47z" />
    <glyph glyph-name="perthousand" unicode="&#x2030;" horiz-adv-x="1228" 
d="M1183 156q0 -77 -43 -121.5t-118 -44.5t-118 46t-43 126t42.5 125t117.5 45q81 0 121.5 -47.5t40.5 -128.5zM813 156q0 -77 -43 -121.5t-118 -44.5t-118 46t-43 126t42.5 125t117.5 45q81 0 121.5 -47.5t40.5 -128.5zM367 515q0 -77 -43 -121.5t-118 -44.5t-118 46
t-43 126t42.5 125t117.5 45q81 0 121.5 -47.5t40.5 -128.5zM633 686l-335 -686h-66l335 686h66zM746 152q0 56 -19.5 90.5t-76.5 34.5q-91 0 -91 -107q0 -64 22 -94.5t74 -30.5q43 0 67 27.5t24 79.5zM1116 152q0 56 -19.5 90.5t-76.5 34.5q-91 0 -91 -107q0 -64 22 -94.5
t74 -30.5q43 0 67 27.5t24 79.5zM300 511q0 56 -19.5 90.5t-76.5 34.5q-91 0 -91 -107q0 -64 22 -94.5t74 -30.5q43 0 67 27.5t24 79.5z" />
    <glyph glyph-name="guilsinglleft" unicode="&#x2039;" horiz-adv-x="318" 
d="M263 62l-55 -36l-143 214l143 214l55 -36l-117 -178z" />
    <glyph glyph-name="guilsinglright" unicode="&#x203a;" horiz-adv-x="318" 
d="M253 240l-143 -214l-55 36l117 178l-117 178l55 36z" />
    <glyph glyph-name="fraction" unicode="&#x2044;" horiz-adv-x="303" 
d="M448 763l-527 -917h-66l527 917h66z" />
    <glyph glyph-name="uni2070" unicode="&#x2070;" horiz-adv-x="345" 
d="M320 456q0 -90 -41 -148t-109 -58q-51 0 -85.5 37t-47 82t-12.5 92q0 80 42.5 139.5t103.5 59.5q52 0 87.5 -34.5t48.5 -78.5t13 -91zM247 456q0 58 -12 92q-19 56 -63 56q-32 0 -54 -43q-20 -37 -20 -102q0 -61 12 -95q22 -60 62 -60q16 0 33 13.5t27 36.5q15 33 15 102
z" />
    <glyph glyph-name="uni2074" unicode="&#x2074;" horiz-adv-x="343" 
d="M318 331h-49q0 -2 0.5 -6t0.5 -6v-60l-67 -18v77q0 2 0.5 6.5t0.5 6.5h-179v47l146 275h75q-109 -210 -145 -269l7 1h96l-1 6q0 2 2 32l8 108l57 17v-155l-1 -8h49v-54z" />
    <glyph glyph-name="uni2075" unicode="&#x2075;" horiz-adv-x="300" 
d="M275 385q0 -38 -22 -72t-58 -51q-48 -23 -103 -23q-24 0 -53 7l-14 58q34 -14 58 -14q51 0 86 27.5t35 66.5q0 21 -14 40q-18 25 -66 25q-46 0 -88 -19l22 218h199l-11 -57h-127l-8 -91q24 2 29 2q73 0 108 -41q27 -31 27 -76z" />
    <glyph glyph-name="uni2076" unicode="&#x2076;" horiz-adv-x="337" 
d="M312 384q0 -57 -41 -95.5t-101 -38.5q-66 0 -105.5 45.5t-39.5 119.5q0 90 60 157q66 74 176 105l18 -46q-42 -13 -71 -30q-75 -45 -98 -115q36 21 73 21q47 0 85 -30q44 -34 44 -93zM238 383q0 34 -17 51q-17 19 -48 19q-34 0 -71 -26q-1 -10 -1 -24q0 -99 69 -99
q31 0 49.5 20.5t18.5 58.5z" />
    <glyph glyph-name="uni2077" unicode="&#x2077;" horiz-adv-x="337" 
d="M312 648l-14 -60q-80 -111 -109 -165q-54 -102 -63 -156q0 -3 -2 -12l-80 -19q13 59 29 96q72 164 157 260q-5 0 -16 -0.5t-17 -0.5h-172l17 57h270z" />
    <glyph glyph-name="uni2078" unicode="&#x2078;" horiz-adv-x="339" 
d="M314 372q0 -55 -47 -91q-40 -31 -98 -31q-61 0 -102.5 32.5t-41.5 82.5q0 66 72 102q-58 34 -58 88q0 24 13.5 47.5t33.5 36.5q31 20 90 20q55 0 90 -26t35 -70q0 -60 -70 -94q40 -18 61.5 -39.5t21.5 -57.5zM245 361q0 22 -13 35q-16 16 -82 45q-28 -15 -42.5 -31
t-14.5 -42q0 -29 21.5 -47t57.5 -18q33 0 53 16t20 42zM235 559q0 22 -17 35t-48 13t-48 -13t-17 -35q0 -36 71 -64q59 30 59 64z" />
    <glyph glyph-name="uni2079" unicode="&#x2079;" horiz-adv-x="357" 
d="M332 512q0 -50 -22 -101t-61 -91q-42 -43 -105 -69q-36 -15 -81 -20l-38 45q48 6 73 16q90 38 131 106l3 5q-24 -10 -53 -10q-56 0 -93 36.5t-37 92.5q0 58 41.5 98t102.5 40q58 0 96 -38q43 -43 43 -110zM260 512q0 44 -19.5 69t-49.5 25t-49.5 -23t-19.5 -61
q0 -36 17 -56t46 -20q35 0 68 21q7 30 7 45z" />
    <glyph glyph-name="uni2080" unicode="&#x2080;" horiz-adv-x="345" 
d="M320 -54q0 -90 -41 -148t-109 -58q-51 0 -85.5 37t-47 82t-12.5 92q0 80 42.5 139.5t103.5 59.5q52 0 87.5 -34.5t48.5 -78.5t13 -91zM247 -54q0 58 -12 92q-19 56 -63 56q-32 0 -54 -43q-20 -37 -20 -102q0 -61 12 -95q22 -60 62 -60q16 0 33 13.5t27 36.5q15 33 15 102
z" />
    <glyph glyph-name="uni2081" unicode="&#x2081;" horiz-adv-x="285" 
d="M260 -250h-190v55h62v256q-24 -15 -90 -43l-17 41l124 83h51v-337h60v-55z" />
    <glyph glyph-name="uni2082" unicode="&#x2082;" horiz-adv-x="318" 
d="M293 -194l-15 -56h-247v40q42 28 93 83q90 95 90 153q0 28 -17.5 46.5t-44.5 18.5q-10 0 -20 -2t-21 -7t-17 -8.5t-19 -11.5t-17 -10l-33 35q75 62 143 62q51 0 86 -33t35 -82q0 -45 -25 -83.5t-69 -83.5q-46 -46 -63 -62q4 0 11 0.5t10 0.5h140z" />
    <glyph glyph-name="uni2083" unicode="&#x2083;" horiz-adv-x="323" 
d="M298 -127q0 -40 -27.5 -73t-69.5 -50q-48 -20 -117 -20q-19 0 -37 3l-17 51q27 -4 45 -4q82 0 123 36q28 24 28 62q0 43 -43 55q-20 5 -70 5h-16v51h16q62 0 76 6q28 12 28 45q0 23 -17 37.5t-45 14.5q-44 0 -97 -37l-33 37q64 57 139 57q54 0 89 -29t35 -74
q0 -57 -54 -84q64 -29 64 -89z" />
    <glyph glyph-name="uni2084" unicode="&#x2084;" horiz-adv-x="343" 
d="M318 -179h-49q0 -2 0.5 -6t0.5 -6v-60l-67 -18v77q0 2 0.5 6.5t0.5 6.5h-179v47l146 275h75q-109 -210 -145 -269l7 1h96l-1 6q0 2 2 32l8 108l57 17v-155l-1 -8h49v-54z" />
    <glyph glyph-name="uni2085" unicode="&#x2085;" horiz-adv-x="300" 
d="M275 -125q0 -38 -22 -72t-58 -51q-48 -23 -103 -23q-24 0 -53 7l-14 58q34 -14 58 -14q51 0 86 27.5t35 66.5q0 21 -14 40q-18 25 -66 25q-46 0 -88 -19l22 218h199l-11 -57h-127l-8 -91q24 2 29 2q73 0 108 -41q27 -31 27 -76z" />
    <glyph glyph-name="uni2086" unicode="&#x2086;" horiz-adv-x="337" 
d="M312 -126q0 -57 -41 -95.5t-101 -38.5q-66 0 -105.5 45.5t-39.5 119.5q0 90 60 157q66 74 176 105l18 -46q-42 -13 -71 -30q-75 -45 -98 -115q36 21 73 21q47 0 85 -30q44 -34 44 -93zM238 -127q0 34 -17 51q-17 19 -48 19q-34 0 -71 -26q-1 -10 -1 -24q0 -99 69 -99
q31 0 49.5 20.5t18.5 58.5z" />
    <glyph glyph-name="uni2087" unicode="&#x2087;" horiz-adv-x="337" 
d="M312 138l-14 -60q-80 -111 -109 -165q-54 -102 -63 -156q0 -3 -2 -12l-80 -19q13 59 29 96q72 164 157 260q-5 0 -16 -0.5t-17 -0.5h-172l17 57h270z" />
    <glyph glyph-name="uni2088" unicode="&#x2088;" horiz-adv-x="339" 
d="M314 -138q0 -55 -47 -91q-40 -31 -98 -31q-61 0 -102.5 32.5t-41.5 82.5q0 66 72 102q-58 34 -58 88q0 24 13.5 47.5t33.5 36.5q31 20 90 20q55 0 90 -26t35 -70q0 -60 -70 -94q40 -18 61.5 -39.5t21.5 -57.5zM245 -149q0 22 -13 35q-16 16 -82 45q-28 -15 -42.5 -31
t-14.5 -42q0 -29 21.5 -47t57.5 -18q33 0 53 16t20 42zM235 49q0 22 -17 35t-48 13t-48 -13t-17 -35q0 -36 71 -64q59 30 59 64z" />
    <glyph glyph-name="uni2089" unicode="&#x2089;" horiz-adv-x="357" 
d="M332 2q0 -50 -22 -101t-61 -91q-42 -43 -105 -69q-36 -15 -81 -20l-38 45q48 6 73 16q90 38 131 106l3 5q-24 -10 -53 -10q-56 0 -93 36.5t-37 92.5q0 58 41.5 98t102.5 40q58 0 96 -38q43 -43 43 -110zM260 2q0 44 -19.5 69t-49.5 25t-49.5 -23t-19.5 -61q0 -36 17 -56
t46 -20q35 0 68 21q7 30 7 45z" />
    <glyph glyph-name="Euro" unicode="&#x20ac;" horiz-adv-x="653" 
d="M598 27q-71 -38 -161 -38q-120 0 -200 91q-53 60 -72 154h-110v59h102q-2 32 -2 48q0 21 1 32h-101v59h109q23 118 99 190.5t180 72.5q46 0 86 -11.5t57 -25.5l-14 -72q-59 43 -130 43q-118 0 -169 -118q-14 -33 -22 -79h269v-59h-275q-1 -14 -1 -44q0 -7 0.5 -19
t0.5 -17h275v-59h-269q4 -25 15 -50q26 -63 74.5 -95.5t109.5 -32.5q72 0 134 44z" />
    <glyph glyph-name="afii61352" unicode="&#x2116;" horiz-adv-x="921" 
d="M95 686h86l252 -492q6 -11 39 -90q-9 121 -9 209v373h78v-686h-86l-244 477q-13 26 -45 97q7 -85 7 -176v-398h-78v686zM885 523q0 -79 -37 -115.5t-92 -36.5q-59 0 -94 42.5t-35 116.5q0 79 37 117.5t90 38.5q54 0 92.5 -38t38.5 -125zM827 520q0 25 -2 43t-9 38
t-22.5 30.5t-39.5 10.5q-72 0 -72 -106q0 -121 76 -121q69 0 69 105zM882 203h-251v52h251v-52z" />
    <glyph glyph-name="uni2117" unicode="&#x2117;" horiz-adv-x="874" 
d="M809 354q0 -157 -109.5 -264.5t-262.5 -107.5q-154 0 -263 107.5t-109 264.5t109 264.5t263 107.5q153 0 262.5 -107.5t109.5 -264.5zM743 354q0 134 -89 226t-217 92q-129 0 -217.5 -91.5t-88.5 -226.5t88.5 -226.5t217.5 -91.5q128 0 217 92t89 226zM596 444
q0 -64 -39 -99q-38 -34 -100 -34h-63v-161h-58v413h116q61 0 89 -18q55 -36 55 -101zM531 434q0 43 -21 61t-72 18h-44v-153h60q41 0 59 21t18 53z" />
    <glyph glyph-name="trademark" unicode="&#x2122;" horiz-adv-x="992" 
d="M897 274h-66v346h-2l-136 -346h-45l-136 346h-2v-346h-66v412h105l123 -313l123 313h102v-412zM361 620h-130v-346h-66v346h-130v66h326v-66z" />
    <glyph glyph-name="Omega" unicode="&#x2126;" horiz-adv-x="688" 
d="M633 0h-220v71q58 24 90.5 80t32.5 169q0 124 -38 203q-19 41 -59.5 67.5t-96.5 26.5q-48 0 -89.5 -21.5t-60.5 -58.5q-42 -79 -42 -174q0 -239 125 -292v-71h-220v71h129q-62 35 -93.5 109t-31.5 166q0 157 88 255q74 82 195 82q144 0 219 -112q34 -51 50.5 -105.5
t16.5 -133.5q0 -93 -33 -161.5t-94 -99.5h132v-71z" />
    <glyph glyph-name="arrowleft" unicode="&#x2190;" horiz-adv-x="1162" 
d="M1137 275q0 -20 -14 -34.5t-34 -14.5t-34.5 14.5t-14.5 34.5t14.5 34t34.5 14t34 -14t14 -34zM992 275q0 -20 -14 -34.5t-34 -14.5t-34.5 14.5t-14.5 34.5t14.5 34t34.5 14t34 -14t14 -34zM847 275q0 -20 -14 -34.5t-34 -14.5t-34.5 14.5t-14.5 34.5t14.5 34t34.5 14
t34 -14t14 -34zM371 635q0 -20 -14 -34.5t-34 -14.5t-34.5 14.5t-14.5 34.5t14.5 34t34.5 14t34 -14t14 -34zM702 275q0 -20 -14 -34.5t-34 -14.5t-34.5 14.5t-14.5 34.5t14.5 34t34.5 14t34 -14t14 -34zM557 275q0 -20 -14 -34.5t-34 -14.5t-34.5 14.5t-14.5 34.5t14.5 34
t34.5 14t34 -14t14 -34zM288 515q0 -20 -14 -34.5t-34 -14.5t-34.5 14.5t-14.5 34.5t14.5 34t34.5 14t34 -14t14 -34zM412 275q0 -20 -14 -34.5t-34 -14.5t-34.5 14.5t-14.5 34.5t14.5 34t34.5 14t34 -14t14 -34zM205 395q0 -20 -14 -34.5t-34 -14.5t-34.5 14.5t-14.5 34.5
t14.5 34t34.5 14t34 -14t14 -34zM267 275q0 -20 -14 -34.5t-34 -14.5t-34.5 14.5t-14.5 34.5t14.5 34t34.5 14t34 -14t14 -34zM122 275q0 -20 -14 -34.5t-34 -14.5t-34.5 14.5t-14.5 34.5t14.5 34t34.5 14t34 -14t14 -34zM205 155q0 -20 -14 -34.5t-34 -14.5t-34.5 14.5
t-14.5 34.5t14.5 34t34.5 14t34 -14t14 -34zM288 35q0 -20 -14 -34.5t-34 -14.5t-34.5 14.5t-14.5 34.5t14.5 34t34.5 14t34 -14t14 -34zM371 -85q0 -20 -14 -34.5t-34 -14.5t-34.5 14.5t-14.5 34.5t14.5 34t34.5 14t34 -14t14 -34z" />
    <glyph glyph-name="arrowup" unicode="&#x2191;" horiz-adv-x="1162" 
d="M990 533q0 -20 -14.5 -34t-34.5 -14t-34 14t-14 34t14 34.5t34 14.5t34.5 -14.5t14.5 -34.5zM870 616q0 -20 -14.5 -34t-34.5 -14t-34 14t-14 34t14 34.5t34 14.5t34.5 -14.5t14.5 -34.5zM750 699q0 -20 -14.5 -34t-34.5 -14t-34 14t-14 34t14 34.5t34 14.5t34.5 -14.5
t14.5 -34.5zM630 782q0 -20 -14.5 -34t-34.5 -14t-34 14t-14 34t14 34.5t34 14.5t34.5 -14.5t14.5 -34.5zM630 637q0 -20 -14.5 -34t-34.5 -14t-34 14t-14 34t14 34.5t34 14.5t34.5 -14.5t14.5 -34.5zM510 699q0 -20 -14.5 -34t-34.5 -14t-34 14t-14 34t14 34.5t34 14.5
t34.5 -14.5t14.5 -34.5zM630 492q0 -20 -14.5 -34t-34.5 -14t-34 14t-14 34t14 34.5t34 14.5t34.5 -14.5t14.5 -34.5zM390 616q0 -20 -14.5 -34t-34.5 -14t-34 14t-14 34t14 34.5t34 14.5t34.5 -14.5t14.5 -34.5zM630 347q0 -20 -14.5 -34t-34.5 -14t-34 14t-14 34t14 34.5
t34 14.5t34.5 -14.5t14.5 -34.5zM630 202q0 -20 -14.5 -34t-34.5 -14t-34 14t-14 34t14 34.5t34 14.5t34.5 -14.5t14.5 -34.5zM270 533q0 -20 -14.5 -34t-34.5 -14t-34 14t-14 34t14 34.5t34 14.5t34.5 -14.5t14.5 -34.5zM630 57q0 -20 -14.5 -34t-34.5 -14t-34 14t-14 34
t14 34.5t34 14.5t34.5 -14.5t14.5 -34.5zM630 -88q0 -20 -14.5 -34t-34.5 -14t-34 14t-14 34t14 34.5t34 14.5t34.5 -14.5t14.5 -34.5zM630 -233q0 -20 -14.5 -34t-34.5 -14t-34 14t-14 34t14 34.5t34 14.5t34.5 -14.5t14.5 -34.5z" />
    <glyph glyph-name="arrowright" unicode="&#x2192;" horiz-adv-x="1162" 
d="M888 635q0 -20 -14.5 -34.5t-34.5 -14.5t-34 14.5t-14 34.5t14 34t34 14t34.5 -14t14.5 -34zM971 515q0 -20 -14.5 -34.5t-34.5 -14.5t-34 14.5t-14 34.5t14 34t34 14t34.5 -14t14.5 -34zM1054 395q0 -20 -14.5 -34.5t-34.5 -14.5t-34 14.5t-14 34.5t14 34t34 14
t34.5 -14t14.5 -34zM1137 275q0 -20 -14.5 -34.5t-34.5 -14.5t-34 14.5t-14 34.5t14 34t34 14t34.5 -14t14.5 -34zM992 275q0 -20 -14.5 -34.5t-34.5 -14.5t-34 14.5t-14 34.5t14 34t34 14t34.5 -14t14.5 -34zM1054 155q0 -20 -14.5 -34.5t-34.5 -14.5t-34 14.5t-14 34.5
t14 34t34 14t34.5 -14t14.5 -34zM847 275q0 -20 -14.5 -34.5t-34.5 -14.5t-34 14.5t-14 34.5t14 34t34 14t34.5 -14t14.5 -34zM971 35q0 -20 -14.5 -34.5t-34.5 -14.5t-34 14.5t-14 34.5t14 34t34 14t34.5 -14t14.5 -34zM702 275q0 -20 -14.5 -34.5t-34.5 -14.5t-34 14.5
t-14 34.5t14 34t34 14t34.5 -14t14.5 -34zM557 275q0 -20 -14.5 -34.5t-34.5 -14.5t-34 14.5t-14 34.5t14 34t34 14t34.5 -14t14.5 -34zM888 -85q0 -20 -14.5 -34.5t-34.5 -14.5t-34 14.5t-14 34.5t14 34t34 14t34.5 -14t14.5 -34zM412 275q0 -20 -14.5 -34.5t-34.5 -14.5
t-34 14.5t-14 34.5t14 34t34 14t34.5 -14t14.5 -34zM267 275q0 -20 -14.5 -34.5t-34.5 -14.5t-34 14.5t-14 34.5t14 34t34 14t34.5 -14t14.5 -34zM122 275q0 -20 -14.5 -34.5t-34.5 -14.5t-34 14.5t-14 34.5t14 34t34 14t34.5 -14t14.5 -34z" />
    <glyph glyph-name="arrowdown" unicode="&#x2193;" horiz-adv-x="1162" 
d="M630 783q0 -20 -14.5 -34.5t-34.5 -14.5t-34 14.5t-14 34.5t14 34t34 14t34.5 -14t14.5 -34zM630 638q0 -20 -14.5 -34.5t-34.5 -14.5t-34 14.5t-14 34.5t14 34t34 14t34.5 -14t14.5 -34zM630 493q0 -20 -14.5 -34.5t-34.5 -14.5t-34 14.5t-14 34.5t14 34t34 14t34.5 -14
t14.5 -34zM990 17q0 -20 -14.5 -34.5t-34.5 -14.5t-34 14.5t-14 34.5t14 34t34 14t34.5 -14t14.5 -34zM630 348q0 -20 -14.5 -34.5t-34.5 -14.5t-34 14.5t-14 34.5t14 34t34 14t34.5 -14t14.5 -34zM630 203q0 -20 -14.5 -34.5t-34.5 -14.5t-34 14.5t-14 34.5t14 34t34 14
t34.5 -14t14.5 -34zM870 -66q0 -20 -14.5 -34.5t-34.5 -14.5t-34 14.5t-14 34.5t14 34t34 14t34.5 -14t14.5 -34zM630 58q0 -20 -14.5 -34.5t-34.5 -14.5t-34 14.5t-14 34.5t14 34t34 14t34.5 -14t14.5 -34zM750 -149q0 -20 -14.5 -34.5t-34.5 -14.5t-34 14.5t-14 34.5
t14 34t34 14t34.5 -14t14.5 -34zM630 -87q0 -20 -14.5 -34.5t-34.5 -14.5t-34 14.5t-14 34.5t14 34t34 14t34.5 -14t14.5 -34zM630 -232q0 -20 -14.5 -34.5t-34.5 -14.5t-34 14.5t-14 34.5t14 34t34 14t34.5 -14t14.5 -34zM510 -149q0 -20 -14.5 -34.5t-34.5 -14.5t-34 14.5
t-14 34.5t14 34t34 14t34.5 -14t14.5 -34zM390 -66q0 -20 -14.5 -34.5t-34.5 -14.5t-34 14.5t-14 34.5t14 34t34 14t34.5 -14t14.5 -34zM270 17q0 -20 -14.5 -34.5t-34.5 -14.5t-34 14.5t-14 34.5t14 34t34 14t34.5 -14t14.5 -34z" />
    <glyph glyph-name="uni2196" unicode="&#x2196;" horiz-adv-x="1162" 
d="M975 -128q14 -14 14 -34t-15 -35q-14 -14 -34 -14q-21 0 -34 14q-15 15 -15 35t14 34t35 14q19 0 35 -14zM231 446q14 -14 14 -34t-15 -35q-14 -14 -34 -14q-21 0 -34 14q-15 15 -15 35t14 34t35 14q19 0 35 -14zM359 418q-14 -14 -34 -14q-21 0 -34 14q-15 15 -15 35
t14 34t34 14q19 0 35 -14q14 -16 14 -35q0 -20 -14 -34zM769 8q-14 -14 -34 -14q-21 0 -34 14q-15 15 -15 35t14 34t34 14q19 0 35 -14q14 -16 14 -35q0 -20 -14 -34zM687 599q-14 -14 -34 -14q-21 0 -34 14q-15 15 -15 35t14 34t34 14q19 0 35 -14q14 -16 14 -35
q0 -20 -14 -34zM564 213q-14 -14 -34 -14q-21 0 -34 14q-15 15 -15 35t14 34t34 14q19 0 35 -14q14 -16 14 -35q0 -20 -14 -34zM178 90q-14 -14 -34 -14q-21 0 -34 14q-15 15 -15 35t14 34t34 14q19 0 35 -14q14 -16 14 -35q0 -20 -14 -34zM544 642q14 -14 14 -34t-15 -35
q-14 -14 -34 -14q-21 0 -34 14q-14 13 -14 34t14 35t34 14q19 0 35 -14zM257 589q14 -14 14 -33q0 -20 -15 -35q-14 -14 -34 -14q-21 0 -34 14q-15 15 -15 35q0 19 14 33t35 14q19 0 35 -14zM204 234q-14 -14 -34 -14q-21 0 -34 14q-15 15 -15 35q0 19 14 33t34 14
q19 0 35 -14q14 -16 14 -34q0 -20 -14 -34zM400 547q-14 -14 -34 -14q-21 0 -34 14q-15 15 -15 35q0 19 14 33t34 14q19 0 35 -14q14 -16 14 -34q0 -20 -14 -34zM872 -26q14 -14 14 -33q0 -20 -15 -35q-14 -14 -34 -14q-21 0 -34 14q-14 13 -14 34q0 20 14 34t34 14
q19 0 35 -14zM667 179q14 -14 14 -33q0 -20 -15 -35q-14 -14 -34 -14q-21 0 -34 14q-14 13 -14 34q0 20 14 34t34 14q19 0 35 -14zM462 384q14 -14 14 -33q0 -20 -15 -35q-14 -14 -34 -14q-21 0 -34 14q-14 13 -14 34q0 20 14 34t34 14q19 0 35 -14z" />
    <glyph glyph-name="uni2197" unicode="&#x2197;" horiz-adv-x="1162" 
d="M923 446q14 -14 14 -34t-15 -35q-14 -14 -34 -14q-21 0 -34 14q-15 15 -15 35t14 34t35 14q19 0 35 -14zM179 -128q14 -14 14 -34t-15 -35q-14 -14 -34 -14q-21 0 -34 14q-15 15 -15 35t14 34t35 14q19 0 35 -14zM609 573q-14 -14 -34 -14q-21 0 -34 14q-15 15 -15 35
t14 34t34 14q19 0 35 -14q14 -16 14 -35q0 -20 -14 -34zM794 487q14 -14 14 -34t-15 -35q-14 -14 -34 -14q-21 0 -34 14q-14 13 -14 34t14 35t34 14q19 0 35 -14zM466 668q14 -14 14 -34t-15 -35q-14 -14 -34 -14q-21 0 -34 14q-14 13 -14 34t14 35t34 14q19 0 35 -14z
M975 159q14 -14 14 -34t-15 -35q-14 -14 -34 -14q-21 0 -34 14q-14 13 -14 34t14 35t34 14q19 0 35 -14zM589 282q14 -14 14 -34t-15 -35q-14 -14 -34 -14q-21 0 -34 14q-14 13 -14 34t14 35t34 14q19 0 35 -14zM384 77q14 -14 14 -34t-15 -35q-14 -14 -34 -14q-21 0 -34 14
q-14 13 -14 34t14 35t34 14q19 0 35 -14zM897 589q14 -14 14 -33q0 -20 -15 -35q-14 -14 -34 -14q-21 0 -34 14q-15 15 -15 35q0 19 14 33t35 14q19 0 35 -14zM691 316q-14 -14 -34 -14q-21 0 -34 14q-15 15 -15 35q0 19 14 33t34 14q19 0 35 -14q14 -16 14 -34
q0 -20 -14 -34zM486 111q-14 -14 -34 -14q-21 0 -34 14q-15 15 -15 35q0 19 14 33t34 14q19 0 35 -14q14 -16 14 -34q0 -20 -14 -34zM281 -94q-14 -14 -34 -14q-21 0 -34 14q-15 15 -15 35q0 19 14 33t34 14q19 0 35 -14q14 -16 14 -34q0 -20 -14 -34zM949 302
q14 -14 14 -33q0 -20 -15 -35q-14 -14 -34 -14q-21 0 -34 14q-14 13 -14 34q0 20 14 34t34 14q19 0 35 -14zM753 615q14 -14 14 -33q0 -20 -15 -35q-14 -14 -34 -14q-21 0 -34 14q-14 13 -14 34q0 20 14 34t34 14q19 0 35 -14z" />
    <glyph glyph-name="uni2198" unicode="&#x2198;" horiz-adv-x="1162" 
d="M923 25q-14 -14 -35 -14q-22 0 -35 14q-14 14 -14 34t15 35q14 14 34 14q18 0 34 -14q15 -15 15 -35t-14 -34zM179 599q-14 -14 -35 -14q-22 0 -35 14q-14 14 -14 34t15 35q14 14 34 14q18 0 34 -14q15 -15 15 -35t-14 -34zM609 -171q-14 -14 -35 -14t-34 14
q-14 14 -14 34t15 35q14 14 34 14q18 0 34 -14q14 -16 14 -35q0 -20 -14 -34zM466 -197q-14 -14 -35 -14t-34 14q-14 13 -14 34t14 35t34 14q18 0 34 -14q15 -15 15 -35t-14 -34zM794 -16q-14 -14 -35 -14t-34 14q-14 13 -14 34t14 35t34 14q18 0 34 -14q15 -15 15 -35
t-14 -34zM589 189q-14 -14 -35 -14t-34 14q-14 13 -14 34t14 35t34 14q18 0 34 -14q15 -15 15 -35t-14 -34zM384 394q-14 -14 -35 -14t-34 14q-14 13 -14 34t14 35t34 14q18 0 34 -14q15 -15 15 -35t-14 -34zM975 312q-14 -14 -35 -14t-34 14q-14 13 -14 34t14 35t34 14
q18 0 34 -14q15 -15 15 -35t-14 -34zM897 -118q-14 -14 -35 -14q-22 0 -35 14q-14 14 -14 33q0 20 15 35q14 14 34 14q18 0 34 -14q15 -15 15 -35q0 -19 -14 -33zM486 292q-14 -14 -35 -14t-34 14q-14 14 -14 33q0 20 15 35q14 14 34 14q18 0 34 -14q14 -16 14 -34
q0 -20 -14 -34zM281 497q-14 -14 -35 -14t-34 14q-14 14 -14 33q0 20 15 35q14 14 34 14q18 0 34 -14q14 -16 14 -34q0 -20 -14 -34zM691 87q-14 -14 -35 -14t-34 14q-14 14 -14 33q0 20 15 35q14 14 34 14q18 0 34 -14q14 -16 14 -34q0 -20 -14 -34zM949 169
q-14 -14 -35 -14t-34 14q-14 13 -14 34q0 20 14 34t34 14q18 0 34 -14q15 -15 15 -35q0 -19 -14 -33zM753 -144q-14 -14 -35 -14t-34 14q-14 13 -14 34q0 20 14 34t34 14q18 0 34 -14q15 -15 15 -35q0 -19 -14 -33z" />
    <glyph glyph-name="uni2199" unicode="&#x2199;" horiz-adv-x="1162" 
d="M975 599q-14 -14 -35 -14q-22 0 -35 14q-14 14 -14 34t15 35q14 14 34 14q18 0 34 -14q15 -15 15 -35t-14 -34zM231 25q-14 -14 -35 -14q-22 0 -35 14q-14 14 -14 34t15 35q14 14 34 14q18 0 34 -14q15 -15 15 -35t-14 -34zM687 -197q-14 -14 -35 -14t-34 14
q-14 14 -14 34t15 35q14 14 34 14q18 0 34 -14q14 -16 14 -35q0 -20 -14 -34zM359 -16q-14 -14 -35 -14t-34 14q-14 14 -14 34t15 35q14 14 34 14q18 0 34 -14q14 -16 14 -35q0 -20 -14 -34zM564 189q-14 -14 -35 -14t-34 14q-14 14 -14 34t15 35q14 14 34 14q18 0 34 -14
q14 -16 14 -35q0 -20 -14 -34zM769 394q-14 -14 -35 -14t-34 14q-14 14 -14 34t15 35q14 14 34 14q18 0 34 -14q14 -16 14 -35q0 -20 -14 -34zM178 312q-14 -14 -35 -14t-34 14q-14 14 -14 34t15 35q14 14 34 14q18 0 34 -14q14 -16 14 -35q0 -20 -14 -34zM544 -171
q-14 -14 -35 -14t-34 14q-14 13 -14 34t14 35t34 14q18 0 34 -14q15 -15 15 -35t-14 -34zM257 -118q-14 -14 -35 -14q-22 0 -35 14q-14 14 -14 33q0 20 15 35q14 14 34 14q18 0 34 -14q15 -15 15 -35q0 -19 -14 -33zM400 -144q-14 -14 -35 -14t-34 14q-14 14 -14 33
q0 20 15 35q14 14 34 14q18 0 34 -14q14 -16 14 -34q0 -20 -14 -34zM204 169q-14 -14 -35 -14t-34 14q-14 14 -14 33q0 20 15 35q14 14 34 14q18 0 34 -14q14 -16 14 -34q0 -20 -14 -34zM462 87q-14 -14 -35 -14t-34 14q-14 13 -14 34q0 20 14 34t34 14q18 0 34 -14
q15 -15 15 -35q0 -19 -14 -33zM872 497q-14 -14 -35 -14t-34 14q-14 13 -14 34q0 20 14 34t34 14q18 0 34 -14q15 -15 15 -35q0 -19 -14 -33zM667 292q-14 -14 -35 -14t-34 14q-14 13 -14 34q0 20 14 34t34 14q18 0 34 -14q15 -15 15 -35q0 -19 -14 -33z" />
    <glyph glyph-name="partialdiff" unicode="&#x2202;" horiz-adv-x="567" 
d="M502 240q0 -119 -60 -186.5t-156 -67.5q-91 0 -152 64.5t-61 159.5q0 91 56 147.5t144 56.5q34 0 63 -6t42 -12l12 -6q-31 87 -108 152q-50 43 -112.5 74.5t-114.5 36.5l40 48q66 -7 148.5 -49.5t138.5 -107.5q120 -138 120 -304zM417 231q0 45 -10 90q-15 12 -52.5 22.5
t-71.5 10.5q-58 0 -90.5 -38t-32.5 -108q0 -71 36.5 -114t95.5 -43t92 48.5t33 131.5z" />
    <glyph glyph-name="Delta" unicode="&#x2206;" horiz-adv-x="624" 
d="M579 0h-534l221 588h88zM477 65l-169 446l-163 -446h332z" />
    <glyph glyph-name="product" unicode="&#x220f;" horiz-adv-x="685" 
d="M640 0h-221v70h69v507h-290v-507h69v-70h-222v70h73v507h-73v68h595v-68h-72v-507h72v-70z" />
    <glyph glyph-name="summation" unicode="&#x2211;" horiz-adv-x="484" 
d="M439 70l-21 -70h-373v63l265 281l-256 273l23 69h359l-23 -69h-264l257 -272l-269 -275h302z" />
    <glyph glyph-name="minus" unicode="&#x2212;" horiz-adv-x="595" 
d="M540 250h-485v59h485v-59z" />
    <glyph glyph-name="uni2219" unicode="&#x2219;" horiz-adv-x="301" 
d="M221 279q0 -27 -19 -46.5t-46 -19.5t-46.5 19.5t-19.5 46.5q0 28 19 47t46 19t46.5 -19t19.5 -47z" />
    <glyph glyph-name="radical" unicode="&#x221a;" horiz-adv-x="537" 
d="M532 695l-248 -695h-71l-149 439h-59v59h120l82 -252q38 -115 44 -153q17 71 42 143l160 459h79z" />
    <glyph glyph-name="infinity" unicode="&#x221e;" horiz-adv-x="907" 
d="M872 262q0 -80 -53.5 -120.5t-124.5 -40.5q-78 0 -156 55l-87 61l-84 -60q-79 -57 -160 -57q-29 0 -57 7.5t-55 23.5t-43.5 48t-16.5 75q0 80 54 121t125 41q75 0 163 -60l81 -56l84 60q81 57 159 57q29 0 56.5 -7.5t54.5 -24t43.5 -48.5t16.5 -75zM395 255l-80 56
q-50 35 -101 35q-52 0 -75.5 -27.5t-23.5 -63.5q0 -38 27.5 -64t71.5 -26q53 0 118 45zM792 261q0 38 -27.5 64t-71.5 26q-57 0 -118 -45l-62 -45l81 -55q51 -36 99 -36q52 0 75.5 27.5t23.5 63.5z" />
    <glyph glyph-name="uni2224" unicode="&#x2224;" horiz-adv-x="301" 
d="M221 279q0 -27 -19 -46.5t-46 -19.5t-46.5 19.5t-19.5 46.5q0 28 19 47t46 19t46.5 -19t19.5 -47z" />
    <glyph glyph-name="logicaland" unicode="&#x2227;" horiz-adv-x="301" 
d="M221 279q0 -27 -19 -46.5t-46 -19.5t-46.5 19.5t-19.5 46.5q0 28 19 47t46 19t46.5 -19t19.5 -47z" />
    <glyph glyph-name="integral" unicode="&#x222b;" horiz-adv-x="232" 
d="M357 703l-28 -59q-23 19 -56 19q-66 0 -72 -88l-42 -620q-3 -48 -18.5 -75t-43.5 -47q-37 -26 -86 -26q-54 0 -86 21l28 60q23 -19 56 -19q66 0 72 87l42 620q3 48 18.5 75t43.5 47q37 26 86 26q54 0 86 -21z" />
    <glyph glyph-name="approxequal" unicode="&#x2248;" horiz-adv-x="570" 
d="M515 384q-25 -34 -53.5 -51t-72.5 -17q-39 0 -109.5 33t-106.5 33q-7 0 -13.5 -0.5t-12.5 -2.5t-10 -3.5t-9.5 -5.5t-8 -6t-8 -7.5l-7 -7t-7.5 -8.5t-8 -9l-34 50q24 34 52.5 51t72.5 17q39 0 110 -33t106 -33q31 0 48.5 11.5t36.5 38.5zM515 203q-25 -34 -53.5 -51
t-72.5 -17q-39 0 -109.5 33t-106.5 33q-7 0 -13.5 -0.5t-12.5 -2.5t-10 -3.5t-9.5 -5.5t-8 -6t-8 -7.5l-7 -7t-7.5 -8.5t-8 -9l-34 50q24 34 52.5 51t72.5 17q39 0 110 -33t106 -33q31 0 48.5 11.5t36.5 38.5z" />
    <glyph glyph-name="notequal" unicode="&#x2260;" horiz-adv-x="632" 
d="M577 192h-293l-109 -179l-46 30l91 149h-165v66h205l55 90h-260v66h300l109 179l46 -30l-91 -149h158v-66h-198l-55 -90h253v-66z" />
    <glyph glyph-name="lessequal" unicode="&#x2264;" horiz-adv-x="467" 
d="M412 124l-367 139v63l367 172v-75l-276 -124l276 -101v-74zM412 36h-367v71h367v-71z" />
    <glyph glyph-name="greaterequal" unicode="&#x2265;" horiz-adv-x="467" 
d="M412 263l-367 -139v74l276 101l-276 124v75l367 -172v-63zM412 36h-367v71h367v-71z" />
    <glyph glyph-name="dotmath" unicode="&#x22c5;" horiz-adv-x="301" 
d="M221 279q0 -27 -19 -46.5t-46 -19.5t-46.5 19.5t-19.5 46.5q0 28 19 47t46 19t46.5 -19t19.5 -47z" />
    <glyph glyph-name="uni25B4" unicode="&#x25b4;" horiz-adv-x="516" 
d="M288 543l178 -386h-356z" />
    <glyph glyph-name="uni25B8" unicode="&#x25b8;" horiz-adv-x="516" 
d="M481 350l-386 -178v356z" />
    <glyph glyph-name="uni25BE" unicode="&#x25be;" horiz-adv-x="516" 
d="M288 157l-178 386h356z" />
    <glyph glyph-name="uni25C2" unicode="&#x25c2;" horiz-adv-x="516" 
d="M95 350l386 178v-356z" />
    <glyph glyph-name="lozenge" unicode="&#x25ca;" horiz-adv-x="592" 
d="M537 344l-200 -344h-86l-196 344l196 343h86zM448 344l-157 271l-153 -271l153 -272z" />
    <glyph glyph-name="uniFB06" unicode="&#xfb06;" horiz-adv-x="786" 
d="M566 498v152q-59 27 -121 27q-49 0 -86 -27t-37 -80q0 -30 14.5 -48.5t42.5 -35.5q7 -3 19 -9l-29 -58q-75 36 -125 36q-43 0 -68.5 -22.5t-25.5 -59.5q0 -29 16.5 -46.5t55.5 -25.5l66 -14q133 -28 133 -139q0 -73 -52 -118t-136 -45q-101 0 -183 50l30 58
q77 -47 158 -47q46 0 73.5 23t27.5 63q0 65 -82 82l-62 13q-61 13 -93.5 49t-32.5 88q0 67 49.5 110t127.5 43q14 0 42 -4q-24 32 -24 73q0 64 55.5 104.5t128.5 40.5q66 0 196 -30v-203h127l-24 -59h-104v-321q0 -42 14 -58t50 -16q29 0 49 10l11 -50q-38 -20 -88 -20
q-35 0 -65 14q-48 23 -48 99v342h-65v59h65z" />
    <glyph glyph-name="parenleft.case" horiz-adv-x="325" 
d="M355 -80l-22 -40q-63 24 -113.5 78t-79.5 128q-40 104 -40 270q0 226 95 344q60 75 138 105l19 -38q-56 -33 -92 -75t-54 -104q-26 -93 -26 -230q0 -221 60 -326q41 -71 115 -112z" />
    <glyph glyph-name="parenright.case" horiz-adv-x="325" 
d="M235 331q0 -226 -95 -344q-60 -75 -138 -105l-19 38q56 33 92 75t54 104q26 93 26 230q0 221 -60 326q-41 71 -115 112l22 40q63 -24 113.5 -78t79.5 -128q40 -104 40 -270z" />
    <glyph glyph-name="hyphen.case" horiz-adv-x="301" 
d="M251 305h-191v76h191v-76z" />
    <glyph glyph-name="bracketleft.case" horiz-adv-x="285" 
d="M265 -101h-165v888h165v-60h-93v-768h93v-60z" />
    <glyph glyph-name="bracketright.case" horiz-adv-x="285" 
d="M195 -101h-165v60h93v768h-93v60h165v-888z" />
    <glyph glyph-name="braceleft.case" horiz-adv-x="331" 
d="M311 -101h-70q-41 0 -73 34t-32 91v175q0 51 -26 82.5t-60 31.5v60q33 0 59.5 32t26.5 81v176q0 57 33 91t72 34h70v-60h-54q-49 0 -49 -79v-176q0 -59 -29 -90t-57 -38v-2q28 -4 57 -34t29 -95v-175q0 -79 49 -79h54v-60z" />
    <glyph glyph-name="braceright.case" horiz-adv-x="331" 
d="M291 313q-34 0 -60 -31.5t-26 -82.5v-175q0 -57 -32 -91t-73 -34h-70v60h54q49 0 49 79v175q0 65 29 95t57 34v2q-28 7 -57 38t-29 90v176q0 79 -49 79h-54v60h70q39 0 72 -34t33 -91v-176q0 -49 26.5 -81t59.5 -32v-60z" />
    <glyph glyph-name="guillemotleft.case" horiz-adv-x="504" 
d="M454 165l-55 -36l-143 214l143 214l55 -36l-117 -178zM268 165l-55 -36l-143 214l143 214l55 -36l-117 -178z" />
    <glyph glyph-name="uni00AD.case" horiz-adv-x="301" 
d="M251 229h-191v76h191v-76z" />
    <glyph glyph-name="guillemotright.case" horiz-adv-x="504" 
d="M444 343l-143 -214l-55 36l117 178l-117 178l55 36zM258 343l-143 -214l-55 36l117 178l-117 178l55 36z" />
    <glyph glyph-name="endash.case" horiz-adv-x="595" 
d="M545 313h-485v59h485v-59z" />
    <glyph glyph-name="emdash.case" horiz-adv-x="822" 
d="M772 313h-712v59h712v-59z" />
    <glyph glyph-name="guilsinglleft.case" horiz-adv-x="318" 
d="M268 165l-55 -36l-143 214l143 214l55 -36l-117 -178z" />
    <glyph glyph-name="guilsinglright.case" horiz-adv-x="318" 
d="M258 343l-143 -214l-55 36l117 178l-117 178l55 36z" />
    <glyph glyph-name="zero.dnom" horiz-adv-x="345" 
d="M320 196q0 -90 -41 -148t-109 -58q-51 0 -85.5 37t-47 82t-12.5 92q0 80 42.5 139.5t103.5 59.5q52 0 87.5 -34.5t48.5 -78.5t13 -91zM247 196q0 58 -12 92q-19 56 -63 56q-32 0 -54 -43q-20 -37 -20 -102q0 -61 12 -95q22 -60 62 -60q16 0 33 13.5t27 36.5q15 33 15 102
z" />
    <glyph glyph-name="one.dnom" horiz-adv-x="285" 
d="M260 0h-190v55h62v256q-24 -15 -90 -43l-17 41l124 83h51v-337h60v-55z" />
    <glyph glyph-name="two.dnom" horiz-adv-x="318" 
d="M293 56l-15 -56h-247v40q42 28 93 83q90 95 90 153q0 28 -17.5 46.5t-44.5 18.5q-10 0 -20 -2t-21 -7t-17 -8.5t-19 -11.5t-17 -10l-33 35q75 62 143 62q51 0 86 -33t35 -82q0 -45 -25 -83.5t-69 -83.5q-46 -46 -63 -62q4 0 11 0.5t10 0.5h140z" />
    <glyph glyph-name="three.dnom" horiz-adv-x="323" 
d="M298 123q0 -40 -27.5 -73t-69.5 -50q-48 -20 -117 -20q-19 0 -37 3l-17 51q27 -4 45 -4q82 0 123 36q28 24 28 62q0 43 -43 55q-20 5 -70 5h-16v51h16q62 0 76 6q28 12 28 45q0 23 -17 37.5t-45 14.5q-44 0 -97 -37l-33 37q64 57 139 57q54 0 89 -29t35 -74
q0 -57 -54 -84q64 -29 64 -89z" />
    <glyph glyph-name="four.dnom" horiz-adv-x="343" 
d="M318 71h-49q0 -2 0.5 -6t0.5 -6v-60l-67 -18v77q0 2 0.5 6.5t0.5 6.5h-179v47l146 275h75q-109 -210 -145 -269l7 1h96l-1 6q0 2 2 32l8 108l57 17v-155l-1 -8h49v-54z" />
    <glyph glyph-name="five.dnom" horiz-adv-x="300" 
d="M275 125q0 -38 -22 -72t-58 -51q-48 -23 -103 -23q-24 0 -53 7l-14 58q34 -14 58 -14q51 0 86 27.5t35 66.5q0 21 -14 40q-18 25 -66 25q-46 0 -88 -19l22 218h199l-11 -57h-127l-8 -91q24 2 29 2q73 0 108 -41q27 -31 27 -76z" />
    <glyph glyph-name="six.dnom" horiz-adv-x="337" 
d="M312 124q0 -57 -41 -95.5t-101 -38.5q-66 0 -105.5 45.5t-39.5 119.5q0 90 60 157q66 74 176 105l18 -46q-42 -13 -71 -30q-75 -45 -98 -115q36 21 73 21q47 0 85 -30q44 -34 44 -93zM238 123q0 34 -17 51q-17 19 -48 19q-34 0 -71 -26q-1 -10 -1 -24q0 -99 69 -99
q31 0 49.5 20.5t18.5 58.5z" />
    <glyph glyph-name="seven.dnom" horiz-adv-x="337" 
d="M312 388l-14 -60q-80 -111 -109 -165q-54 -102 -63 -156q0 -3 -2 -12l-80 -19q13 59 29 96q72 164 157 260q-5 0 -16 -0.5t-17 -0.5h-172l17 57h270z" />
    <glyph glyph-name="eight.dnom" horiz-adv-x="339" 
d="M314 112q0 -55 -47 -91q-40 -31 -98 -31q-61 0 -102.5 32.5t-41.5 82.5q0 66 72 102q-58 34 -58 88q0 24 13.5 47.5t33.5 36.5q31 20 90 20q55 0 90 -26t35 -70q0 -60 -70 -94q40 -18 61.5 -39.5t21.5 -57.5zM245 101q0 22 -13 35q-16 16 -82 45q-28 -15 -42.5 -31
t-14.5 -42q0 -29 21.5 -47t57.5 -18q33 0 53 16t20 42zM235 299q0 22 -17 35t-48 13t-48 -13t-17 -35q0 -36 71 -64q59 30 59 64z" />
    <glyph glyph-name="nine.dnom" horiz-adv-x="357" 
d="M332 252q0 -50 -22 -101t-61 -91q-42 -43 -105 -69q-36 -15 -81 -20l-38 45q48 6 73 16q90 38 131 106l3 5q-24 -10 -53 -10q-56 0 -93 36.5t-37 92.5q0 58 41.5 98t102.5 40q58 0 96 -38q43 -43 43 -110zM260 252q0 44 -19.5 69t-49.5 25t-49.5 -23t-19.5 -61
q0 -36 17 -56t46 -20q35 0 68 21q7 30 7 45z" />
    <glyph glyph-name="germandbls.hist" horiz-adv-x="667" 
d="M375 698l-31 -59q-42 25 -73 25q-104 0 -104 -142v-522h-77v439h-74v59h74v13q0 57 7.5 91.5t32.5 62.5q52 60 147 60q48 0 98 -27zM612 148q0 -73 -52 -118t-136 -45q-101 0 -183 50l30 58q77 -47 158 -47q46 0 73.5 23t27.5 63q0 65 -82 82l-62 13q-61 13 -93.5 49
t-32.5 88q0 67 49.5 110t127.5 43q82 0 152 -40l-29 -58q-75 36 -125 36q-43 0 -68.5 -22.5t-25.5 -59.5q0 -29 16.5 -46.5t55.5 -25.5l66 -14q133 -28 133 -139z" />
    <glyph glyph-name="grave.lc" horiz-adv-x="549" 
d="M380 612l-26 -47l-224 100l43 77z" />
    <glyph glyph-name="dieresis.lc" horiz-adv-x="549" 
d="M428 621q0 -22 -15 -37.5t-36 -15.5q-22 0 -37.5 15.5t-15.5 37.5q0 21 15 36t37 15q21 0 36.5 -15t15.5 -36zM220 621q0 -22 -14.5 -37.5t-36.5 -15.5t-37 15.5t-15 37.5q0 21 15 36t36 15q22 0 37 -15t15 -36z" />
    <glyph glyph-name="macron.lc" horiz-adv-x="324" 
d="M299 568h-274v54h274v-54z" />
    <glyph glyph-name="acute.lc" horiz-adv-x="549" 
d="M424 665l-224 -100l-26 47l207 130z" />
    <glyph glyph-name="circumflex.lc" horiz-adv-x="549" 
d="M446 605l-36 -44l-139 85l-135 -85l-31 44l170 135z" />
    <glyph glyph-name="caron.lc" horiz-adv-x="459" 
d="M406 693l-170 -135l-171 135l36 44l139 -85l135 85z" />
    <glyph glyph-name="breve.lc" horiz-adv-x="411" 
d="M370 669q-19 -26 -67.5 -62t-95.5 -36q-34 0 -73 23t-59 42t-32 33l34 39q21 -18 58 -37t76 -19q53 0 129 56z" />
    <glyph glyph-name="dotaccent.lc" horiz-adv-x="252" 
d="M187 652q0 -26 -17.5 -43.5t-43.5 -17.5q-25 0 -43 17.5t-18 42.5q0 26 18 44t43 18q26 0 43.5 -17.5t17.5 -43.5z" />
    <glyph glyph-name="ring.lc" horiz-adv-x="529" 
d="M383 659q0 -44 -30.5 -75t-73.5 -31t-74.5 31.5t-31.5 74.5q0 44 30.5 75t73.5 31t74.5 -31.5t31.5 -74.5zM338 659q0 24 -18.5 42t-43.5 18q-23 0 -40 -18t-17 -42t18 -42t42 -18q23 0 41 18t18 42z" />
    <glyph glyph-name="tilde.lc" horiz-adv-x="549" 
d="M450 656q-27 -33 -53 -48t-68 -15q-31 0 -64.5 18.5t-62.5 18.5q-22 0 -35.5 -9t-33.5 -30l-28 45q27 34 52.5 48.5t67.5 14.5q31 0 64.5 -18.5t62.5 -18.5q22 0 36.5 9.5t33.5 29.5z" />
    <glyph glyph-name="hungarumlaut.lc" horiz-adv-x="428" 
d="M202 763l-117 -198l-50 21l86 210zM393 744l-154 -173l-44 31l124 189z" />
    <glyph glyph-name="diedot.lc" horiz-adv-x="549" 
d="M220 621q0 -22 -14.5 -37.5t-36.5 -15.5t-37 15.5t-15 37.5q0 21 15 36t36 15q22 0 37 -15t15 -36z" />
    <glyph glyph-name="zero.lf" horiz-adv-x="589" 
d="M524 327q0 -153 -64.5 -248t-168.5 -95q-60 0 -106.5 35.5t-71 91t-36.5 113t-12 112.5q0 135 67.5 232.5t159.5 97.5q50 0 90.5 -22t66 -57t43 -80.5t25 -90.5t7.5 -89zM436 326q0 104 -21 167q-17 53 -49 81.5t-72 28.5q-30 0 -58 -22.5t-48 -62.5q-34 -68 -34 -186
q0 -114 20 -172q18 -53 50 -84t69 -31q34 0 65.5 26.5t50.5 69.5q27 62 27 185z" />
    <glyph glyph-name="one.lf" horiz-adv-x="394" 
d="M220 0v559q-41 -30 -74 -46l-84 -38l-17 43l192 135h62v-653h-79z" />
    <glyph glyph-name="two.lf" horiz-adv-x="531" 
d="M466 64l-16 -64h-382v45q60 41 150 143q82 91 118.5 157t36.5 122t-34.5 92.5t-86.5 36.5q-14 0 -28.5 -3t-24.5 -6t-26.5 -11t-23 -12t-25.5 -16t-25 -15l-34 38q109 94 214 94q78 0 132 -53.5t54 -131.5q0 -89 -64 -177q-35 -47 -88 -104q-121 -128 -144 -139
q48 4 85 4h212z" />
    <glyph glyph-name="three.lf" horiz-adv-x="526" 
d="M461 200q0 -64 -43 -117.5t-110 -82.5q-76 -33 -187 -33q-30 0 -49 3l-18 54q25 -4 51 -4q140 0 216 68q52 46 52 120q0 40 -22.5 70.5t-60.5 41.5q-33 9 -121 9h-10v56h9q108 0 134 12q25 11 40.5 37t15.5 58q0 48 -33 77.5t-86 29.5q-77 0 -159 -59l-35 41q39 36 97 60
t111 24q83 0 136.5 -46t53.5 -117q0 -54 -32.5 -93.5t-88.5 -54.5q59 -14 99 -55t40 -99z" />
    <glyph glyph-name="four.lf" horiz-adv-x="565" 
d="M510 125h-55l-27 1q1 -18 1 -39v-91l-77 -23v113l1 40q-18 -1 -40 -1h-258v62l237 468h87l-206 -408l-36 -63q22 3 39 3h155l22 -1q-1 22 -1 28q0 10 1.5 28.5t1.5 26.5l12 177l62 19v-248l-1 -31q12 1 23 1h59v-62z" />
    <glyph glyph-name="five.lf" horiz-adv-x="487" 
d="M422 203q0 -61 -34.5 -116.5t-90.5 -83.5q-74 -38 -164 -38q-39 0 -74 9l-14 60q33 -14 74 -14q91 0 154 52.5t63 129.5q0 46 -25 80q-36 50 -125 50q-80 0 -126 -22l32 337h296l-12 -66h-213l-17 -193q34 4 68 4q109 0 166 -67q42 -51 42 -122z" />
    <glyph glyph-name="six.lf" horiz-adv-x="575" 
d="M510 201q0 -93 -63 -155.5t-157 -62.5q-102 0 -163.5 74.5t-61.5 197.5q0 150 96 263q105 125 270 174l19 -50q-71 -23 -134.5 -69t-103.5 -104q-27 -40 -47 -123q25 24 65 38t81 14q84 0 141.5 -56.5t57.5 -140.5zM420 199q0 64 -33 100q-36 39 -92 39q-68 0 -135 -53
q-3 -23 -3 -51q0 -79 30.5 -134.5t102.5 -55.5q60 0 95 42t35 113z" />
    <glyph glyph-name="seven.lf" horiz-adv-x="516" 
d="M481 646l-19 -80q-111 -154 -180 -289q-90 -175 -109 -287l-97 -24q18 115 138 338q100 187 187 277q-45 -1 -92 -1h-264l19 66h417z" />
    <glyph glyph-name="eight.lf" horiz-adv-x="578" 
d="M513 180q0 -90 -67.5 -143.5t-158.5 -53.5q-96 0 -159 52.5t-63 132.5q0 63 39 108.5t102 67.5q-56 26 -87 66.5t-31 88.5q0 85 61.5 125.5t149.5 40.5q86 0 139 -42t53 -110q0 -107 -140 -162q3 -2 23 -11t24.5 -11.5t21.5 -11.5t22 -13t18.5 -13.5t18.5 -16.5
t13.5 -18.5t11.5 -22t6 -24.5t3 -29zM431 161q0 44 -26 72q-32 33 -150 87q-55 -30 -82.5 -62t-27.5 -85q0 -59 40.5 -95t107.5 -36q61 0 99.5 33t38.5 86zM415 507q0 46 -34 73.5t-92 27.5q-57 0 -91 -27.5t-34 -74.5q0 -26 12 -47t35.5 -37t42 -25.5t46.5 -20.5
q115 61 115 131z" />
    <glyph glyph-name="nine.lf" horiz-adv-x="577" 
d="M512 426q0 -84 -35.5 -170t-97.5 -154q-67 -73 -169 -116q-64 -28 -121 -34l-39 48q48 6 96 26q158 69 226 192q17 31 26 56q-56 -39 -124 -39q-87 0 -143.5 58.5t-56.5 149.5q0 95 64.5 159.5t159.5 64.5q99 0 156.5 -70t57.5 -171zM426 425q0 81 -36.5 130.5
t-95.5 49.5t-95.5 -45t-36.5 -118q0 -69 32.5 -108.5t89.5 -39.5q66 0 132 53q10 44 10 78z" />
    <glyph glyph-name="g.salt" horiz-adv-x="559" 
d="M484 498q-15 -45 -15 -128v-233q0 -25 1.5 -76.5t1.5 -63.5q0 -108 -52.5 -154.5t-164.5 -46.5q-90 0 -184 41l17 68q94 -43 167 -43q69 0 104.5 28t35.5 93q0 28 -1 78q-59 -68 -140 -68q-68 0 -114 39q-80 67 -80 202t47 199q58 80 149 80q78 0 141 -70q3 40 10 55h77z
M394 136v236q-20 32 -55.5 51.5t-71.5 19.5q-70 0 -101 -61q-23 -45 -23 -130q0 -74 12 -108.5t35 -55.5q30 -29 83 -29q80 0 121 77z" />
    <glyph glyph-name="pi.salt" horiz-adv-x="560" 
d="M515 436h-65v-336q0 -29 6 -39.5t23 -10.5q10 0 17 5l16 -51q-26 -14 -57 -14q-37 0 -59 21q-24 21 -24 71v354h-183v-320q0 -84 -16 -116h-78q16 35 16 124v312h-66v62h470v-62z" />
    <glyph glyph-name="arrowleft.salt" horiz-adv-x="872" 
d="M847 275q0 -20 -14 -34.5t-34 -14.5t-34.5 14.5t-14.5 34.5t14.5 34t34.5 14t34 -14t14 -34zM702 275q0 -20 -14 -34.5t-34 -14.5t-34.5 14.5t-14.5 34.5t14.5 34t34.5 14t34 -14t14 -34zM557 275q0 -20 -14 -34.5t-34 -14.5t-34.5 14.5t-14.5 34.5t14.5 34t34.5 14
t34 -14t14 -34zM288 515q0 -20 -14 -34.5t-34 -14.5t-34.5 14.5t-14.5 34.5t14.5 34t34.5 14t34 -14t14 -34zM412 275q0 -20 -14 -34.5t-34 -14.5t-34.5 14.5t-14.5 34.5t14.5 34t34.5 14t34 -14t14 -34zM205 395q0 -20 -14 -34.5t-34 -14.5t-34.5 14.5t-14.5 34.5t14.5 34
t34.5 14t34 -14t14 -34zM267 275q0 -20 -14 -34.5t-34 -14.5t-34.5 14.5t-14.5 34.5t14.5 34t34.5 14t34 -14t14 -34zM122 275q0 -20 -14 -34.5t-34 -14.5t-34.5 14.5t-14.5 34.5t14.5 34t34.5 14t34 -14t14 -34zM205 155q0 -20 -14 -34.5t-34 -14.5t-34.5 14.5t-14.5 34.5
t14.5 34t34.5 14t34 -14t14 -34zM288 35q0 -20 -14 -34.5t-34 -14.5t-34.5 14.5t-14.5 34.5t14.5 34t34.5 14t34 -14t14 -34z" />
    <glyph glyph-name="arrowup.salt" horiz-adv-x="872" 
d="M725 471q0 -20 -14.5 -34t-34.5 -14t-34 14t-14 34t14 34.5t34 14.5t34.5 -14.5t14.5 -34.5zM605 554q0 -20 -14.5 -34t-34.5 -14t-34 14t-14 34t14 34.5t34 14.5t34.5 -14.5t14.5 -34.5zM485 637q0 -20 -14.5 -34t-34.5 -14t-34 14t-14 34t14 34.5t34 14.5t34.5 -14.5
t14.5 -34.5zM485 492q0 -20 -14.5 -34t-34.5 -14t-34 14t-14 34t14 34.5t34 14.5t34.5 -14.5t14.5 -34.5zM365 554q0 -20 -14.5 -34t-34.5 -14t-34 14t-14 34t14 34.5t34 14.5t34.5 -14.5t14.5 -34.5zM485 347q0 -20 -14.5 -34t-34.5 -14t-34 14t-14 34t14 34.5t34 14.5
t34.5 -14.5t14.5 -34.5zM245 471q0 -20 -14.5 -34t-34.5 -14t-34 14t-14 34t14 34.5t34 14.5t34.5 -14.5t14.5 -34.5zM485 202q0 -20 -14.5 -34t-34.5 -14t-34 14t-14 34t14 34.5t34 14.5t34.5 -14.5t14.5 -34.5zM485 57q0 -20 -14.5 -34t-34.5 -14t-34 14t-14 34t14 34.5
t34 14.5t34.5 -14.5t14.5 -34.5zM485 -88q0 -20 -14.5 -34t-34.5 -14t-34 14t-14 34t14 34.5t34 14.5t34.5 -14.5t14.5 -34.5z" />
    <glyph glyph-name="arrowright.salt" horiz-adv-x="872" 
d="M681 515q0 -20 -14.5 -34.5t-34.5 -14.5t-34 14.5t-14 34.5t14 34t34 14t34.5 -14t14.5 -34zM764 395q0 -20 -14.5 -34.5t-34.5 -14.5t-34 14.5t-14 34.5t14 34t34 14t34.5 -14t14.5 -34zM847 275q0 -20 -14.5 -34.5t-34.5 -14.5t-34 14.5t-14 34.5t14 34t34 14t34.5 -14
t14.5 -34zM702 275q0 -20 -14.5 -34.5t-34.5 -14.5t-34 14.5t-14 34.5t14 34t34 14t34.5 -14t14.5 -34zM764 155q0 -20 -14.5 -34.5t-34.5 -14.5t-34 14.5t-14 34.5t14 34t34 14t34.5 -14t14.5 -34zM557 275q0 -20 -14.5 -34.5t-34.5 -14.5t-34 14.5t-14 34.5t14 34t34 14
t34.5 -14t14.5 -34zM681 35q0 -20 -14.5 -34.5t-34.5 -14.5t-34 14.5t-14 34.5t14 34t34 14t34.5 -14t14.5 -34zM412 275q0 -20 -14.5 -34.5t-34.5 -14.5t-34 14.5t-14 34.5t14 34t34 14t34.5 -14t14.5 -34zM267 275q0 -20 -14.5 -34.5t-34.5 -14.5t-34 14.5t-14 34.5t14 34
t34 14t34.5 -14t14.5 -34zM122 275q0 -20 -14.5 -34.5t-34.5 -14.5t-34 14.5t-14 34.5t14 34t34 14t34.5 -14t14.5 -34z" />
    <glyph glyph-name="arrowdown.salt" horiz-adv-x="872" 
d="M485 638q0 -20 -14.5 -34.5t-34.5 -14.5t-34 14.5t-14 34.5t14 34t34 14t34.5 -14t14.5 -34zM485 493q0 -20 -14.5 -34.5t-34.5 -14.5t-34 14.5t-14 34.5t14 34t34 14t34.5 -14t14.5 -34zM485 348q0 -20 -14.5 -34.5t-34.5 -14.5t-34 14.5t-14 34.5t14 34t34 14t34.5 -14
t14.5 -34zM725 79q0 -20 -14.5 -34.5t-34.5 -14.5t-34 14.5t-14 34.5t14 34t34 14t34.5 -14t14.5 -34zM485 203q0 -20 -14.5 -34.5t-34.5 -14.5t-34 14.5t-14 34.5t14 34t34 14t34.5 -14t14.5 -34zM605 -4q0 -20 -14.5 -34.5t-34.5 -14.5t-34 14.5t-14 34.5t14 34t34 14
t34.5 -14t14.5 -34zM485 58q0 -20 -14.5 -34.5t-34.5 -14.5t-34 14.5t-14 34.5t14 34t34 14t34.5 -14t14.5 -34zM485 -87q0 -20 -14.5 -34.5t-34.5 -14.5t-34 14.5t-14 34.5t14 34t34 14t34.5 -14t14.5 -34zM365 -4q0 -20 -14.5 -34.5t-34.5 -14.5t-34 14.5t-14 34.5t14 34
t34 14t34.5 -14t14.5 -34zM245 79q0 -20 -14.5 -34.5t-34.5 -14.5t-34 14.5t-14 34.5t14 34t34 14t34.5 -14t14.5 -34z" />
    <glyph glyph-name="uni2196.salt" horiz-adv-x="872" 
d="M419 239q-14 -14 -34 -14q-21 0 -34 14q-15 15 -15 35t14 34t34 14q19 0 35 -14q14 -16 14 -35q0 -20 -14 -34zM214 444q-14 -14 -34 -14q-21 0 -34 14q-15 15 -15 35t14 34t34 14q19 0 35 -14q14 -16 14 -35q0 -20 -14 -34zM624 34q-14 -14 -34 -14q-21 0 -34 14
q-15 15 -15 35t14 34t34 14q19 0 35 -14q14 -16 14 -35q0 -20 -14 -34zM162 226q14 -14 14 -34t-15 -35q-14 -14 -34 -14q-21 0 -34 14q-14 13 -14 34t14 35t34 14q19 0 35 -14zM358 539q14 -14 14 -34t-15 -35q-14 -14 -34 -14q-21 0 -34 14q-14 13 -14 34t14 35t34 14
q19 0 35 -14zM501 497q-14 -14 -34 -14q-21 0 -34 14q-15 15 -15 35q0 19 14 33t34 14q19 0 35 -14q14 -16 14 -34q0 -20 -14 -34zM727 0q14 -14 14 -33q0 -20 -15 -35q-14 -14 -34 -14q-21 0 -34 14q-14 13 -14 34q0 20 14 34t34 14q19 0 35 -14zM317 410q14 -14 14 -33
q0 -20 -15 -35q-14 -14 -34 -14q-21 0 -34 14q-14 13 -14 34q0 20 14 34t34 14q19 0 35 -14zM522 205q14 -14 14 -33q0 -20 -15 -35q-14 -14 -34 -14q-21 0 -34 14q-14 13 -14 34q0 20 14 34t34 14q19 0 35 -14zM188 369q14 -14 14 -33q0 -20 -15 -35q-14 -14 -34 -14
t-33 14q-15 15 -15 35q0 19 14 33t34 14q19 0 35 -14z" />
    <glyph glyph-name="uni2197.salt" horiz-adv-x="872" 
d="M531 470q-14 -14 -34 -14q-21 0 -34 14q-15 15 -15 35t14 34t34 14q19 0 35 -14q14 -16 14 -35q0 -20 -14 -34zM727 157q-14 -14 -34 -14q-21 0 -34 14q-15 15 -15 35t14 34t34 14q19 0 35 -14q14 -16 14 -35q0 -20 -14 -34zM675 513q14 -14 14 -34t-15 -35
q-14 -14 -34 -14q-21 0 -34 14q-14 13 -14 34t14 35t34 14q19 0 35 -14zM470 308q14 -14 14 -34t-15 -35q-14 -14 -34 -14q-21 0 -34 14q-14 13 -14 34t14 35t34 14q19 0 35 -14zM265 103q14 -14 14 -34t-15 -35q-14 -14 -34 -14q-21 0 -34 14q-14 13 -14 34t14 35t34 14
q19 0 35 -14zM367 137q-14 -14 -34 -14q-21 0 -34 14q-15 15 -15 35q0 19 14 33t34 14q19 0 35 -14q14 -16 14 -34q0 -20 -14 -34zM572 342q-14 -14 -34 -14q-21 0 -34 14q-15 15 -15 35q0 19 14 33t34 14q19 0 35 -14q14 -16 14 -34q0 -20 -14 -34zM162 -68
q-14 -14 -34 -14q-21 0 -34 14q-15 15 -15 35q0 19 14 33t34 14q19 0 35 -14q14 -16 14 -34q0 -20 -14 -34zM388 565q14 -14 14 -33q0 -20 -15 -35q-14 -14 -34 -14q-21 0 -34 14q-14 13 -14 34q0 20 14 34t34 14q19 0 35 -14zM701 369q14 -14 14 -33q0 -20 -15 -35
q-14 -14 -34 -14t-33 14q-15 15 -15 35q0 19 14 33t34 14q19 0 35 -14z" />
    <glyph glyph-name="uni2198.salt" horiz-adv-x="872" 
d="M727 271q-14 -14 -35 -14t-34 14q-14 14 -14 34t15 35q14 14 34 14q18 0 34 -14q14 -16 14 -35q0 -20 -14 -34zM531 -42q-14 -14 -35 -14t-34 14q-14 14 -14 34t15 35q14 14 34 14q18 0 34 -14q14 -16 14 -35q0 -20 -14 -34zM470 189q-14 -14 -35 -14t-34 14
q-14 13 -14 34t14 35t34 14q18 0 34 -14q15 -15 15 -35t-14 -34zM675 -16q-14 -14 -35 -14t-34 14q-14 13 -14 34t14 35t34 14q18 0 34 -14q15 -15 15 -35t-14 -34zM265 394q-14 -14 -35 -14t-34 14q-14 13 -14 34t14 35t34 14q18 0 34 -14q15 -15 15 -35t-14 -34zM162 497
q-14 -14 -35 -14t-34 14q-14 14 -14 33q0 20 15 35q14 14 34 14q18 0 34 -14q14 -16 14 -34q0 -20 -14 -34zM572 87q-14 -14 -35 -14t-34 14q-14 14 -14 33q0 20 15 35q14 14 34 14q18 0 34 -14q14 -16 14 -34q0 -20 -14 -34zM367 292q-14 -14 -35 -14t-34 14q-14 14 -14 33
q0 20 15 35q14 14 34 14q18 0 34 -14q14 -16 14 -34q0 -20 -14 -34zM388 -68q-14 -14 -35 -14t-34 14q-14 13 -14 34q0 20 14 34t34 14q18 0 34 -14q15 -15 15 -35q0 -19 -14 -33zM701 128q-14 -14 -35 -14t-34 14q-14 14 -14 33q0 20 15 35q14 14 33 14q18 0 34 -14
q15 -15 15 -35q0 -19 -14 -33z" />
    <glyph glyph-name="uni2199.salt" horiz-adv-x="872" 
d="M624 394q-14 -14 -35 -14t-34 14q-14 14 -14 34t15 35q14 14 34 14q18 0 34 -14q14 -16 14 -35q0 -20 -14 -34zM419 189q-14 -14 -35 -14t-34 14q-14 14 -14 34t15 35q14 14 34 14q18 0 34 -14q14 -16 14 -35q0 -20 -14 -34zM214 -16q-14 -14 -35 -14t-34 14
q-14 14 -14 34t15 35q14 14 34 14q18 0 34 -14q14 -16 14 -35q0 -20 -14 -34zM358 -42q-14 -14 -35 -14t-34 14q-14 13 -14 34t14 35t34 14q18 0 34 -14q15 -15 15 -35t-14 -34zM162 271q-14 -14 -35 -14t-34 14q-14 13 -14 34t14 35t34 14q18 0 34 -14q15 -15 15 -35
t-14 -34zM501 -68q-14 -14 -35 -14t-34 14q-14 14 -14 33q0 20 15 35q14 14 34 14q18 0 34 -14q14 -16 14 -34q0 -20 -14 -34zM317 87q-14 -14 -35 -14t-34 14q-14 13 -14 34q0 20 14 34t34 14q18 0 34 -14q15 -15 15 -35q0 -19 -14 -33zM727 497q-14 -14 -35 -14t-34 14
q-14 13 -14 34q0 20 14 34t34 14q18 0 34 -14q15 -15 15 -35q0 -19 -14 -33zM522 292q-14 -14 -35 -14t-34 14q-14 13 -14 34q0 20 14 34t34 14q18 0 34 -14q15 -15 15 -35q0 -19 -14 -33zM188 128q-14 -14 -35 -14t-34 14q-14 14 -14 33q0 20 15 35q14 14 33 14
q18 0 34 -14q15 -15 15 -35q0 -19 -14 -33z" />
    <glyph glyph-name="a.sc" horiz-adv-x="528" 
d="M513 0h-92l-54 148h-214l-55 -148h-83l199 533h102zM348 215l-86 256l-87 -256h173z" />
    <glyph glyph-name="b.sc" horiz-adv-x="580" 
d="M505 148q0 -44 -28 -81t-72 -53q-41 -14 -125 -14h-175v532h148q90 0 125 -11q46 -14 73.5 -47t27.5 -75q0 -44 -31 -75t-76 -41q56 -7 94.5 -43.5t38.5 -91.5zM417 154q0 89 -131 89h-102v-176h100q27 0 47 3t41.5 11t33 26.5t11.5 46.5zM390 386q0 77 -116 77h-90v-153
h99q107 0 107 76z" />
    <glyph glyph-name="c.sc" horiz-adv-x="519" 
d="M494 38q-60 -46 -165 -46q-112 0 -183 75.5t-71 194.5t74.5 199.5t184.5 80.5q92 0 150 -43l-42 -55q-50 31 -107 31q-48 0 -87 -23.5t-60 -65.5q-22 -47 -22 -127q0 -54 11 -87t37 -62q49 -53 125 -53q57 0 115 34z" />
    <glyph glyph-name="d.sc" horiz-adv-x="599" 
d="M524 267q0 -62 -18 -112t-45.5 -79t-51.5 -45t-46 -22q-31 -9 -97 -9h-161v532h120q114 0 165 -23q134 -62 134 -242zM435 262q0 100 -42 151.5t-139 51.5h-68v-398h78q171 0 171 195z" />
    <glyph glyph-name="e.sc" horiz-adv-x="485" 
d="M445 0h-340v532h331l-11 -68h-239v-152h200v-68h-199v-173h258v-71z" />
    <glyph glyph-name="f.sc" horiz-adv-x="428" 
d="M423 532l-11 -67h-226v-151h186v-67h-186v-247h-81v532h318z" />
    <glyph glyph-name="g.sc" horiz-adv-x="607" 
d="M512 35q-70 -43 -171 -43q-125 0 -195.5 75t-70.5 201q0 124 66.5 197.5t187.5 73.5q94 0 171 -57l-39 -52q-66 42 -130 42q-94 0 -130.5 -55.5t-36.5 -154.5q0 -136 77 -179q51 -27 106 -27q54 0 86 17v145h-116l-13 69h208v-252z" />
    <glyph glyph-name="h.sc" horiz-adv-x="610" 
d="M505 0h-82v249h-238v-249h-80v532h80v-216h238v216h82v-532z" />
    <glyph glyph-name="i.sc" horiz-adv-x="291" 
d="M186 0h-81v532h81v-532z" />
    <glyph glyph-name="j.sc" horiz-adv-x="285" 
d="M180 88q0 -65 -9 -93q-23 -74 -119 -106l-39 47q48 19 71 57q16 25 16 96v443h80v-444z" />
    <glyph glyph-name="k.sc" horiz-adv-x="519" 
d="M514 0h-106l-220 284l219 248h104l-231 -247zM187 0h-82v532h82v-532z" />
    <glyph glyph-name="l.sc" horiz-adv-x="414" 
d="M419 68l-11 -68h-303v532h81v-464h233z" />
    <glyph glyph-name="m.sc" horiz-adv-x="750" 
d="M670 0h-81l-31 352q-5 59 -5 111q-1 -2 -5.5 -19.5t-11.5 -43.5t-13 -45l-115 -355h-72l-112 356q-13 42 -28 108q0 -2 -1.5 -19t-3 -43.5t-3.5 -45.5l-30 -356h-78l54 532h112l98 -318q5 -17 12 -43.5t12 -47t6 -22.5q19 77 30 110l98 321h117z" />
    <glyph glyph-name="n.sc" horiz-adv-x="613" 
d="M508 0h-85l-171 283q-15 24 -34 61t-31 62l-12 25q7 -80 8 -158l5 -273h-83v532h94l173 -289q16 -26 33.5 -59.5t26.5 -54.5l10 -21q-10 86 -11 156l-3 268h80v-532z" />
    <glyph glyph-name="o.sc" horiz-adv-x="630" 
d="M560 263q0 -127 -59 -199.5t-183 -72.5q-61 0 -101.5 16t-74.5 54q-72 81 -72 207q0 127 65 200.5t177 73.5q124 0 186 -76.5t62 -202.5zM468 253q0 38 -3 67t-13 59.5t-27 50.5t-46.5 32.5t-69.5 12.5q-44 0 -74.5 -15.5t-46 -45t-21.5 -62t-6 -74.5q0 -107 37 -170
q31 -54 122 -54q46 0 76.5 16t45.5 46t20.5 62t5.5 75z" />
    <glyph glyph-name="p.sc" horiz-adv-x="513" 
d="M488 375q0 -76 -57 -125q-29 -25 -61 -35t-86 -10h-99v-205h-80v532h157q65 0 93.5 -5t53.5 -19q79 -46 79 -133zM398 367q0 59 -37 78t-102 19h-74v-192h94q119 0 119 95z" />
    <glyph glyph-name="q.sc" horiz-adv-x="630" 
d="M666 -61l-32 -55q-40 -5 -73 3q-21 5 -103.5 52.5t-112.5 50.5q-9 1 -27 1q-61 0 -101.5 16t-74.5 54q-72 81 -72 207q0 127 65 200.5t177 73.5q119 0 192 -86q56 -66 56 -193q0 -68 -12 -112t-42 -80q-28 -34 -60 -53q39 -14 88.5 -42.5t75.5 -35.5q29 -8 56 -1z
M468 253q0 102 -27 153q-36 69 -132 69q-36 0 -68 -15t-49 -39q-31 -47 -31 -143q0 -113 35.5 -168.5t123.5 -55.5q99 0 129 76q19 48 19 123z" />
    <glyph glyph-name="r.sc" horiz-adv-x="533" 
d="M498 0h-101q-17 33 -48 80q-57 86 -102 126q-27 24 -61 27v-233h-81v532h143q109 0 153 -27q65 -42 65 -120q0 -71 -42.5 -110.5t-118.5 -39.5q15 -8 28 -24l80 -100zM381 381q0 84 -130 84h-65v-175h55q31 0 51 2.5t43 11t34.5 28t11.5 49.5z" />
    <glyph glyph-name="s.sc" horiz-adv-x="539" 
d="M474 157q0 -42 -23 -79t-63 -59q-56 -30 -136 -30q-108 0 -197 49l34 64q81 -45 168 -45q51 0 86 21q41 24 41 66q0 32 -24 53t-79 35l-78 20q-58 15 -93 52.5t-35 85.5q0 69 55.5 112.5t141.5 43.5q115 0 187 -52l-37 -59q-70 43 -146 43q-51 0 -82 -20.5t-31 -55.5
q0 -27 22 -45t72 -31l72 -19q72 -19 107 -54q38 -38 38 -96z" />
    <glyph glyph-name="t.sc" horiz-adv-x="457" 
d="M432 532l-9 -68h-160v-464h-79v464h-159v68h407z" />
    <glyph glyph-name="u.sc" horiz-adv-x="606" 
d="M506 194q0 -66 -9.5 -96.5t-38.5 -57.5q-53 -49 -156 -49q-140 0 -184 91q-18 39 -18 112v338h81v-319q0 -69 7 -89q10 -30 41 -46.5t75 -16.5q73 0 99 37q21 30 21 94v340h82v-338z" />
    <glyph glyph-name="v.sc" horiz-adv-x="479" 
d="M484 532l-207 -534h-79l-203 534h89l117 -309q10 -25 19.5 -58t14.5 -53l5 -21q16 72 37 126l122 315h85z" />
    <glyph glyph-name="w.sc" horiz-adv-x="696" 
d="M691 532l-139 -534h-102l-65 258q-32 125 -36 170q-5 -27 -36 -164l-63 -264h-102l-143 534h88l68 -266q29 -112 36 -179q6 40 39 174l68 271h92l71 -282q31 -127 36 -160q8 55 36 169l68 273h84z" />
    <glyph glyph-name="x.sc" horiz-adv-x="480" 
d="M475 0h-97l-141 227l-134 -227h-98l180 285l-161 247h97l114 -181l108 181h96l-152 -242z" />
    <glyph glyph-name="y.sc" horiz-adv-x="460" 
d="M465 532l-194 -319v-213h-84v214l-192 318h100l106 -188q12 -22 31 -70q17 44 31 69l108 189h94z" />
    <glyph glyph-name="z.sc" horiz-adv-x="470" 
d="M425 68l-21 -68h-359v60l249 356q13 19 46 52q-48 -4 -70 -4h-217l21 68h347v-64l-245 -356q-16 -23 -42 -49q4 0 16.5 1.5t24 2.5t19.5 1h231z" />
    <glyph glyph-name="germandbls.sc" horiz-adv-x="1058" 
d="M993 157q0 -42 -23 -79t-63 -59q-55 -30 -136 -30q-108 0 -197 49l34 64q81 -45 168 -45q52 0 86 21q41 24 41 66q0 32 -24 53t-79 35l-78 20q-58 15 -93 52.5t-35 85.5q0 69 55.5 112.5t141.5 43.5q115 0 187 -52l-37 -59q-70 43 -146 43q-51 0 -82 -20.5t-31 -55.5
q0 -27 22 -45t72 -31l72 -19q72 -19 107 -54q38 -38 38 -96zM474 157q0 -42 -23 -79t-63 -59q-56 -30 -136 -30q-108 0 -197 49l34 64q81 -45 168 -45q51 0 86 21q41 24 41 66q0 32 -24 53t-79 35l-78 20q-58 15 -93 52.5t-35 85.5q0 69 55.5 112.5t141.5 43.5
q115 0 187 -52l-37 -59q-70 43 -146 43q-51 0 -82 -20.5t-31 -55.5q0 -27 22 -45t72 -31l72 -19q72 -19 107 -54q38 -38 38 -96z" />
    <glyph glyph-name="agrave.sc" horiz-adv-x="528" 
d="M518 0h-92l-54 148h-214l-55 -148h-83l199 533h102zM353 215l-86 256l-87 -256h173zM348 612l-26 -47l-224 100l43 77z" />
    <glyph glyph-name="aacute.sc" horiz-adv-x="528" 
d="M518 0h-92l-54 148h-214l-55 -148h-83l199 533h102zM353 215l-86 256l-87 -256h173zM442 665l-224 -100l-26 47l207 130z" />
    <glyph glyph-name="acircumflex.sc" horiz-adv-x="528" 
d="M518 0h-92l-54 148h-214l-55 -148h-83l199 533h102zM353 215l-86 256l-87 -256h173zM442 605l-36 -44l-139 85l-135 -85l-31 44l170 135z" />
    <glyph glyph-name="atilde.sc" horiz-adv-x="528" 
d="M518 0h-92l-54 148h-214l-55 -148h-83l199 533h102zM353 215l-86 256l-87 -256h173zM440 656q-27 -33 -53 -48t-68 -15q-31 0 -64.5 18.5t-62.5 18.5q-22 0 -35.5 -9t-33.5 -30l-28 45q27 34 52.5 48.5t67.5 14.5q31 0 64.5 -18.5t62.5 -18.5q22 0 36.5 9.5t33.5 29.5z
" />
    <glyph glyph-name="adieresis.sc" horiz-adv-x="528" 
d="M518 0h-92l-54 148h-214l-55 -148h-83l199 533h102zM353 215l-86 256l-87 -256h173zM218 621q0 -22 -14.5 -37.5t-36.5 -15.5t-37 15.5t-15 37.5q0 21 15 36t36 15q22 0 37 -15t15 -36zM424 621q0 -22 -14.5 -37.5t-36.5 -15.5t-37 15.5t-15 37.5q0 21 15 36t36 15
q22 0 37 -15t15 -36z" />
    <glyph glyph-name="aring.sc" horiz-adv-x="528" 
d="M518 0h-92l-54 148h-214l-55 -148h-83l199 533h102zM353 215l-86 256l-87 -256h173zM374 659q0 -44 -30.5 -75t-73.5 -31q-44 0 -75 31.5t-31 74.5q0 44 30.5 75t73.5 31t74.5 -31.5t31.5 -74.5zM329 659q0 24 -18.5 42t-43.5 18q-23 0 -40 -18t-17 -42t18 -42t42 -18
q23 0 41 18t18 42z" />
    <glyph glyph-name="ae.sc" horiz-adv-x="743" 
d="M703 0h-341v148h-195l-95 -148h-87l339 530h369l-11 -68h-238v-151h199v-68h-198v-172h258v-71zM362 215v250l-154 -250h154z" />
    <glyph glyph-name="ccedilla.sc" horiz-adv-x="519" 
d="M494 38q-60 -46 -163 -46l-9 -34q65 -9 65 -72q0 -32 -26.5 -57.5t-71.5 -25.5q-38 0 -82 24l21 47q35 -16 61 -16q14 0 25 8t11 22t-11.5 21.5t-26.5 7.5q-16 0 -26 -2l-9 10l19 73q-89 19 -142.5 90.5t-53.5 173.5q0 119 74.5 199.5t184.5 80.5q92 0 150 -43l-42 -55
q-50 31 -107 31q-48 0 -87 -23.5t-60 -65.5q-22 -47 -22 -127q0 -54 11 -87t37 -62q49 -53 125 -53q57 0 115 34z" />
    <glyph glyph-name="egrave.sc" horiz-adv-x="485" 
d="M450 0h-340v532h331l-11 -68h-239v-152h200v-68h-199v-173h258v-71zM387 612l-26 -47l-224 100l43 77z" />
    <glyph glyph-name="eacute.sc" horiz-adv-x="485" 
d="M450 0h-340v532h331l-11 -68h-239v-152h200v-68h-199v-173h258v-71zM411 665l-224 -100l-26 47l207 130z" />
    <glyph glyph-name="ecircumflex.sc" horiz-adv-x="485" 
d="M450 0h-340v532h331l-11 -68h-239v-152h200v-68h-199v-173h258v-71zM445 605l-36 -44l-139 85l-135 -85l-31 44l170 135z" />
    <glyph glyph-name="edieresis.sc" horiz-adv-x="485" 
d="M450 0h-340v532h331l-11 -68h-239v-152h200v-68h-199v-173h258v-71zM222 621q0 -22 -14.5 -37.5t-36.5 -15.5t-37 15.5t-15 37.5q0 21 15 36t36 15q22 0 37 -15t15 -36zM429 621q0 -22 -14.5 -37.5t-36.5 -15.5t-37 15.5t-15 37.5q0 21 15 36t36 15q22 0 37 -15t15 -36z
" />
    <glyph glyph-name="igrave.sc" horiz-adv-x="291" 
d="M191 0h-81v532h81v-532zM219 612l-26 -47l-224 100l43 77z" />
    <glyph glyph-name="iacute.sc" horiz-adv-x="291" 
d="M191 0h-81v532h81v-532zM329 665l-224 -100l-26 47l207 130z" />
    <glyph glyph-name="icircumflex.sc" horiz-adv-x="291" 
d="M191 0h-81v532h81v-532zM321 605l-36 -44l-139 85l-135 -85l-31 44l170 135z" />
    <glyph glyph-name="idieresis.sc" horiz-adv-x="291" 
d="M191 0h-81v532h81v-532zM102 621q0 -22 -14.5 -37.5t-36.5 -15.5t-37 15.5t-15 37.5q0 21 15 36t36 15q22 0 37 -15t15 -36zM300 621q0 -22 -14.5 -37.5t-36.5 -15.5t-37 15.5t-15 37.5q0 21 15 36t36 15q22 0 37 -15t15 -36z" />
    <glyph glyph-name="eth.sc" horiz-adv-x="599" 
d="M524 267q0 -62 -18 -112t-45.5 -79t-51.5 -45t-46 -22q-31 -9 -97 -9h-161v243h-74v59h74v230h120q114 0 165 -23q134 -62 134 -242zM435 262q0 100 -42 151.5t-139 51.5h-68v-163h160l-24 -59h-136v-176h78q171 0 171 195z" />
    </font>
</defs>
</svg>
