<?xml version="1.0" standalone="no"?>
<!DOCTYPE svg PUBLIC "-//W3C//DTD SVG 1.1//EN" "http://www.w3.org/Graphics/SVG/1.1/DTD/svg11.dtd" >
<svg xmlns="http://www.w3.org/2000/svg" xmlns:xlink="http://www.w3.org/1999/xlink" version="1.1">
<metadata>
Created by FontForge 20170731 at Tue Dec 13 19:51:12 2005
 By ,,,
2005 Erik Spiekermann published by FSI Fonts und Software GmbH
</metadata>
<defs>
<font id="MetaPro-Black" horiz-adv-x="545" >
  <font-face 
    font-family="MetaPro-Black"
    font-weight="900"
    font-stretch="normal"
    units-per-em="1000"
    panose-1="2 0 5 3 5 0 0 2 0 4"
    ascent="754"
    descent="-246"
    x-height="516"
    cap-height="697"
    bbox="-237 -347 1499 969"
    underline-thickness="20"
    underline-position="-182"
    unicode-range="U+000D-FB06"
  />
<missing-glyph horiz-adv-x="578" 
d="M49 0v697h480v-697h-480zM99 50h380v597h-380v-597z" />
    <glyph glyph-name="IJ" unicode="IJ" horiz-adv-x="608" 
d="M243 0h-183v697h183v-697zM548 47q0 -85 -56 -146.5t-137 -90.5l-82 88q62 42 77 83.5t15 141.5v574h183v-650z" />
    <glyph glyph-name="ij" unicode="ij" horiz-adv-x="588" 
d="M528 17q0 -109 -33.5 -160.5t-128.5 -91.5l-69 90q31 25 44 58t13 92v503l174 16v-507zM536 652q0 -41 -29.5 -69.5t-71.5 -28.5q-41 0 -70 29t-29 69t30 69t72 29q41 0 69.5 -28.5t28.5 -69.5zM234 0h-174v508l174 16v-524zM247 652q0 -41 -29.5 -69.5t-71.5 -28.5
q-41 0 -70 29t-29 69t30 69t72 29q41 0 69.5 -28.5t28.5 -69.5z" />
    <glyph glyph-name="uniFB00" unicode="ff" horiz-adv-x="669" 
d="M694 714l-52 -105q-26 12 -49 12q-16 0 -28 -10t-12 -27v-68h123l-40 -114h-83v-402h-174v402h-140v-402h-174v402h-44v114h44q-3 18 -3 62q0 43 13 74.5t31.5 49t44.5 27.5t47 13t44 3q72 0 125 -25l-42 -109q-23 10 -46 10q-16 0 -28 -10t-12 -27v-68h140q-3 18 -3 62
q0 43 13 74.5t31.5 49t44.5 27.5t47 13t44 3q77 0 138 -31z" />
    <glyph glyph-name="fi" unicode="fi" horiz-adv-x="618" 
d="M553 0h-174v402h-140v-402h-174v402h-44v114h44q-3 18 -3 62q0 43 13 74.5t31.5 49t44.5 27.5t47 13t44 3q57 0 99 -14l-18 -119q-19 9 -44 9q-16 0 -28 -10t-12 -27v-68h314v-516zM566 647q0 -41 -29.5 -69.5t-71.5 -28.5q-41 0 -70 29t-29 69t30 69t72 29
q41 0 69.5 -28.5t28.5 -69.5z" />
    <glyph glyph-name="fl" unicode="fl" horiz-adv-x="634" 
d="M366 721l-43 -110q-23 10 -44 10q-16 0 -28 -10t-12 -27v-68h109l-23 -114h-86v-402h-174v402h-44v114h44q-3 18 -3 62q0 43 13 74.5t31.5 49t44.5 27.5t47 13t44 3q71 0 124 -24zM647 3q-44 -16 -114 -16q-43 0 -72 9.5t-44.5 23t-23 40t-9 47t-1.5 59.5v352
q0 155 -6 189l177 42q5 -34 5 -143v-391q0 -72 7 -93.5t35 -21.5q9 0 18 3z" />
    <glyph glyph-name="uniFB03" unicode="ffi" horiz-adv-x="932" 
d="M867 0h-174v402h-140v-402h-174v402h-140v-402h-174v402h-44v114h44q-3 18 -3 62q0 43 13 74.5t31.5 49t44.5 27.5t47 13t44 3q72 0 125 -25l-42 -109q-23 10 -46 10q-16 0 -28 -10t-12 -27v-68h140q-3 18 -3 62q0 43 13 74.5t31.5 49t44.5 27.5t47 13t44 3q57 0 99 -14
l-18 -119q-19 9 -44 9q-16 0 -28 -10t-12 -27v-68h314v-516zM880 647q0 -41 -29.5 -69.5t-71.5 -28.5q-41 0 -70 29t-29 69t30 69t72 29q41 0 69.5 -28.5t28.5 -69.5z" />
    <glyph glyph-name="uniFB04" unicode="ffl" horiz-adv-x="956" 
d="M688 721l-43 -110q-23 10 -44 10q-16 0 -28 -10t-12 -27v-68h109l-23 -114h-86v-402h-174v402h-140v-402h-174v402h-44v114h44q-3 18 -3 62q0 43 13 74.5t31.5 49t44.5 27.5t47 13t44 3q72 0 125 -25l-42 -109q-23 10 -46 10q-16 0 -28 -10t-12 -27v-68h140q-3 18 -3 62
q0 43 13 74.5t31.5 49t44.5 27.5t47 13t44 3q71 0 124 -24zM969 3q-44 -16 -114 -16q-43 0 -72 9.5t-44.5 23t-23 40t-9 47t-1.5 59.5v352q0 155 -6 189l177 42q5 -34 5 -143v-391q0 -72 7 -93.5t35 -21.5q9 0 18 3z" />
    <glyph glyph-name=".notdef" horiz-adv-x="578" 
d="M49 0v697h480v-697h-480zM99 50h380v597h-380v-597z" />
    <glyph glyph-name=".null" horiz-adv-x="0" 
 />
    <glyph glyph-name=".null" horiz-adv-x="0" 
 />
    <glyph glyph-name="nonmarkingreturn" horiz-adv-x="333" 
 />
    <glyph glyph-name="CR" unicode="&#xd;" horiz-adv-x="225" 
 />
    <glyph glyph-name="space" unicode=" " horiz-adv-x="225" 
 />
    <glyph glyph-name="exclam" unicode="!" horiz-adv-x="332" 
d="M267 717l-34 -512h-130l-38 483zM265 79q0 -40 -29.5 -68t-70.5 -28q-39 0 -66.5 28.5t-27.5 68.5t28.5 69t69.5 29q39 0 67.5 -29t28.5 -70z" />
    <glyph glyph-name="quotedbl" unicode="&#x22;" horiz-adv-x="502" 
d="M208 398h-163v310h163v-310zM457 398h-162v310h162v-310z" />
    <glyph glyph-name="numbersign" unicode="#" horiz-adv-x="556" 
d="M531 410h-88l-15 -111h75v-106h-88l-27 -193h-117l27 193h-81l-27 -193h-117l27 193h-75v106h88l15 111h-75v106h88l25 181h117l-24 -181h80l25 181h117l-24 -181h74v-106zM325 410h-81l-14 -111h81z" />
    <glyph glyph-name="dollar" unicode="$" horiz-adv-x="622" 
d="M587 243q0 -111 -68.5 -176t-186.5 -77v-74h-106v75q-105 9 -201 60l63 140q97 -56 196 -56q98 0 98 64q0 23 -16.5 35.5t-53.5 21.5l-82 21q-170 44 -170 202q0 89 59 150t155 76v83h106v-81q121 -11 199 -66l-86 -127q-74 49 -157 49q-33 0 -52 -14t-19 -36
q0 -42 68 -59l71 -18q28 -7 48.5 -14t48 -22t44.5 -34t29.5 -51t12.5 -72z" />
    <glyph glyph-name="percent" unicode="%" horiz-adv-x="839" 
d="M710 697l-424 -697h-162l424 697h162zM814 166q0 -80 -48.5 -129.5t-130.5 -49.5q-81 0 -128 44t-47 128q0 76 51 126t128 50q80 0 127.5 -43t47.5 -126zM379 541q0 -80 -48.5 -129.5t-130.5 -49.5q-81 0 -128 44t-47 128q0 76 51 126t128 50q80 0 127.5 -43t47.5 -126z
M676 164q0 47 -8.5 66t-30.5 19q-24 0 -31.5 -18.5t-7.5 -71.5q0 -49 8 -66.5t31 -17.5q22 0 30.5 19t8.5 70zM241 539q0 47 -8.5 66t-30.5 19q-24 0 -31.5 -18.5t-7.5 -71.5q0 -49 8 -66.5t31 -17.5q22 0 30.5 19t8.5 70z" />
    <glyph glyph-name="ampersand" unicode="&#x26;" horiz-adv-x="732" 
d="M727 0h-230l-35 36q-77 -49 -196 -49q-103 0 -167 49.5t-64 141.5q0 119 120 173q-77 49 -77 147q0 78 61 126.5t161 48.5q97 0 156.5 -46t59.5 -115q0 -55 -28.5 -93.5t-102.5 -74.5l100 -100q25 38 43 96l138 -40q-25 -87 -80 -158zM369 129l-125 127q-24 -26 -24 -60
q0 -35 22 -59t62 -24q36 0 65 16zM339 508q0 21 -10.5 34t-27.5 13q-22 0 -32.5 -14t-10.5 -33q0 -25 19 -49l21 -25q16 10 28.5 30.5t12.5 43.5z" />
    <glyph glyph-name="quotesingle" unicode="'" horiz-adv-x="252" 
d="M207 398h-162v310h162v-310z" />
    <glyph glyph-name="parenleft" unicode="(" horiz-adv-x="337" 
d="M352 -75l-44 -103q-43 13 -79.5 34t-62.5 44t-47 53.5t-34.5 58.5t-23 63t-14.5 61.5t-8 61t-3.5 55t-0.5 48.5q0 67 6.5 121.5t24 111t47 101t78 84.5t114.5 69l46 -106q-26 -20 -38.5 -30.5t-36.5 -40.5t-35.5 -63.5t-21.5 -91.5t-10 -131q0 -135 18 -217t46.5 -118.5
t78.5 -64.5z" />
    <glyph glyph-name="parenright" unicode=")" horiz-adv-x="336" 
d="M301 332q0 -101 -11.5 -174t-41 -138t-83.5 -113t-136 -85l-44 107q41 31 67.5 63.5t42 63.5t23 77.5t9.5 86.5t2 111q0 146 -31 228.5t-111 125.5l44 104q29 -12 42 -18t41 -20.5t42 -26t37.5 -33t36 -43.5t28.5 -55t24 -70t13.5 -86t5.5 -105z" />
    <glyph glyph-name="asterisk" unicode="*" horiz-adv-x="505" 
d="M480 499l-124 -38l79 -111l-106 -76l-80 109l-78 -102l-102 77l83 103l-127 45l40 120l124 -47v131h130v-131l124 40z" />
    <glyph glyph-name="plus" unicode="+" horiz-adv-x="719" 
d="M674 262h-233v-238h-163v238h-233v158h233v234h163v-234h233v-158z" />
    <glyph glyph-name="comma" unicode="," horiz-adv-x="302" 
d="M257 41q0 -70 -42 -125q-42 -52 -110 -68l-70 64q33 7 52 21.5t19 30.5q0 11 -3.5 16.5t-14 13t-16.5 13.5q-28 29 -28 75q0 40 28.5 67.5t69.5 27.5q54 0 84.5 -36t30.5 -100z" />
    <glyph glyph-name="hyphen" unicode="-" horiz-adv-x="363" 
d="M318 207h-273v143h273v-143z" />
    <glyph glyph-name="period" unicode="." horiz-adv-x="295" 
d="M250 85q0 -43 -30.5 -73t-72.5 -30t-72 30t-30 73q0 41 30 71t72 30t72.5 -30t30.5 -71z" />
    <glyph glyph-name="slash" unicode="/" horiz-adv-x="467" 
d="M432 769l-274 -927h-123l274 927h123z" />
    <glyph glyph-name="zero" unicode="0" horiz-adv-x="564" 
d="M529 264q0 -120 -70 -198.5t-179 -78.5q-110 0 -177.5 75.5t-67.5 195.5t69.5 196.5t178.5 76.5q111 0 178.5 -73.5t67.5 -193.5zM337 268q0 142 -53 142q-35 0 -46.5 -40t-11.5 -116q0 -145 54 -145q35 0 46 41t11 118z" />
    <glyph glyph-name="one" unicode="1" horiz-adv-x="439" 
d="M409 0h-353v130h119v208q-75 -43 -110 -54l-45 92l208 156h110v-402h71v-130z" />
    <glyph glyph-name="two" unicode="2" horiz-adv-x="583" 
d="M538 145l-38 -145h-441v146q148 72 196 103q75 52 76 90q0 26 -18 40t-44 14q-51 0 -121 -63l-113 102q64 53 125.5 78t139.5 25q106 0 164 -48t58 -124q0 -87 -49 -132t-169 -94q32 6 93 6z" />
    <glyph glyph-name="three" unicode="3" 
d="M510 49q0 -104 -101 -169t-260 -65q-51 0 -94 5l-30 133q33 -6 62 -6q219 0 219 121q0 57 -75 63q-32 2 -96 -5v147q35 -5 68 -5q57 1 78.5 17.5t21.5 56.5q0 22 -17 36t-45 14q-82 0 -134 -54l-77 124q99 73 231 73q104 0 169 -49.5t65 -131.5q0 -110 -91 -153
q51 -14 78.5 -55.5t27.5 -96.5z" />
    <glyph glyph-name="four" unicode="4" horiz-adv-x="563" 
d="M543 0h-36q-15 0 -21 2q2 -8 2 -40v-141l-175 -12v171q0 15 2 24q-7 -4 -31 -4h-264v111l176 418h173l-121 -297q-25 -62 -45 -82q3 1 23 1h75q10 0 13 -1q-1 3 -1 12q0 60 10 130l9 63l156 23v-132q0 -51 -5 -96h60v-150z" />
    <glyph glyph-name="five" unicode="5" horiz-adv-x="529" 
d="M484 85q0 -116 -91.5 -193t-241.5 -77q-37 0 -77 7l-39 135q50 -11 107 -11q72 0 114.5 33t42.5 89q0 39 -27 60t-79 21q-64 0 -133 -19l30 396h372l-26 -151h-184l-11 -95q20 3 48 3q84 0 139.5 -57t55.5 -141z" />
    <glyph glyph-name="six" unicode="6" horiz-adv-x="595" 
d="M560 217q0 -100 -72 -167.5t-182 -67.5q-128 0 -199.5 72t-71.5 201q0 163 107.5 292t319.5 184l36 -127q-106 -35 -163 -76.5t-80 -110.5q27 20 92 20q99 0 156 -60.5t57 -159.5zM384 215q0 36 -17 59t-51 23q-36 0 -83 -20q-3 -20 -3 -66q0 -21 4 -40t22.5 -38
t49.5 -19q35 0 56.5 27.5t21.5 73.5z" />
    <glyph glyph-name="seven" unicode="7" horiz-adv-x="472" 
d="M457 526l-15 -142q0 -1 -21.5 -36t-41 -69.5t-47.5 -92t-48 -110.5t-34.5 -118t-15.5 -121l-189 -45q8 101 31 193.5t61.5 175.5t57 117.5t56.5 98.5q-9 -3 -26 -3h-210l20 152h422z" />
    <glyph glyph-name="eight" unicode="8" horiz-adv-x="629" 
d="M594 192q0 -98 -78 -151.5t-217 -53.5q-74 0 -128 17.5t-82.5 47t-41 62t-12.5 68.5q0 57 26.5 99t76.5 60q-38 16 -62 53t-24 93q0 88 73.5 143t185.5 55q115 0 185.5 -48.5t70.5 -136.5q0 -55 -34.5 -93t-90.5 -48q152 -40 152 -167zM398 173q0 27 -13.5 43.5
t-48.5 29.5l-69 25q-36 -22 -36 -78q0 -38 23.5 -58.5t65.5 -20.5q35 0 56.5 15.5t21.5 43.5zM369 503q0 56 -68 56q-33 0 -52 -15.5t-19 -42.5t16 -40t62 -30q61 28 61 72z" />
    <glyph glyph-name="nine" unicode="9" horiz-adv-x="580" 
d="M545 272q0 -95 -23 -168t-72 -129t-114.5 -97.5t-160.5 -80.5l-90 106q99 31 161.5 85.5t77.5 94.5q-32 -16 -70 -16q-96 0 -157.5 59t-61.5 173q0 106 72.5 173.5t192.5 67.5t182.5 -71t62.5 -197zM355 294q0 108 -65 108q-71 0 -71 -98q0 -42 24 -69.5t62 -27.5
q27 0 44 12q6 24 6 75z" />
    <glyph glyph-name="colon" unicode=":" horiz-adv-x="315" 
d="M260 368q0 -43 -30.5 -73t-72.5 -30t-72 30t-30 73q0 41 30 71t72 30t72.5 -30t30.5 -71zM260 85q0 -43 -30.5 -73t-72.5 -30t-72 30t-30 73q0 41 30 71t72 30t72.5 -30t30.5 -71z" />
    <glyph glyph-name="semicolon" unicode=";" horiz-adv-x="332" 
d="M277 41q0 -70 -42 -125q-42 -52 -110 -68l-70 64q33 7 52 21.5t19 30.5q0 11 -3.5 16.5t-14 13t-16.5 13.5q-28 29 -28 75q0 40 28.5 67.5t69.5 27.5q54 0 84.5 -36t30.5 -100zM271 368q0 -43 -30.5 -73t-72.5 -30t-72 30t-30 73q0 41 30 71t72 30t72.5 -30t30.5 -71z
" />
    <glyph glyph-name="less" unicode="&#x3c;" horiz-adv-x="456" 
d="M411 78l-125 -90l-241 311l241 311l125 -92l-168 -219z" />
    <glyph glyph-name="equal" unicode="=" horiz-adv-x="656" 
d="M611 333h-566v162h566v-162zM611 111h-566v162h566v-162z" />
    <glyph glyph-name="greater" unicode="&#x3e;" horiz-adv-x="456" 
d="M411 299l-241 -311l-125 90l168 221l-168 219l125 92z" />
    <glyph glyph-name="question" unicode="?" horiz-adv-x="506" 
d="M451 540q0 -105 -91 -159q-51 -31 -69 -65.5t-18 -88.5v-22h-146q-6 33 -6 61q0 106 95 174q34 24 46.5 39.5t12.5 36.5q0 52 -68 52q-57 0 -95 -44l-77 107q86 81 202 81q91 0 152.5 -45t61.5 -127zM305 79q0 -40 -29.5 -68t-70.5 -28q-39 0 -66.5 28.5t-27.5 68.5
t28.5 69t69.5 29q39 0 67.5 -29t28.5 -70z" />
    <glyph glyph-name="at" unicode="@" horiz-adv-x="901" 
d="M866 275q0 -129 -69 -213.5t-168 -84.5q-62 0 -88.5 21t-33.5 57q-63 -63 -140 -63q-66 0 -103.5 40.5t-37.5 115.5q0 131 78 222.5t213 91.5q60 0 151 -48q-14 -44 -25 -94l-37 -172q-5 -25 -5 -38q0 -35 31 -35q39 0 67.5 54.5t28.5 145.5q0 122 -72.5 190t-196.5 68
q-115 0 -200 -101t-85 -240q0 -138 74.5 -210.5t192.5 -72.5q71 0 151 25l23 -102q-95 -31 -174 -31q-181 0 -293.5 102t-112.5 289q0 188 121 318t303 130q172 0 289.5 -103t117.5 -262zM532 362h-2q-12 4 -22 4q-76 0 -114 -65t-38 -157q0 -52 32 -52q30 0 63.5 30
t45.5 82z" />
    <glyph glyph-name="A" unicode="A" horiz-adv-x="607" 
d="M614 0h-194l-36 134h-165l-38 -134h-188l224 697h186zM348 272l-30 127q-11 46 -13 94q-3 -33 -19 -107l-28 -114h90z" />
    <glyph glyph-name="B" unicode="B" horiz-adv-x="617" 
d="M582 215q0 -99 -59 -157t-175 -58h-283v697h309q83 0 133 -40.5t50 -130.5q0 -53 -24.5 -95t-78.5 -59q55 -14 91.5 -55.5t36.5 -101.5zM376 221q0 66 -66 66h-66v-138h68q64 0 64 72zM373 495q0 55 -60 55h-69v-121h71q58 0 58 66z" />
    <glyph glyph-name="C" unicode="C" horiz-adv-x="565" 
d="M560 59q-76 -71 -217 -71q-140 0 -228 96q-80 89 -80 251q0 127 48 216q86 158 282 158q54 0 104 -14t74 -37l-76 -132q-48 37 -104 37q-52 0 -78 -27q-26 -26 -35.5 -59t-9.5 -94q0 -92 6.5 -136t27.5 -68q37 -44 89 -44q69 0 120 46z" />
    <glyph glyph-name="D" unicode="D" horiz-adv-x="626" 
d="M591 361q0 -183 -79 -277q-70 -84 -194 -84h-253v697h246q104 0 166 -43q114 -79 114 -293zM394 367q0 59 -7 97t-21 56t-29 24t-38 6h-55v-401h60q21 0 35.5 7.5t28 29t20 66.5t6.5 115z" />
    <glyph glyph-name="E" unicode="E" horiz-adv-x="508" 
d="M483 0h-418v697h405l-13 -147h-213v-117h174v-142h-174v-142h239v-149z" />
    <glyph glyph-name="F" unicode="F" horiz-adv-x="444" 
d="M449 697l-13 -147h-193v-117h157v-142h-156v-291h-179v697h384z" />
    <glyph glyph-name="G" unicode="G" horiz-adv-x="667" 
d="M612 620l-99 -111q-55 54 -142 54q-70 0 -101 -52t-31 -169q0 -207 124 -207q41 0 65 10v110h-85l-20 142h284v-340q-113 -69 -251 -69q-169 0 -255 119q-66 93 -66 228q0 114 45 203.5t130 133.5q69 36 159 36q141 0 243 -88z" />
    <glyph glyph-name="H" unicode="H" horiz-adv-x="631" 
d="M566 0h-179v293h-143v-293h-179v697h179v-256h143v256h179v-697z" />
    <glyph glyph-name="I" unicode="I" horiz-adv-x="313" 
d="M248 0h-183v697h183v-697z" />
    <glyph glyph-name="J" unicode="J" horiz-adv-x="315" 
d="M250 47q0 -85 -56 -146.5t-137 -90.5l-82 88q62 42 77 83.5t15 141.5v574h183v-650z" />
    <glyph glyph-name="K" unicode="K" horiz-adv-x="642" 
d="M657 0h-236l-175 375l154 322h222l-183 -319zM244 0h-179v697h179v-697z" />
    <glyph glyph-name="L" unicode="L" horiz-adv-x="488" 
d="M483 148l-34 -148h-384v697h181v-549h237z" />
    <glyph glyph-name="M" unicode="M" horiz-adv-x="863" 
d="M808 0h-174l-17 281q-5 73 -5 140h-1q-13 -92 -24 -131l-85 -290h-152l-74 282q-17 67 -23 140h-1q0 -78 -3 -144l-14 -278h-180l68 697h219l68 -276q15 -59 23 -132h1q8 74 27 142l71 266h212z" />
    <glyph glyph-name="N" unicode="N" horiz-adv-x="651" 
d="M586 0h-184l-123 242q-31 62 -54 131q10 -68 10 -177v-196h-170v697h172l127 -239q30 -55 58 -133q-6 49 -6 156v216h170v-697z" />
    <glyph glyph-name="O" unicode="O" horiz-adv-x="696" 
d="M661 375q0 -387 -312 -387q-150 0 -232 92t-82 251q0 181 88.5 279.5t231.5 98.5q85 0 147 -30t95.5 -80.5t48.5 -106t15 -117.5zM461 353q0 126 -25.5 171t-85.5 45q-115 0 -115 -218q0 -127 28.5 -174.5t88.5 -47.5q59 0 84 47t25 177z" />
    <glyph glyph-name="P" unicode="P" horiz-adv-x="588" 
d="M573 480q0 -44 -11.5 -81t-39 -73t-84.5 -57t-138 -21h-56v-248h-179v697h227q138 0 209.5 -51t71.5 -166zM378 481q0 41 -18 55t-54 14h-62v-160h52q45 0 63.5 18.5t18.5 72.5z" />
    <glyph glyph-name="Q" unicode="Q" horiz-adv-x="696" 
d="M718 -17l-44 -115q-13 -2 -46 -2q-51 0 -92 23t-84 54.5t-88 44.5q-167 0 -248 92.5t-81 263.5q0 172 89 268.5t231 96.5q148 0 227 -89t79 -245q0 -247 -129 -334q16 -3 63.5 -30.5t92.5 -27.5h30zM461 353q0 126 -25.5 171t-85.5 45q-115 0 -115 -218
q0 -127 28.5 -174.5t88.5 -47.5q59 0 84 47t25 177z" />
    <glyph glyph-name="R" unicode="R" horiz-adv-x="616" 
d="M606 0h-207l-73 195q-19 52 -35 66.5t-47 14.5v-276h-179v697h240q271 0 271 -199q0 -86 -40 -135t-105 -60q18 -5 37.5 -26.5t32.5 -48.5q43 -88 105 -228zM377 484q0 36 -20 51t-63 15h-50v-142h51q82 0 82 76z" />
    <glyph glyph-name="S" unicode="S" horiz-adv-x="627" 
d="M592 243q0 -122 -83 -188.5t-222 -66.5q-138 0 -257 63l63 140q97 -56 196 -56q98 0 98 64q0 23 -16.5 35.5t-53.5 21.5l-82 21q-170 44 -170 202q0 103 76 166.5t194 63.5q151 0 249 -68l-86 -127q-74 49 -157 49q-33 0 -52 -14t-19 -36q0 -42 68 -59l71 -18
q28 -7 48.5 -14t48 -22t44.5 -34t29.5 -51t12.5 -72z" />
    <glyph glyph-name="T" unicode="T" horiz-adv-x="526" 
d="M541 697l-21 -148h-162v-549h-181v549h-162v148h526z" />
    <glyph glyph-name="U" unicode="U" horiz-adv-x="644" 
d="M584 215q0 -81 -17 -115q-25 -48 -86.5 -80t-158.5 -32q-166 0 -228 87q-21 29 -27.5 55t-6.5 93v474h180v-455q0 -107 83 -107q46 0 64 25t18 79v458h179v-482z" />
    <glyph glyph-name="V" unicode="V" horiz-adv-x="614" 
d="M629 697l-246 -697h-161l-237 697h197l88 -287q24 -78 33 -131h1q14 74 37 136l99 282h189z" />
    <glyph glyph-name="W" unicode="W" horiz-adv-x="878" 
d="M878 697l-181 -697h-191l-36 202q-30 167 -34 229h-1q-4 -68 -34 -229l-37 -202h-195l-169 697h189l39 -188q37 -174 40 -261h1q8 108 35 256l36 193h199l45 -233q24 -126 28 -215h1q8 125 39 275l35 173h191z" />
    <glyph glyph-name="X" unicode="X" horiz-adv-x="594" 
d="M609 0h-217l-89 196l-91 -196h-227l217 362l-195 335h221l74 -169l73 169h215l-188 -324z" />
    <glyph glyph-name="Y" unicode="Y" horiz-adv-x="571" 
d="M596 697l-223 -402v-295h-183v291l-215 406h214l61 -148q17 -43 35 -97q4 11 12 30.5t14 35t11 28.5l61 151h213z" />
    <glyph glyph-name="Z" unicode="Z" horiz-adv-x="550" 
d="M520 149l-14 -149h-476v122l231 374q29 49 40 59q-19 -5 -69 -5h-181l13 147h452v-125l-240 -392q-12 -20 -32 -37q24 6 76 6h200z" />
    <glyph glyph-name="bracketleft" unicode="[" horiz-adv-x="320" 
d="M305 -156h-240v888h240v-110h-88v-668h88v-110z" />
    <glyph glyph-name="backslash" unicode="\" horiz-adv-x="453" 
d="M448 -14l-144 -50l-299 786l145 50z" />
    <glyph glyph-name="bracketright" unicode="]" horiz-adv-x="321" 
d="M256 -156h-241v110h88v668h-88v110h241v-888z" />
    <glyph glyph-name="asciicircum" unicode="^" horiz-adv-x="636" 
d="M571 389h-188l-65 163l-67 -163h-186l151 319h204z" />
    <glyph glyph-name="underscore" unicode="_" horiz-adv-x="510" 
d="M505 -125h-500v50h500v-50z" />
    <glyph glyph-name="grave" unicode="`" horiz-adv-x="335" 
d="M310 630l-51 -88l-234 96l66 113z" />
    <glyph glyph-name="a" unicode="a" horiz-adv-x="526" 
d="M500 76l-100 -97q-18 6 -38 22t-26 29q-51 -43 -129 -43q-91 0 -134 46.5t-43 121.5t61.5 121.5t167.5 46.5q24 0 29 -1v32q0 26 -8 37t-34 11q-75 0 -147 -54l-63 108q120 73 232 73q74 0 123 -24.5t63 -69.5q8 -26 8 -80l-2 -178q0 -38 7.5 -61.5t32.5 -39.5zM288 124
v90h-7q-82 0 -82 -57q0 -23 13 -36.5t35 -13.5q28 0 41 17z" />
    <glyph glyph-name="b" unicode="b" horiz-adv-x="564" 
d="M529 271q0 -166 -100 -244q-51 -40 -115 -40t-102 45q-2 -19 -10 -32h-149q12 26 12 99v463q0 90 -13 143l176 30q11 -55 11 -99v-79q0 -46 -4 -57q33 29 91 29q93 0 148 -66t55 -192zM343 262q0 73 -14 100t-45 27q-26 0 -45 -25v-216q19 -17 43 -17q33 0 47 29.5
t14 101.5z" />
    <glyph glyph-name="c" unicode="c" horiz-adv-x="469" 
d="M454 60q-73 -73 -185 -73q-110 0 -172 68.5t-62 197.5q0 130 65.5 203t181.5 73q85 0 159 -61l-80 -105q-36 38 -73 38q-33 0 -48 -28t-15 -109q0 -82 12.5 -115t48.5 -33q54 0 95 46z" />
    <glyph glyph-name="d" unicode="d" horiz-adv-x="559" 
d="M513 0h-151q-6 15 -8 31q-38 -44 -112 -44q-99 0 -153 69t-54 192q0 121 56.5 201t165.5 80q41 0 69 -18q-6 30 -6 82v139l174 -23v-504q0 -96 4 -135t15 -70zM320 135v240q-9 20 -37 20q-34 0 -46.5 -31.5t-12.5 -118.5q0 -63 11.5 -95t46.5 -32q27 0 38 17z" />
    <glyph glyph-name="e" unicode="e" horiz-adv-x="533" 
d="M503 203h-288q0 -21 5 -39.5t25 -36.5t53 -18q69 0 136 52l67 -100q-96 -74 -210 -74q-123 0 -189.5 71t-66.5 197q0 128 63 201t172 73q233 0 233 -279v-47zM331 316v10q0 82 -55 82q-61 0 -61 -92h116z" />
    <glyph glyph-name="f" unicode="f" horiz-adv-x="345" 
d="M370 718l-41 -109q-21 12 -50 12q-16 0 -28 -10t-12 -27v-68h109l-23 -114h-86v-402h-174v402h-44v114h44q-3 18 -3 62q0 43 13 74.5t31.5 49t44.5 27.5t47 13t44 3q79 0 128 -27z" />
    <glyph glyph-name="g" unicode="g" horiz-adv-x="571" 
d="M573 420q-32 -17 -61 -17q-12 0 -17 2q8 -6 16.5 -24.5t8.5 -38.5q0 -72 -62 -115.5t-150 -43.5h-56q-11 -13 -11 -18q0 -16 46 -16h75q91 0 140 -39.5t49 -109.5q0 -92 -70.5 -147.5t-209.5 -55.5q-119 0 -177.5 39t-58.5 97q0 35 7 67h156q-1 -10 -1 -31q0 -44 87 -44
q44 0 68 16t24 40q0 27 -18.5 35.5t-75.5 8.5h-91q-64 0 -99.5 26t-35.5 74q0 29 16.5 56t47.5 40q-74 38 -74 131q0 82 64 129.5t172 47.5q49 0 93 -11t62 -11q48 0 89 34zM342 352q0 59 -61 59q-60 0 -60 -59q0 -57 59 -57q62 0 62 57z" />
    <glyph glyph-name="h" unicode="h" horiz-adv-x="578" 
d="M513 0h-174v339q0 34 -6.5 44t-32.5 10q-31 0 -61 -32v-361h-174v577q0 84 -13 128l176 30q11 -49 11 -121v-82q0 -12 -0.5 -25t-0.5 -17q42 39 120 39q70 0 112.5 -32.5t42.5 -118.5v-378z" />
    <glyph glyph-name="i" unicode="i" horiz-adv-x="304" 
d="M239 0h-174v508l174 16v-524zM252 652q0 -41 -29.5 -69.5t-71.5 -28.5q-41 0 -70 29t-29 69t30 69t72 29q41 0 69.5 -28.5t28.5 -69.5z" />
    <glyph glyph-name="j" unicode="j" horiz-adv-x="304" 
d="M239 17q0 -109 -33.5 -160.5t-128.5 -91.5l-69 90q31 25 44 58t13 92v503l174 16v-507zM247 652q0 -41 -29.5 -69.5t-71.5 -28.5q-41 0 -70 29t-29 69t30 69t72 29q41 0 69.5 -28.5t28.5 -69.5z" />
    <glyph glyph-name="k" unicode="k" horiz-adv-x="563" 
d="M239 0h-174v552q0 113 -10 153l173 30q11 -64 11 -182v-553zM568 0h-195l-133 292l91 224h204l-141 -210z" />
    <glyph glyph-name="l" unicode="l" horiz-adv-x="314" 
d="M327 3q-41 -16 -112 -16q-43 0 -72 9.5t-44.5 23t-23 40t-9 47t-1.5 59.5v352q0 154 -6 188l172 29q8 -50 8 -129v-383q0 -72 7 -93.5t35 -21.5q9 0 18 3z" />
    <glyph glyph-name="m" unicode="m" horiz-adv-x="813" 
d="M748 0h-167v319q0 50 -6.5 61.5t-30.5 11.5q-23 0 -56 -20v-372h-163v320q0 52 -5.5 63.5t-29.5 11.5q-31 0 -56 -20v-375h-169v328q0 105 -16 173l160 27q9 -33 10 -50q57 51 125 51q70 0 116 -56q62 56 148 56q64 0 102 -32.5t38 -120.5v-376z" />
    <glyph glyph-name="n" unicode="n" horiz-adv-x="578" 
d="M513 0h-174v330q0 20 -3 32t-10 17t-12.5 6t-17.5 1q-23 0 -57 -30v-356h-174v328q0 105 -16 173l160 27q9 -26 10 -48q67 49 149 49q83 0 114 -39.5t31 -102.5v-387z" />
    <glyph glyph-name="o" unicode="o" 
d="M515 271q0 -74 -21 -130t-56.5 -89t-78 -49t-90.5 -16q-112 0 -175.5 71t-63.5 198q0 122 68 197.5t181 75.5q103 0 169.5 -63.5t66.5 -194.5zM327 276q0 76 -12 104t-43 28q-29 0 -41.5 -32t-12.5 -123q0 -81 10 -112.5t45 -31.5q31 0 42.5 37t11.5 130z" />
    <glyph glyph-name="p" unicode="p" horiz-adv-x="566" 
d="M531 284q0 -148 -56.5 -222.5t-162.5 -74.5q-40 0 -81 17q8 -22 8 -79v-106l-174 -47v556q0 105 -16 173l160 27q8 -23 11 -46q9 17 41 32t67 15q203 0 203 -245zM345 269q0 68 -10 97t-42 29q-37 0 -54 -26v-231q3 -14 33 -14q18 0 29 4t22.5 17.5t16.5 44t5 79.5z" />
    <glyph glyph-name="q" unicode="q" horiz-adv-x="562" 
d="M506 516q-9 -36 -9 -159v-546l-174 -46v192q0 32 4 51q-27 -21 -90 -21q-101 0 -151.5 70t-50.5 200q0 125 64.5 198.5t149.5 73.5q69 0 97 -50q3 21 9 37h151zM323 151v214q-10 20 -38 20q-15 0 -24.5 -3t-19.5 -14.5t-15 -37.5t-5 -68q0 -74 11.5 -105t47.5 -31
q30 0 43 25z" />
    <glyph glyph-name="r" unicode="r" horiz-adv-x="386" 
d="M391 516l-40 -140q-25 14 -51 14q-40 0 -61 -37v-353h-174v314q0 123 -16 187l160 27q11 -40 11 -61q48 64 106 64q29 0 65 -15z" />
    <glyph glyph-name="s" unicode="s" horiz-adv-x="519" 
d="M489 171q0 -84 -66 -134t-174 -50q-100 0 -224 65l61 126q107 -66 169 -66q22 0 38 12t16 27q0 20 -14 29t-54 18l-67 14q-121 25 -121 141q0 80 57.5 128t154.5 48q25 0 48 -2.5t38.5 -6t35.5 -10.5t29 -10.5t28.5 -12.5t24.5 -11l-54 -108q-72 38 -127 38
q-20 0 -32.5 -8t-12.5 -21q0 -29 54 -41l64 -14q128 -28 128 -151z" />
    <glyph glyph-name="t" unicode="t" horiz-adv-x="383" 
d="M368 16q-63 -30 -131 -30q-80 0 -121 27t-41 98v291h-42v114h42q0 87 6 128l173 26q-5 -46 -5 -154h95l-23 -114h-72v-208q0 -54 10.5 -71t43.5 -17q26 0 44 10z" />
    <glyph glyph-name="u" unicode="u" horiz-adv-x="573" 
d="M534 41l-151 -54q-9 10 -22 47q-52 -47 -129 -47q-135 0 -162 90q-10 33 -10 125v300l174 28v-374q0 -23 11 -31t35 -8q30 0 54 26v359l174 28v-372q0 -70 26 -117z" />
    <glyph glyph-name="v" unicode="v" horiz-adv-x="482" 
d="M497 516l-187 -516h-134l-191 506l176 17l46 -154q16 -55 37 -149h2q9 75 34 160l39 136h178z" />
    <glyph glyph-name="w" unicode="w" horiz-adv-x="729" 
d="M729 516l-149 -516h-155l-42 193q-17 81 -20 133q-8 -70 -24 -138l-44 -188h-153l-142 504l170 19l26 -160q24 -152 26 -173h1q5 60 32 184l32 142h155l41 -185q17 -78 23 -138h1q8 89 22 177l24 146h176z" />
    <glyph glyph-name="x" unicode="x" horiz-adv-x="532" 
d="M547 0h-221l-37 80q-19 38 -23 58h-2q-6 -35 -35 -84l-31 -54h-213l178 269l-148 229l188 36l39 -68q19 -32 31 -79h1q3 42 26 85l23 44h204l-155 -242z" />
    <glyph glyph-name="y" unicode="y" horiz-adv-x="550" 
d="M555 516l-196 -517q-24 -64 -43 -100.5t-49 -68.5t-71 -47t-101 -20l-61 112q79 18 111.5 41.5t62.5 83.5h-48q-12 61 -37 133l-128 378l178 13l77 -270q18 -62 24 -106h1q12 93 35 160l69 208h176z" />
    <glyph glyph-name="z" unicode="z" horiz-adv-x="478" 
d="M448 127l-16 -127h-402v117l201 275h-194v124h402v-124l-197 -265h206z" />
    <glyph glyph-name="braceleft" unicode="{" horiz-adv-x="321" 
d="M306 -156h-79q-145 0 -145 160v156q0 40 -13.5 51t-53.5 11v134q40 0 53.5 12.5t13.5 47.5v157q0 87 36 123t109 36h79v-151h-23q-48 0 -48 -53v-151q0 -31 -8 -51t-22.5 -27t-22.5 -8.5t-20 -1.5v-2q73 0 73 -85v-154q0 -19 11 -36t37 -17h23v-151z" />
    <glyph glyph-name="bar" unicode="|" horiz-adv-x="296" 
d="M231 -208h-166v964h166v-964z" />
    <glyph glyph-name="braceright" unicode="}" horiz-adv-x="321" 
d="M306 222q-40 0 -53.5 -11t-13.5 -51v-156q0 -160 -145 -160h-79v151h23q26 0 37 17t11 36v154q0 85 73 85v2q-12 0 -20 1.5t-22.5 8.5t-22.5 27t-8 51v151q0 53 -48 53h-23v151h79q72 0 108.5 -36t36.5 -123v-157q0 -35 13.5 -47.5t53.5 -12.5v-134z" />
    <glyph glyph-name="asciitilde" unicode="~" horiz-adv-x="598" 
d="M533 248q-42 -56 -128 -56q-55 0 -117 29t-93 29q-49 0 -92 -37l-38 154q50 48 126 48q46 0 109 -28.5t102 -28.5q59 0 97 46z" />
    <glyph glyph-name="uni00A0" unicode="&#xa0;" horiz-adv-x="225" 
 />
    <glyph glyph-name="exclamdown" unicode="&#xa1;" horiz-adv-x="332" 
d="M267 -179l-202 -29l34 512h130zM261 429q0 -41 -28.5 -69.5t-69.5 -28.5q-39 0 -67.5 29t-28.5 70q0 40 29.5 68t70.5 28q39 0 66.5 -28.5t27.5 -68.5z" />
    <glyph glyph-name="cent" unicode="&#xa2;" horiz-adv-x="469" 
d="M454 60q-51 -51 -121 -66v-125h-124v124q-83 17 -128.5 83t-45.5 177q0 107 45.5 176.5t128.5 90.5v121h124v-117q54 -11 108 -56l-80 -105q-36 38 -73 38q-33 0 -48 -28t-15 -109q0 -82 12.5 -115t48.5 -33q54 0 95 46z" />
    <glyph glyph-name="sterling" unicode="&#xa3;" horiz-adv-x="563" 
d="M568 663l-95 -125q-38 27 -84 27q-47 0 -68.5 -22t-21.5 -55v-62h143v-126h-143v-168h242v-132h-506v132h69v168h-69v126h69v65q0 40 14 77.5t43.5 71.5t84.5 55t129 21q119 0 193 -53z" />
    <glyph glyph-name="currency" unicode="&#xa4;" horiz-adv-x="491" 
d="M455 112l-153 -80q-34 48 -46 69q-14 -2 -22 -2q-10 0 -22 2q-16 -35 -42 -69l-149 80l48 67q-22 37 -22 90t24 92l-51 70l153 80q41 -62 45 -68q5 1 16 1q14 0 28 -2q10 23 43 70l148 -82l-48 -67q23 -33 23 -92q0 -49 -25 -90zM276 274q0 38 -8.5 53.5t-31.5 15.5
q-22 0 -31.5 -16.5t-9.5 -53.5q0 -72 41 -72q22 0 31 17t9 56z" />
    <glyph glyph-name="yen" unicode="&#xa5;" horiz-adv-x="611" 
d="M616 697l-151 -272h80v-133h-152v-57h152v-133h-152v-102h-183v102h-153v133h152v57h-152v133h82l-144 272h214l61 -148q17 -43 35 -97q4 11 12 30.5t14 35t11 28.5l61 151h213z" />
    <glyph glyph-name="brokenbar" unicode="&#xa6;" horiz-adv-x="296" 
d="M231 322h-166v434h166v-434zM231 -208h-166v434h166v-434z" />
    <glyph glyph-name="section" unicode="&#xa7;" horiz-adv-x="624" 
d="M589 266q0 -37 -20 -71.5t-52 -56.5q43 -46 43 -110t-43 -110.5t-101.5 -65.5t-121.5 -19q-186 0 -259 149l167 79q20 -75 96 -75q60 0 60 31q0 9 -5 16.5t-16.5 14t-21.5 11t-29 11.5t-29 11l-80 33q-59 24 -89.5 69t-30.5 94q0 89 73 143q-49 43 -49 109
q0 86 71.5 133.5t163.5 47.5q184 0 251 -130l-163 -90q-27 67 -82 67q-45 0 -45 -31q0 -23 47 -43l100 -41q76 -32 120.5 -72t44.5 -104zM411 239q0 13 -10 24.5t-18.5 16t-25.5 11.5l-105 47q-17 -12 -17 -34q0 -8 2 -14.5t6.5 -12t8.5 -9t12 -8t12 -6t14 -6t13 -5.5
l92 -40q16 12 16 36z" />
    <glyph glyph-name="dieresis" unicode="&#xa8;" horiz-adv-x="447" 
d="M200 650q0 -34 -25.5 -58t-60.5 -24q-36 0 -62.5 24t-26.5 58q0 35 25 59.5t60 24.5q37 0 63.5 -24.5t26.5 -59.5zM422 650q0 -34 -25.5 -58t-60.5 -24q-37 0 -62.5 24t-25.5 58q0 35 24.5 59.5t59.5 24.5q38 0 64 -24.5t26 -59.5z" />
    <glyph glyph-name="copyright" unicode="&#xa9;" horiz-adv-x="814" 
d="M779 354q0 -151 -109 -261.5t-263 -110.5q-153 0 -262.5 110.5t-109.5 261.5t109.5 261.5t262.5 110.5q154 0 263 -110.5t109 -261.5zM653 354q0 104 -72.5 181t-173.5 77q-100 0 -173 -77t-73 -181t73 -181t173 -77q101 0 173.5 77t72.5 181zM543 215q-62 -55 -136 -55
q-77 0 -129 47t-52 138t51.5 145t136.5 54q71 0 119 -41l-58 -85q-29 25 -59 25t-40 -17t-10 -59q0 -59 9.5 -81t43.5 -22t61 30z" />
    <glyph glyph-name="ordfeminine" unicode="&#xaa;" horiz-adv-x="450" 
d="M400 431l-72 -72q-37 18 -51 40q-37 -37 -96 -37q-66 0 -103 34.5t-37 93.5q0 57 40.5 93.5t136.5 36.5h19v15q0 24 -6 30.5t-28 6.5q-42 0 -105 -42l-52 90q96 56 174 56q37 0 66.5 -8t52 -33t22.5 -65l-1 -151q0 -34 7.5 -51t32.5 -37zM425 220h-400v106h400v-106z
M236 536q-59 0 -59 -39q0 -37 31 -37q19 0 27 14z" />
    <glyph glyph-name="guillemotleft" unicode="&#xab;" horiz-adv-x="615" 
d="M590 85l-115 -77l-170 247l170 248l115 -78l-115 -170zM310 85l-115 -77l-170 247l170 248l115 -78l-115 -170z" />
    <glyph glyph-name="logicalnot" unicode="&#xac;" horiz-adv-x="587" 
d="M532 45h-159v140h-318v135h477v-275z" />
    <glyph glyph-name="uni00AD" unicode="&#xad;" horiz-adv-x="363" 
d="M318 207h-273v143h273v-143z" />
    <glyph glyph-name="registered" unicode="&#xae;" horiz-adv-x="814" 
d="M779 354q0 -151 -109 -261.5t-263 -110.5q-153 0 -262.5 110.5t-109.5 261.5t109.5 261.5t262.5 110.5q154 0 263 -110.5t109 -261.5zM653 354q0 104 -72.5 181t-173.5 77q-100 0 -173 -77t-73 -181t73 -181t173 -77q101 0 173.5 77t72.5 181zM570 182h-130q-2 8 -9.5 37
t-13 47.5t-11.5 29.5q-9 16 -22 16h-4v-130h-118v361h178q47 0 81 -28t34 -77q0 -87 -72 -105q21 -4 34 -17.5t25 -49.5zM424 426q0 25 -22 25h-22v-50h22q22 0 22 25z" />
    <glyph glyph-name="macron" unicode="&#xaf;" horiz-adv-x="392" 
d="M367 654h-342v95h342v-95z" />
    <glyph glyph-name="degree" unicode="&#xb0;" horiz-adv-x="424" 
d="M389 551q0 -79 -48 -124t-131 -45q-175 0 -175 162q0 75 50 120.5t129 45.5q81 0 128 -38.5t47 -120.5zM251 549q0 43 -8.5 59t-30.5 16q-24 0 -31.5 -16t-7.5 -64q0 -43 8.5 -58.5t30.5 -15.5q23 0 31 16t8 63z" />
    <glyph glyph-name="plusminus" unicode="&#xb1;" horiz-adv-x="548" 
d="M503 276h-150v-145h-158v145h-150v141h150v140h158v-140h150v-141zM501 -24h-454v134h454v-134z" />
    <glyph glyph-name="twosuperior" unicode="&#xb2;" horiz-adv-x="380" 
d="M355 352l-28 -102h-282v86q78 64 119 112q25 29 34.5 46.5t9.5 40.5q0 27 -27 27t-73 -39l-83 72q46 36 85 52t89 16q68 0 106 -34.5t38 -90.5q0 -94 -136 -187q2 0 7.5 0.5t7.5 0.5h133z" />
    <glyph glyph-name="threesuperior" unicode="&#xb3;" horiz-adv-x="364" 
d="M339 373q0 -65 -64 -104.5t-162 -39.5q-34 0 -65 4l-23 97q32 -6 51 -6q121 0 121 60q0 29 -62 26q-13 -2 -41 -4v101q32 -4 51 -4q30 0 40 8.5t10 27.5q0 21 -27 21q-45 0 -82 -37l-58 89q69 49 152 49q66 0 108 -30.5t42 -82.5q0 -58 -41 -86q50 -25 50 -89z" />
    <glyph glyph-name="acute" unicode="&#xb4;" horiz-adv-x="336" 
d="M311 638l-231 -96l-55 88l218 121z" />
    <glyph glyph-name="mu" unicode="&#xb5;" horiz-adv-x="582" 
d="M542 44l-141 -58q-19 16 -28 44q-70 -41 -116 -41q-14 0 -20 4l-2 1q1 -11 1 -67v-108l-171 -47v732l174 31v-379q0 -23 11 -32.5t35 -9.5q23 0 54 23v363l174 36v-380q0 -70 29 -112z" />
    <glyph glyph-name="paragraph" unicode="&#xb6;" horiz-adv-x="613" 
d="M548 -126h-117v733h-69v-733h-117v467q-220 0 -220 179q0 97 62 137t175 40h286v-823z" />
    <glyph glyph-name="periodcentered" unicode="&#xb7;" horiz-adv-x="319" 
d="M264 269q0 -42 -31 -72.5t-76 -30.5q-43 0 -72.5 30.5t-29.5 74.5q0 43 31 74.5t75 31.5q43 0 73 -31.5t30 -76.5z" />
    <glyph glyph-name="cedilla" unicode="&#xb8;" horiz-adv-x="299" 
d="M254 -98q0 -42 -29.5 -72t-91.5 -30q-50 0 -88 20l32 62q22 -11 48 -11q33 0 33 24t-33 24q-14 0 -28 -2l-10 17l27 86l79 -10l-16 -35q35 -3 56 -23t21 -50z" />
    <glyph glyph-name="onesuperior" unicode="&#xb9;" horiz-adv-x="318" 
d="M293 250h-244v93h71v177q-37 -21 -61 -27l-34 67l134 96h79v-313h55v-93z" />
    <glyph glyph-name="ordmasculine" unicode="&#xba;" horiz-adv-x="450" 
d="M419 570q0 -86 -48.5 -147t-146.5 -61q-86 0 -139 56.5t-53 149.5t53 150.5t139 57.5q35 0 66.5 -10t62 -31.5t48.5 -64t18 -100.5zM425 220h-400v106h400v-106zM266 571q0 56 -9.5 75t-30.5 19q-40 0 -40 -95q0 -52 10 -75t34 -23q36 0 36 99z" />
    <glyph glyph-name="guillemotright" unicode="&#xbb;" horiz-adv-x="615" 
d="M590 255l-170 -247l-115 77l115 170l-115 170l115 78zM310 255l-170 -247l-115 77l115 170l-115 170l115 78z" />
    <glyph glyph-name="onequarter" unicode="&#xbc;" horiz-adv-x="983" 
d="M810 765l-529 -919h-136l528 919h137zM958 73h-28l-6 1q0 -2 0.5 -6.5t0.5 -6.5v-77l-125 -9v93l1 7q-2 0 -5 -1t-4 -1h-168v76l99 258h125l-71 -194q-6 -19 -16 -34h39q0 41 17 106l108 16v-77q0 -25 -2 -45h35v-106zM293 250h-244v93h71v177q-37 -21 -61 -27l-34 67
l134 96h79v-313h55v-93z" />
    <glyph glyph-name="onehalf" unicode="&#xbd;" horiz-adv-x="978" 
d="M791 765l-529 -919h-136l528 919h137zM953 102l-28 -102h-282v86q78 64 119 112q25 29 34.5 46.5t9.5 40.5q0 27 -27 27t-73 -39l-83 72q46 36 85 52t89 16q68 0 106 -34.5t38 -90.5q0 -94 -136 -187q2 0 7.5 0.5t7.5 0.5h133zM293 250h-244v93h71v177q-37 -21 -61 -27
l-34 67l134 96h79v-313h55v-93z" />
    <glyph glyph-name="threequarters" unicode="&#xbe;" horiz-adv-x="1024" 
d="M855 765l-529 -919h-136l528 919h137zM339 373q0 -65 -64 -104.5t-162 -39.5q-34 0 -65 4l-23 97q32 -6 51 -6q121 0 121 60q0 29 -62 26q-13 -2 -41 -4v101q32 -4 51 -4q30 0 40 8.5t10 27.5q0 21 -27 21q-45 0 -82 -37l-58 89q69 49 152 49q66 0 108 -30.5t42 -82.5
q0 -58 -41 -86q50 -25 50 -89zM999 73h-28l-6 1q0 -2 0.5 -6.5t0.5 -6.5v-77l-125 -9v93l1 7q-2 0 -5 -1t-4 -1h-168v76l99 258h125l-71 -194q-6 -19 -16 -34h39q0 41 17 106l108 16v-77q0 -25 -2 -45h35v-106z" />
    <glyph glyph-name="questiondown" unicode="&#xbf;" horiz-adv-x="506" 
d="M471 -122q-86 -81 -202 -81q-91 0 -152.5 45t-61.5 127q0 105 91 159q51 31 69 65.5t18 88.5v22h146q6 -33 6 -61q0 -106 -95 -174q-34 -24 -46.5 -39.5t-12.5 -36.5q0 -52 68 -52q57 0 95 44zM395 429q0 -41 -28.5 -69.5t-69.5 -28.5q-39 0 -67.5 29t-28.5 70
q0 40 29.5 68t70.5 28q39 0 66.5 -28.5t27.5 -68.5z" />
    <glyph glyph-name="Agrave" unicode="&#xc0;" horiz-adv-x="607" 
d="M619 0h-194l-36 134h-165l-38 -134h-188l224 697h186zM353 272l-30 127q-11 46 -13 94q-3 -33 -19 -107l-28 -114h90zM452 798l-51 -88l-234 96l66 113z" />
    <glyph glyph-name="Aacute" unicode="&#xc1;" horiz-adv-x="607" 
d="M619 0h-194l-36 134h-165l-38 -134h-188l224 697h186zM353 272l-30 127q-11 46 -13 94q-3 -33 -19 -107l-28 -114h90zM454 806l-231 -96l-55 88l218 121z" />
    <glyph glyph-name="Acircumflex" unicode="&#xc2;" horiz-adv-x="607" 
d="M619 0h-194l-36 134h-165l-38 -134h-188l224 697h186zM353 272l-30 127q-11 46 -13 94q-3 -33 -19 -107l-28 -114h90zM503 799l-56 -93l-139 70l-135 -70l-50 93l191 119z" />
    <glyph glyph-name="Atilde" unicode="&#xc3;" horiz-adv-x="607" 
d="M619 0h-194l-36 134h-165l-38 -134h-188l224 697h186zM353 272l-30 127q-11 46 -13 94q-3 -33 -19 -107l-28 -114h90zM498 794q-44 -55 -123 -55q-31 0 -68 18.5t-66 18.5q-40 0 -70 -30l-44 100q48 59 117 59q32 0 70.5 -17.5t65.5 -17.5q21 0 42 9t31 20z" />
    <glyph glyph-name="Adieresis" unicode="&#xc4;" horiz-adv-x="607" 
d="M619 0h-194l-36 134h-165l-38 -134h-188l224 697h186zM353 272l-30 127q-11 46 -13 94q-3 -33 -19 -107l-28 -114h90zM291 810q0 -34 -25.5 -58t-60.5 -24q-36 0 -62.5 24t-26.5 58q0 35 25 59.5t60 24.5q37 0 63.5 -24.5t26.5 -59.5zM513 810q0 -34 -25.5 -58t-60.5 -24
q-36 0 -62.5 24t-26.5 58q0 35 25 59.5t60 24.5q37 0 63.5 -24.5t26.5 -59.5z" />
    <glyph glyph-name="Aring" unicode="&#xc5;" horiz-adv-x="607" 
d="M619 0h-194l-36 134h-165l-38 -134h-188l224 697h186zM353 272l-30 127q-11 46 -13 94q-3 -33 -19 -107l-28 -114h90zM430 826q0 -43 -35 -74.5t-80 -31.5q-50 0 -84 31t-34 75q0 43 35 74.5t83 31.5q47 0 81 -31t34 -75zM355 826q0 18 -12 30t-27 12q-20 0 -32 -12
t-12 -30t12 -30t29 -12q19 0 30.5 12t11.5 30z" />
    <glyph glyph-name="AE" unicode="&#xc6;" horiz-adv-x="843" 
d="M818 0h-423v134h-161l-68 -134h-201l407 697h433l-23 -147h-208v-117h174v-142h-174v-142h244v-149zM396 456h-2q-20 -62 -88 -184h89v142q0 27 1 42z" />
    <glyph glyph-name="Ccedilla" unicode="&#xc7;" horiz-adv-x="565" 
d="M560 59q-75 -70 -213 -71l-6 -13q35 -3 56 -23t21 -50q0 -42 -29.5 -72t-91.5 -30q-50 0 -88 20l32 62q22 -11 48 -11q33 0 33 24t-33 24q-14 0 -28 -2l-10 17l19 61q-92 19 -155 89q-80 89 -80 251q0 127 48 216q86 158 282 158q54 0 104 -14t74 -37l-76 -132
q-48 37 -104 37q-52 0 -78 -27q-26 -26 -35.5 -59t-9.5 -94q0 -92 6.5 -136t27.5 -68q37 -44 89 -44q69 0 120 46z" />
    <glyph glyph-name="Egrave" unicode="&#xc8;" horiz-adv-x="508" 
d="M488 0h-418v697h405l-13 -147h-213v-117h174v-142h-174v-142h239v-149zM382 798l-51 -88l-234 96l66 113z" />
    <glyph glyph-name="Eacute" unicode="&#xc9;" horiz-adv-x="508" 
d="M488 0h-418v697h405l-13 -147h-213v-117h174v-142h-174v-142h239v-149zM437 806l-231 -96l-55 88l218 121z" />
    <glyph glyph-name="Ecircumflex" unicode="&#xca;" horiz-adv-x="508" 
d="M488 0h-418v697h405l-13 -147h-213v-117h174v-142h-174v-142h239v-149zM452 799l-56 -93l-139 70l-135 -70l-50 93l191 119z" />
    <glyph glyph-name="Edieresis" unicode="&#xcb;" horiz-adv-x="508" 
d="M488 0h-418v697h405l-13 -147h-213v-117h174v-142h-174v-142h239v-149zM252 814q0 -34 -25.5 -58t-60.5 -24q-36 0 -62.5 24t-26.5 58q0 35 25 59.5t60 24.5q37 0 63.5 -24.5t26.5 -59.5zM474 814q0 -34 -25.5 -58t-60.5 -24q-36 0 -62.5 24t-26.5 58q0 35 25 59.5
t60 24.5q37 0 63.5 -24.5t26.5 -59.5z" />
    <glyph glyph-name="Igrave" unicode="&#xcc;" horiz-adv-x="313" 
d="M253 0h-183v697h183v-697zM302 798l-51 -88l-234 96l66 113z" />
    <glyph glyph-name="Iacute" unicode="&#xcd;" horiz-adv-x="313" 
d="M253 0h-183v697h183v-697zM308 806l-231 -96l-55 88l218 121z" />
    <glyph glyph-name="Icircumflex" unicode="&#xce;" horiz-adv-x="313" 
d="M253 0h-183v697h183v-697zM351 799l-56 -93l-139 70l-135 -70l-50 93l191 119z" />
    <glyph glyph-name="Idieresis" unicode="&#xcf;" horiz-adv-x="313" 
d="M253 0h-183v697h183v-697zM139 813q0 -34 -25.5 -58t-60.5 -24q-36 0 -62.5 24t-26.5 58q0 35 25 59.5t60 24.5q37 0 63.5 -24.5t26.5 -59.5zM361 813q0 -34 -25.5 -58t-60.5 -24q-36 0 -62.5 24t-26.5 58q0 35 25 59.5t60 24.5q37 0 63.5 -24.5t26.5 -59.5z" />
    <glyph glyph-name="Eth" unicode="&#xd0;" horiz-adv-x="626" 
d="M591 361q0 -183 -79 -277q-70 -84 -194 -84h-253v296h-71v109h71v292h246q104 0 166 -43q114 -79 114 -293zM394 367q0 59 -7 97t-21 56t-29 24t-38 6h-55v-145h85l-24 -109h-61v-147h60q21 0 35.5 7.5t28 29t20 66.5t6.5 115z" />
    <glyph glyph-name="Ntilde" unicode="&#xd1;" horiz-adv-x="651" 
d="M591 0h-184l-123 242q-31 62 -54 131q10 -68 10 -177v-196h-170v697h172l127 -239q30 -55 58 -133q-6 49 -6 156v216h170v-697zM515 783q-44 -55 -123 -55q-31 0 -68 18.5t-66 18.5q-40 0 -70 -30l-44 100q48 59 117 59q32 0 70.5 -17.5t65.5 -17.5q21 0 42 9t31 20z" />
    <glyph glyph-name="Ograve" unicode="&#xd2;" horiz-adv-x="696" 
d="M666 375q0 -387 -312 -387q-150 0 -232 92t-82 251q0 181 88.5 279.5t231.5 98.5q85 0 147 -30t95.5 -80.5t48.5 -106t15 -117.5zM466 353q0 126 -25.5 171t-85.5 45q-115 0 -115 -218q0 -127 28.5 -174.5t88.5 -47.5q59 0 84 47t25 177zM490 798l-51 -88l-234 96l66 113
z" />
    <glyph glyph-name="Oacute" unicode="&#xd3;" horiz-adv-x="696" 
d="M666 375q0 -387 -312 -387q-150 0 -232 92t-82 251q0 181 88.5 279.5t231.5 98.5q85 0 147 -30t95.5 -80.5t48.5 -106t15 -117.5zM466 353q0 126 -25.5 171t-85.5 45q-115 0 -115 -218q0 -127 28.5 -174.5t88.5 -47.5q59 0 84 47t25 177zM507 806l-231 -96l-55 88
l218 121z" />
    <glyph glyph-name="Ocircumflex" unicode="&#xd4;" horiz-adv-x="696" 
d="M666 375q0 -387 -312 -387q-150 0 -232 92t-82 251q0 181 88.5 279.5t231.5 98.5q85 0 147 -30t95.5 -80.5t48.5 -106t15 -117.5zM466 353q0 126 -25.5 171t-85.5 45q-115 0 -115 -218q0 -127 28.5 -174.5t88.5 -47.5q59 0 84 47t25 177zM551 799l-56 -93l-139 70
l-135 -70l-50 93l191 119z" />
    <glyph glyph-name="Otilde" unicode="&#xd5;" horiz-adv-x="696" 
d="M666 375q0 -387 -312 -387q-150 0 -232 92t-82 251q0 181 88.5 279.5t231.5 98.5q85 0 147 -30t95.5 -80.5t48.5 -106t15 -117.5zM466 353q0 126 -25.5 171t-85.5 45q-115 0 -115 -218q0 -127 28.5 -174.5t88.5 -47.5q59 0 84 47t25 177zM541 794q-44 -55 -123 -55
q-31 0 -68 18.5t-66 18.5q-40 0 -70 -30l-44 100q48 59 117 59q32 0 70.5 -17.5t65.5 -17.5q21 0 42 9t31 20z" />
    <glyph glyph-name="Odieresis" unicode="&#xd6;" horiz-adv-x="696" 
d="M666 375q0 -387 -312 -387q-150 0 -232 92t-82 251q0 181 88.5 279.5t231.5 98.5q85 0 147 -30t95.5 -80.5t48.5 -106t15 -117.5zM466 353q0 126 -25.5 171t-85.5 45q-115 0 -115 -218q0 -127 28.5 -174.5t88.5 -47.5q59 0 84 47t25 177zM334 814q0 -34 -25.5 -58
t-60.5 -24q-36 0 -62.5 24t-26.5 58q0 35 25 59.5t60 24.5q37 0 63.5 -24.5t26.5 -59.5zM556 814q0 -34 -25.5 -58t-60.5 -24q-36 0 -62.5 24t-26.5 58q0 35 25 59.5t60 24.5q37 0 63.5 -24.5t26.5 -59.5z" />
    <glyph glyph-name="multiply" unicode="&#xd7;" horiz-adv-x="701" 
d="M631 174l-115 -115l-169 168l-164 -165l-112 112l165 165l-166 165l115 115l166 -165l165 165l111 -112l-164 -165z" />
    <glyph glyph-name="Oslash" unicode="&#xd8;" horiz-adv-x="696" 
d="M661 375q0 -387 -312 -387q-79 0 -141 27l-70 -114l-85 55l71 116q-89 91 -89 259q0 181 88.5 279.5t231.5 98.5q83 0 143 -29l60 97l85 -50l-64 -105q82 -92 82 -247zM417 548q-22 21 -67 21q-115 0 -115 -218q0 -49 5 -91zM461 353q0 30 -2 72l-170 -278q25 -18 63 -18
q59 0 84 47t25 177z" />
    <glyph glyph-name="Ugrave" unicode="&#xd9;" horiz-adv-x="644" 
d="M589 215q0 -81 -17 -115q-25 -48 -86.5 -80t-158.5 -32q-167 0 -228 87q-21 29 -27.5 55t-6.5 93v474h180v-455q0 -107 83 -107q46 0 64 25t18 79v458h179v-482zM436 798l-51 -88l-234 96l66 113z" />
    <glyph glyph-name="Uacute" unicode="&#xda;" horiz-adv-x="644" 
d="M589 215q0 -81 -17 -115q-25 -48 -86.5 -80t-158.5 -32q-167 0 -228 87q-21 29 -27.5 55t-6.5 93v474h180v-455q0 -107 83 -107q46 0 64 25t18 79v458h179v-482zM507 806l-231 -96l-55 88l218 121z" />
    <glyph glyph-name="Ucircumflex" unicode="&#xdb;" horiz-adv-x="644" 
d="M589 215q0 -81 -17 -115q-25 -48 -86.5 -80t-158.5 -32q-167 0 -228 87q-21 29 -27.5 55t-6.5 93v474h180v-455q0 -107 83 -107q46 0 64 25t18 79v458h179v-482zM521 802l-56 -93l-139 70l-135 -70l-50 93l191 119z" />
    <glyph glyph-name="Udieresis" unicode="&#xdc;" horiz-adv-x="644" 
d="M589 215q0 -81 -17 -115q-25 -48 -86.5 -80t-158.5 -32q-167 0 -228 87q-21 29 -27.5 55t-6.5 93v474h180v-455q0 -107 83 -107q46 0 64 25t18 79v458h179v-482zM305 810q0 -34 -25.5 -58t-60.5 -24q-36 0 -62.5 24t-26.5 58q0 35 25 59.5t60 24.5q37 0 63.5 -24.5
t26.5 -59.5zM526 810q0 -34 -25.5 -58t-60.5 -24q-36 0 -62.5 24t-26.5 58q0 35 25 59.5t60 24.5q37 0 63.5 -24.5t26.5 -59.5z" />
    <glyph glyph-name="Yacute" unicode="&#xdd;" horiz-adv-x="571" 
d="M601 697l-223 -402v-295h-183v291l-215 406h214l61 -148q17 -43 35 -97q4 11 12 30.5t14 35t11 28.5l61 151h213zM461 806l-231 -96l-55 88l218 121z" />
    <glyph glyph-name="Thorn" unicode="&#xde;" horiz-adv-x="588" 
d="M573 370q0 -44 -11.5 -81t-39 -73t-84.5 -57t-138 -21h-56v-138h-179v697h179v-110h48q138 0 209.5 -51t71.5 -166zM378 371q0 41 -18 55t-54 14h-62v-160h52q45 0 63.5 18.5t18.5 72.5z" />
    <glyph glyph-name="germandbls" unicode="&#xdf;" horiz-adv-x="654" 
d="M624 202q0 -96 -69.5 -155t-178.5 -59q-50 0 -81 12l21 129q15 -9 45 -9q37 0 56.5 20t19.5 57q0 27 -15 44.5t-36.5 28t-43 22t-36.5 34.5t-15 57t13.5 55.5t30 29.5t30 22.5t13.5 36.5q0 57 -51 57q-32 0 -43.5 -19t-11.5 -69v-379q0 -58 -16 -117h-176q16 67 16 139
v240h-82v137h82v24q0 78 65 129t167 51q110 0 175 -48.5t65 -127.5q0 -91 -84 -137q-4 -2 -8.5 -4.5t-7 -3.5l-5 -2t-4 -2t-2.5 -1.5t-1.5 -1.5t-0.5 -2q0 -3 23 -13q26 -12 37.5 -17.5t36.5 -22t37.5 -32.5t23.5 -43.5t11 -59.5z" />
    <glyph glyph-name="agrave" unicode="&#xe0;" horiz-adv-x="526" 
d="M505 76l-100 -97q-18 6 -38 22t-26 29q-51 -43 -129 -43q-91 0 -134 46.5t-43 121.5t61.5 121.5t167.5 46.5q24 0 29 -1v32q0 26 -8 37t-34 11q-75 0 -147 -54l-63 108q120 73 232 73q74 0 123 -24.5t63 -69.5q8 -26 8 -80l-2 -178q0 -38 7.5 -61.5t32.5 -39.5zM293 124
v90h-7q-82 0 -82 -57q0 -23 13 -36.5t35 -13.5q28 0 41 17zM383 630l-51 -88l-234 96l66 113z" />
    <glyph glyph-name="aacute" unicode="&#xe1;" horiz-adv-x="526" 
d="M505 76l-100 -97q-18 6 -38 22t-26 29q-51 -43 -129 -43q-91 0 -134 46.5t-43 121.5t61.5 121.5t167.5 46.5q24 0 29 -1v32q0 26 -8 37t-34 11q-75 0 -147 -54l-63 108q120 73 232 73q74 0 123 -24.5t63 -69.5q8 -26 8 -80l-2 -178q0 -38 7.5 -61.5t32.5 -39.5zM293 124
v90h-7q-82 0 -82 -57q0 -23 13 -36.5t35 -13.5q28 0 41 17zM433 638l-231 -96l-55 88l218 121z" />
    <glyph glyph-name="acircumflex" unicode="&#xe2;" horiz-adv-x="526" 
d="M505 76l-100 -97q-18 6 -38 22t-26 29q-51 -43 -129 -43q-91 0 -134 46.5t-43 121.5t61.5 121.5t167.5 46.5q24 0 29 -1v32q0 26 -8 37t-34 11q-75 0 -147 -54l-63 108q120 73 232 73q74 0 123 -24.5t63 -69.5q8 -26 8 -80l-2 -178q0 -38 7.5 -61.5t32.5 -39.5zM293 124
v90h-7q-82 0 -82 -57q0 -23 13 -36.5t35 -13.5q28 0 41 17zM455 626l-56 -93l-139 70l-135 -70l-50 93l191 119z" />
    <glyph glyph-name="atilde" unicode="&#xe3;" horiz-adv-x="526" 
d="M505 76l-100 -97q-18 6 -38 22t-26 29q-51 -43 -129 -43q-91 0 -134 46.5t-43 121.5t61.5 121.5t167.5 46.5q24 0 29 -1v32q0 26 -8 37t-34 11q-75 0 -147 -54l-63 108q120 73 232 73q74 0 123 -24.5t63 -69.5q8 -26 8 -80l-2 -178q0 -38 7.5 -61.5t32.5 -39.5zM293 124
v90h-7q-82 0 -82 -57q0 -23 13 -36.5t35 -13.5q28 0 41 17zM453 630q-44 -55 -123 -55q-31 0 -68 18.5t-66 18.5q-40 0 -70 -30l-44 100q48 59 117 59q32 0 70.5 -17.5t65.5 -17.5q21 0 42 9t31 20z" />
    <glyph glyph-name="adieresis" unicode="&#xe4;" horiz-adv-x="526" 
d="M505 76l-100 -97q-18 6 -38 22t-26 29q-51 -43 -129 -43q-91 0 -134 46.5t-43 121.5t61.5 121.5t167.5 46.5q24 0 29 -1v32q0 26 -8 37t-34 11q-75 0 -147 -54l-63 108q120 73 232 73q74 0 123 -24.5t63 -69.5q8 -26 8 -80l-2 -178q0 -38 7.5 -61.5t32.5 -39.5zM293 124
v90h-7q-82 0 -82 -57q0 -23 13 -36.5t35 -13.5q28 0 41 17zM247 650q0 -34 -25.5 -58t-60.5 -24q-36 0 -62.5 24t-26.5 58q0 35 25 59.5t60 24.5q37 0 63.5 -24.5t26.5 -59.5zM469 650q0 -34 -25.5 -58t-60.5 -24q-36 0 -62.5 24t-26.5 58q0 35 25 59.5t60 24.5
q37 0 63.5 -24.5t26.5 -59.5z" />
    <glyph glyph-name="aring" unicode="&#xe5;" horiz-adv-x="526" 
d="M505 76l-100 -97q-18 6 -38 22t-26 29q-51 -43 -129 -43q-91 0 -134 46.5t-43 121.5t61.5 121.5t167.5 46.5q24 0 29 -1v32q0 26 -8 37t-34 11q-75 0 -147 -54l-63 108q120 73 232 73q74 0 123 -24.5t63 -69.5q8 -26 8 -80l-2 -178q0 -38 7.5 -61.5t32.5 -39.5zM293 124
v90h-7q-82 0 -82 -57q0 -23 13 -36.5t35 -13.5q28 0 41 17zM386 658q0 -43 -35 -74.5t-80 -31.5q-50 0 -84 31t-34 75q0 43 35 74.5t83 31.5q47 0 81 -31t34 -75zM311 658q0 18 -12 30t-27 12q-20 0 -32 -12t-12 -30t12 -30t29 -12q19 0 30.5 12t11.5 30z" />
    <glyph glyph-name="ae" unicode="&#xe6;" horiz-adv-x="777" 
d="M747 203h-288q0 -21 5 -39.5t25 -36.5t53 -18q69 0 136 52l67 -100q-96 -74 -210 -74q-117 0 -180 59q-17 -24 -55 -41.5t-93 -17.5q-91 0 -134 46.5t-43 121.5t62 121.5t171 46.5q20 0 25 -1v32q0 26 -8 37t-34 11q-75 0 -147 -54l-63 108q120 73 232 73q83 0 130 -33
q42 33 116 33q233 0 233 -279v-47zM575 316v10q0 82 -55 82q-61 0 -61 -92h116zM288 124v90h-7q-82 0 -82 -57q0 -23 13 -36.5t35 -13.5q28 0 41 17z" />
    <glyph glyph-name="ccedilla" unicode="&#xe7;" horiz-adv-x="469" 
d="M454 60q-71 -71 -177 -73l-12 -26q35 -3 56 -23t21 -50q0 -42 -29.5 -72t-91.5 -30q-50 0 -88 20l32 62q22 -11 48 -11q33 0 33 24t-33 24q-14 0 -28 -2l-10 17l24 75q-78 20 -121 86t-43 172q0 130 65.5 203t181.5 73q85 0 159 -61l-80 -105q-36 38 -73 38
q-33 0 -48 -28t-15 -109q0 -82 12.5 -115t48.5 -33q54 0 95 46z" />
    <glyph glyph-name="egrave" unicode="&#xe8;" horiz-adv-x="533" 
d="M508 203h-288q0 -21 5 -39.5t25 -36.5t53 -18q69 0 136 52l67 -100q-96 -74 -210 -74q-123 0 -189.5 71t-66.5 197q0 128 63 201t172 73q233 0 233 -279v-47zM336 316v10q0 82 -55 82q-61 0 -61 -92h116zM400 630l-51 -88l-234 96l66 113z" />
    <glyph glyph-name="eacute" unicode="&#xe9;" horiz-adv-x="533" 
d="M508 203h-288q0 -21 5 -39.5t25 -36.5t53 -18q69 0 136 52l67 -100q-96 -74 -210 -74q-123 0 -189.5 71t-66.5 197q0 128 63 201t172 73q233 0 233 -279v-47zM336 316v10q0 82 -55 82q-61 0 -61 -92h116zM443 638l-231 -96l-55 88l218 121z" />
    <glyph glyph-name="ecircumflex" unicode="&#xea;" horiz-adv-x="533" 
d="M508 203h-288q0 -21 5 -39.5t25 -36.5t53 -18q69 0 136 52l67 -100q-96 -74 -210 -74q-123 0 -189.5 71t-66.5 197q0 128 63 201t172 73q233 0 233 -279v-47zM336 316v10q0 82 -55 82q-61 0 -61 -92h116zM467 626l-56 -93l-139 70l-135 -70l-50 93l191 119z" />
    <glyph glyph-name="edieresis" unicode="&#xeb;" horiz-adv-x="533" 
d="M508 203h-288q0 -21 5 -39.5t25 -36.5t53 -18q69 0 136 52l67 -100q-96 -74 -210 -74q-123 0 -189.5 71t-66.5 197q0 128 63 201t172 73q233 0 233 -279v-47zM336 316v10q0 82 -55 82q-61 0 -61 -92h116zM255 650q0 -34 -25.5 -58t-60.5 -24q-36 0 -62.5 24t-26.5 58
q0 35 25 59.5t60 24.5q37 0 63.5 -24.5t26.5 -59.5zM477 650q0 -34 -25.5 -58t-60.5 -24q-36 0 -62.5 24t-26.5 58q0 35 25 59.5t60 24.5q37 0 63.5 -24.5t26.5 -59.5z" />
    <glyph glyph-name="igrave" unicode="&#xec;" horiz-adv-x="304" 
d="M244 0h-174v508l174 16v-524zM297 630l-51 -88l-234 96l66 113z" />
    <glyph glyph-name="iacute" unicode="&#xed;" horiz-adv-x="304" 
d="M244 0h-174v508l174 16v-524zM307 638l-231 -96l-55 88l218 121z" />
    <glyph glyph-name="icircumflex" unicode="&#xee;" horiz-adv-x="304" 
d="M244 0h-174v508l174 16v-524zM347 639l-56 -93l-139 70l-135 -70l-50 93l191 119z" />
    <glyph glyph-name="idieresis" unicode="&#xef;" horiz-adv-x="304" 
d="M244 0h-174v508l174 16v-524zM135 650q0 -34 -25.5 -58t-60.5 -24q-36 0 -62.5 24t-26.5 58q0 35 25 59.5t60 24.5q37 0 63.5 -24.5t26.5 -59.5zM356 650q0 -34 -25.5 -58t-60.5 -24q-36 0 -62.5 24t-26.5 58q0 35 25 59.5t60 24.5q37 0 63.5 -24.5t26.5 -59.5z" />
    <glyph glyph-name="eth" unicode="&#xf0;" horiz-adv-x="529" 
d="M494 242q0 -123 -64.5 -188t-166.5 -65q-101 0 -164 59t-63 169q0 98 64 156t164 53q-39 42 -69 58l-44 -49l-91 36l49 54q-58 19 -134 29l107 127q63 -6 123 -30l32 43l101 -46l-39 -45q52 -34 85 -74q110 -128 110 -287zM328 234q0 30 -3 55q-24 9 -54 9q-67 0 -67 -83
q0 -39 16.5 -63t48.5 -24q59 0 59 106z" />
    <glyph glyph-name="ntilde" unicode="&#xf1;" horiz-adv-x="578" 
d="M518 0h-174v330q0 20 -3 32t-10 17t-12.5 6t-17.5 1q-23 0 -57 -30v-356h-174v328q0 105 -16 173l160 27q9 -26 10 -48q67 49 149 49q83 0 114 -39.5t31 -102.5v-387zM470 629q-44 -55 -123 -55q-31 0 -68 18.5t-66 18.5q-40 0 -70 -30l-44 100q48 59 117 59
q32 0 70.5 -17.5t65.5 -17.5q21 0 42 9t31 20z" />
    <glyph glyph-name="ograve" unicode="&#xf2;" 
d="M520 271q0 -74 -21 -130t-56.5 -89t-78 -49t-90.5 -16q-112 0 -175.5 71t-63.5 198q0 122 68 197.5t181 75.5q103 0 169.5 -63.5t66.5 -194.5zM332 276q0 76 -12 104t-43 28q-29 0 -41.5 -32t-12.5 -123q0 -81 10 -112.5t45 -31.5q31 0 42.5 37t11.5 130zM394 630
l-51 -88l-234 96l66 113z" />
    <glyph glyph-name="oacute" unicode="&#xf3;" 
d="M520 271q0 -74 -21 -130t-56.5 -89t-78 -49t-90.5 -16q-112 0 -175.5 71t-63.5 198q0 122 68 197.5t181 75.5q103 0 169.5 -63.5t66.5 -194.5zM332 276q0 76 -12 104t-43 28q-29 0 -41.5 -32t-12.5 -123q0 -81 10 -112.5t45 -31.5q31 0 42.5 37t11.5 130zM435 638
l-231 -96l-55 88l218 121z" />
    <glyph glyph-name="ocircumflex" unicode="&#xf4;" 
d="M520 271q0 -74 -21 -130t-56.5 -89t-78 -49t-90.5 -16q-112 0 -175.5 71t-63.5 198q0 122 68 197.5t181 75.5q103 0 169.5 -63.5t66.5 -194.5zM332 276q0 76 -12 104t-43 28q-29 0 -41.5 -32t-12.5 -123q0 -81 10 -112.5t45 -31.5q31 0 42.5 37t11.5 130zM472 626
l-56 -93l-139 70l-135 -70l-50 93l191 119z" />
    <glyph glyph-name="otilde" unicode="&#xf5;" 
d="M520 271q0 -74 -21 -130t-56.5 -89t-78 -49t-90.5 -16q-112 0 -175.5 71t-63.5 198q0 122 68 197.5t181 75.5q103 0 169.5 -63.5t66.5 -194.5zM332 276q0 76 -12 104t-43 28q-29 0 -41.5 -32t-12.5 -123q0 -81 10 -112.5t45 -31.5q31 0 42.5 37t11.5 130zM463 626
q-44 -55 -123 -55q-31 0 -68 18.5t-66 18.5q-40 0 -70 -30l-44 100q48 59 117 59q32 0 70.5 -17.5t65.5 -17.5q21 0 42 9t31 20z" />
    <glyph glyph-name="odieresis" unicode="&#xf6;" 
d="M520 271q0 -74 -21 -130t-56.5 -89t-78 -49t-90.5 -16q-112 0 -175.5 71t-63.5 198q0 122 68 197.5t181 75.5q103 0 169.5 -63.5t66.5 -194.5zM332 276q0 76 -12 104t-43 28q-29 0 -41.5 -32t-12.5 -123q0 -81 10 -112.5t45 -31.5q31 0 42.5 37t11.5 130zM256 651
q0 -34 -25.5 -58t-60.5 -24q-36 0 -62.5 24t-26.5 58q0 35 25 59.5t60 24.5q37 0 63.5 -24.5t26.5 -59.5zM478 651q0 -34 -25.5 -58t-60.5 -24q-36 0 -62.5 24t-26.5 58q0 35 25 59.5t60 24.5q37 0 63.5 -24.5t26.5 -59.5z" />
    <glyph glyph-name="divide" unicode="&#xf7;" horiz-adv-x="595" 
d="M550 204h-505v125h505v-125zM398 468q0 -43 -30.5 -73t-72.5 -30t-72 30t-30 73q0 41 30 71t72 30t72.5 -30t30.5 -71zM398 73q0 -43 -30.5 -73t-72.5 -30t-72 30t-30 73q0 41 30 71t72 30t72.5 -30t30.5 -71z" />
    <glyph glyph-name="oslash" unicode="&#xf8;" 
d="M515 271q0 -74 -21 -130t-56.5 -89t-78 -49t-90.5 -16q-56 0 -101 18l-45 -72l-68 44l45 74q-70 70 -70 205q0 122 68 197.5t181 75.5q56 0 103 -19l45 73l69 -41l-47 -77q66 -66 66 -194zM328 276q0 76 -12 104t-43 28q-29 0 -41.5 -32t-12.5 -123q0 -81 10 -112.5
t45 -31.5q31 0 42.5 37t11.5 130z" />
    <glyph glyph-name="ugrave" unicode="&#xf9;" horiz-adv-x="573" 
d="M539 41l-151 -54q-9 10 -22 47q-52 -47 -129 -47q-135 0 -162 90q-10 33 -10 125v300l174 28v-374q0 -23 11 -31t35 -8q30 0 54 26v359l174 28v-372q0 -70 26 -117zM395 630l-51 -88l-234 96l66 113z" />
    <glyph glyph-name="uacute" unicode="&#xfa;" horiz-adv-x="573" 
d="M539 41l-151 -54q-9 10 -22 47q-52 -47 -129 -47q-135 0 -162 90q-10 33 -10 125v300l174 28v-374q0 -23 11 -31t35 -8q30 0 54 26v359l174 28v-372q0 -70 26 -117zM472 638l-231 -96l-55 88l218 121z" />
    <glyph glyph-name="ucircumflex" unicode="&#xfb;" horiz-adv-x="573" 
d="M539 41l-151 -54q-9 10 -22 47q-52 -47 -129 -47q-135 0 -162 90q-10 33 -10 125v300l174 28v-374q0 -23 11 -31t35 -8q30 0 54 26v359l174 28v-372q0 -70 26 -117zM485 636l-56 -93l-139 70l-135 -70l-50 93l191 119z" />
    <glyph glyph-name="udieresis" unicode="&#xfc;" horiz-adv-x="573" 
d="M539 41l-151 -54q-9 10 -22 47q-52 -47 -129 -47q-135 0 -162 90q-10 33 -10 125v300l174 28v-374q0 -23 11 -31t35 -8q30 0 54 26v359l174 28v-372q0 -70 26 -117zM266 650q0 -34 -25.5 -58t-60.5 -24q-36 0 -62.5 24t-26.5 58q0 35 25 59.5t60 24.5q37 0 63.5 -24.5
t26.5 -59.5zM488 650q0 -34 -25.5 -58t-60.5 -24q-36 0 -62.5 24t-26.5 58q0 35 25 59.5t60 24.5q37 0 63.5 -24.5t26.5 -59.5z" />
    <glyph glyph-name="yacute" unicode="&#xfd;" horiz-adv-x="550" 
d="M560 516l-196 -517q-24 -64 -43 -100.5t-49 -68.5t-71 -47t-101 -20l-61 112q79 18 111.5 41.5t62.5 83.5h-48q-12 61 -37 133l-128 378l178 13l77 -270q18 -62 24 -106h1q12 93 35 160l69 208h176zM450 638l-231 -96l-55 88l218 121z" />
    <glyph glyph-name="thorn" unicode="&#xfe;" horiz-adv-x="564" 
d="M529 271q0 -166 -100 -244q-51 -40 -115 -40q-43 0 -75 21v-189l-174 -47v790q0 90 -13 143l176 30q11 -55 11 -99v-79q0 -46 -4 -57q33 29 91 29q93 0 148 -66t55 -192zM343 262q0 73 -14 100t-45 27q-26 0 -45 -25v-216q19 -17 43 -17q33 0 47 29.5t14 101.5z" />
    <glyph glyph-name="ydieresis" unicode="&#xff;" horiz-adv-x="550" 
d="M560 516l-196 -517q-24 -64 -43 -100.5t-49 -68.5t-71 -47t-101 -20l-61 112q79 18 111.5 41.5t62.5 83.5h-48q-12 61 -37 133l-128 378l178 13l77 -270q18 -62 24 -106h1q12 93 35 160l69 208h176zM259 650q0 -34 -25.5 -58t-60.5 -24q-36 0 -62.5 24t-26.5 58
q0 35 25 59.5t60 24.5q37 0 63.5 -24.5t26.5 -59.5zM481 650q0 -34 -25.5 -58t-60.5 -24q-36 0 -62.5 24t-26.5 58q0 35 25 59.5t60 24.5q37 0 63.5 -24.5t26.5 -59.5z" />
    <glyph glyph-name="Amacron" unicode="&#x100;" horiz-adv-x="607" 
d="M619 0h-194l-36 134h-165l-38 -134h-188l224 697h186zM353 272l-30 127q-11 46 -13 94q-3 -33 -19 -107l-28 -114h90zM484 755h-342v107h342v-107z" />
    <glyph glyph-name="amacron" unicode="&#x101;" horiz-adv-x="526" 
d="M505 76l-100 -97q-18 6 -38 22t-26 29q-51 -43 -129 -43q-91 0 -134 46.5t-43 121.5t61.5 121.5t167.5 46.5q24 0 29 -1v32q0 26 -8 37t-34 11q-75 0 -147 -54l-63 108q120 73 232 73q74 0 123 -24.5t63 -69.5q8 -26 8 -80l-2 -178q0 -38 7.5 -61.5t32.5 -39.5zM293 124
v90h-7q-82 0 -82 -57q0 -23 13 -36.5t35 -13.5q28 0 41 17zM442 589h-342v95h342v-95z" />
    <glyph glyph-name="Abreve" unicode="&#x102;" horiz-adv-x="607" 
d="M619 0h-194l-36 134h-165l-38 -134h-188l224 697h186zM353 272l-30 127q-11 46 -13 94q-3 -33 -19 -107l-28 -114h90zM510 848q-31 -44 -84.5 -81t-110.5 -37q-58 0 -115 39t-82 80l62 61q73 -63 139 -63q50 0 139 63z" />
    <glyph glyph-name="abreve" unicode="&#x103;" horiz-adv-x="526" 
d="M505 76l-100 -97q-18 6 -38 22t-26 29q-51 -43 -129 -43q-91 0 -134 46.5t-43 121.5t61.5 121.5t167.5 46.5q24 0 29 -1v32q0 26 -8 37t-34 11q-75 0 -147 -54l-63 108q120 73 232 73q74 0 123 -24.5t63 -69.5q8 -26 8 -80l-2 -178q0 -38 7.5 -61.5t32.5 -39.5zM293 124
v90h-7q-82 0 -82 -57q0 -23 13 -36.5t35 -13.5q28 0 41 17zM462 681q-31 -44 -84.5 -81t-110.5 -37q-58 0 -115 39t-82 80l62 61q74 -64 139 -64q49 0 139 64z" />
    <glyph glyph-name="Aogonek" unicode="&#x104;" horiz-adv-x="607" 
d="M614 0h-10q-55 0 -84.5 -25.5t-29.5 -52.5q0 -4 2 -10q7 -21 29 -21q21 0 48 16l33 -81q-75 -30 -132 -30q-46 0 -76 25t-30 71q0 58 56 108l-36 134h-165l-38 -134h-188l224 697h186zM348 272l-30 127q-11 48 -13 96q-3 -44 -19 -109l-28 -114h90z" />
    <glyph glyph-name="aogonek" unicode="&#x105;" horiz-adv-x="526" 
d="M513 -174q-75 -30 -132 -30q-46 0 -76 25t-30 71q0 60 77 118q-12 12 -16 20q-51 -43 -129 -43q-91 0 -134 46.5t-43 121.5t61.5 121.5t167.5 46.5q24 0 29 -1v32q0 26 -8 37t-34 11q-75 0 -147 -54l-63 108q120 73 232 73q74 0 123 -24.5t63 -69.5q8 -26 8 -80l-2 -178
v-47q0 -64 40 -89q-99 -65 -99 -115q0 -10 2 -14q7 -21 29 -21q21 0 48 16zM288 124v90q-89 2 -89 -57q0 -23 13 -36.5t35 -13.5q28 0 41 17z" />
    <glyph glyph-name="Cacute" unicode="&#x106;" horiz-adv-x="565" 
d="M565 59q-76 -71 -217 -71q-140 0 -228 96q-80 89 -80 251q0 127 48 216q86 158 282 158q54 0 104 -14t74 -37l-76 -132q-48 37 -104 37q-52 0 -78 -27q-26 -26 -35.5 -59t-9.5 -94q0 -92 6.5 -136t27.5 -68q37 -44 89 -44q69 0 120 46zM507 806l-231 -96l-55 88l218 121z
" />
    <glyph glyph-name="cacute" unicode="&#x107;" horiz-adv-x="469" 
d="M459 60q-73 -73 -185 -73q-110 0 -172 68.5t-62 197.5q0 130 65.5 203t181.5 73q85 0 159 -61l-80 -105q-36 38 -73 38q-33 0 -48 -28t-15 -109q0 -82 12.5 -115t48.5 -33q54 0 95 46zM434 639l-231 -96l-55 88l218 121z" />
    <glyph glyph-name="Ccircumflex" unicode="&#x108;" horiz-adv-x="565" 
d="M565 59q-76 -71 -217 -71q-140 0 -228 96q-80 89 -80 251q0 127 48 216q86 158 282 158q54 0 104 -14t74 -37l-76 -132q-48 37 -104 37q-52 0 -78 -27q-26 -26 -35.5 -59t-9.5 -94q0 -92 6.5 -136t27.5 -68q37 -44 89 -44q69 0 120 46zM561 799l-56 -93l-139 70l-135 -70
l-50 93l191 119z" />
    <glyph glyph-name="ccircumflex" unicode="&#x109;" horiz-adv-x="469" 
d="M459 60q-73 -73 -185 -73q-110 0 -172 68.5t-62 197.5q0 130 65.5 203t181.5 73q85 0 159 -61l-80 -105q-36 38 -73 38q-33 0 -48 -28t-15 -109q0 -82 12.5 -115t48.5 -33q54 0 95 46zM477 626l-56 -93l-139 70l-135 -70l-50 93l191 119z" />
    <glyph glyph-name="Cdotaccent" unicode="&#x10a;" horiz-adv-x="565" 
d="M565 59q-76 -71 -217 -71q-140 0 -228 96q-80 89 -80 251q0 127 48 216q86 158 282 158q54 0 104 -14t74 -37l-76 -132q-48 37 -104 37q-52 0 -78 -27q-26 -26 -35.5 -59t-9.5 -94q0 -92 6.5 -136t27.5 -68q37 -44 89 -44q69 0 120 46zM467 830q0 -40 -28.5 -69
t-69.5 -29q-39 0 -67.5 29t-28.5 69t29 69t70 29q40 0 67.5 -28.5t27.5 -69.5z" />
    <glyph glyph-name="cdotaccent" unicode="&#x10b;" horiz-adv-x="469" 
d="M459 60q-73 -73 -185 -73q-110 0 -172 68.5t-62 197.5q0 130 65.5 203t181.5 73q85 0 159 -61l-80 -105q-36 38 -73 38q-33 0 -48 -28t-15 -109q0 -82 12.5 -115t48.5 -33q54 0 95 46zM384 652q0 -40 -29 -69t-69 -29q-39 0 -67.5 29t-28.5 69t29 69t70 29
q40 0 67.5 -28.5t27.5 -69.5z" />
    <glyph glyph-name="Ccaron" unicode="&#x10c;" horiz-adv-x="565" 
d="M565 59q-76 -71 -217 -71q-140 0 -228 96q-80 89 -80 251q0 127 48 216q86 158 282 158q54 0 104 -14t74 -37l-76 -132q-48 37 -104 37q-52 0 -78 -27q-26 -26 -35.5 -59t-9.5 -94q0 -92 6.5 -136t27.5 -68q37 -44 89 -44q69 0 120 46zM544 842l-191 -119l-189 119l56 93
l139 -70l135 70z" />
    <glyph glyph-name="ccaron" unicode="&#x10d;" horiz-adv-x="469" 
d="M459 60q-73 -73 -185 -73q-110 0 -172 68.5t-62 197.5q0 130 65.5 203t181.5 73q85 0 159 -61l-80 -105q-36 38 -73 38q-33 0 -48 -28t-15 -109q0 -82 12.5 -115t48.5 -33q54 0 95 46zM462 678l-187 -135l-193 135l51 93l139 -70l135 70z" />
    <glyph glyph-name="Dcaron" unicode="&#x10e;" horiz-adv-x="626" 
d="M596 361q0 -183 -79 -277q-70 -84 -194 -84h-253v697h246q104 0 166 -43q114 -79 114 -293zM399 367q0 59 -7 97t-21 56t-29 24t-38 6h-55v-401h60q21 0 35.5 7.5t28 29t20 66.5t6.5 115zM488 842l-191 -119l-189 119l56 93l139 -70l135 70z" />
    <glyph glyph-name="dcaron" unicode="&#x10f;" horiz-adv-x="559" 
d="M726 622q0 -56 -39 -102q-15 -18 -43.5 -34.5t-61.5 -22.5l-58 54q29 6 46.5 18.5t17.5 23.5q0 9 -3 14t-12.5 11t-14.5 11q-26 24 -26 61q0 33 25.5 55.5t63.5 22.5q49 0 77 -30t28 -82zM518 0h-151q-6 15 -8 31q-38 -44 -112 -44q-99 0 -153 69t-54 192q0 121 56.5 201
t165.5 80q41 0 69 -18q-6 30 -6 82v139l174 -23v-504q0 -96 4 -135t15 -70zM325 135v240q-9 20 -37 20q-34 0 -46.5 -31.5t-12.5 -118.5q0 -63 11.5 -95t46.5 -32q27 0 38 17z" />
    <glyph glyph-name="Dcroat" unicode="&#x110;" horiz-adv-x="626" 
d="M591 361q0 -183 -79 -277q-70 -84 -194 -84h-253v296h-71v109h71v292h246q104 0 166 -43q114 -79 114 -293zM394 367q0 59 -7 97t-21 56t-29 24t-38 6h-55v-145h85l-24 -109h-61v-147h60q21 0 35.5 7.5t28 29t20 66.5t6.5 115z" />
    <glyph glyph-name="dcroat" unicode="&#x111;" horiz-adv-x="559" 
d="M570 665l-21 -104h-55v-356q0 -96 4 -135t15 -70h-151q-6 15 -8 31q-38 -44 -112 -44q-99 0 -153 69t-54 192q0 121 56.5 201t165.5 80q41 0 69 -18q-1 3 -1 12t-0.5 20.5t-0.5 17.5h-85v104h81v67l174 -23v-44h76zM320 135v240q-9 20 -37 20q-34 0 -46.5 -31.5
t-12.5 -118.5q0 -63 11.5 -95t46.5 -32q27 0 38 17z" />
    <glyph glyph-name="Emacron" unicode="&#x112;" horiz-adv-x="508" 
d="M488 0h-418v697h405l-13 -147h-213v-117h174v-142h-174v-142h239v-149zM443 755h-342v107h342v-107z" />
    <glyph glyph-name="emacron" unicode="&#x113;" horiz-adv-x="533" 
d="M508 203h-288q0 -21 5 -39.5t25 -36.5t53 -18q69 0 136 52l67 -100q-96 -74 -210 -74q-123 0 -189.5 71t-66.5 197q0 128 63 201t172 73q233 0 233 -279v-47zM336 316v10q0 82 -55 82q-61 0 -61 -92h116zM448 589h-342v95h342v-95z" />
    <glyph glyph-name="Edotaccent" unicode="&#x116;" horiz-adv-x="508" 
d="M488 0h-418v697h405l-13 -147h-213v-117h174v-142h-174v-142h239v-149zM369 826q0 -40 -28.5 -69t-69.5 -29q-39 0 -67.5 29t-28.5 69t29 69t70 29q40 0 67.5 -28.5t27.5 -69.5z" />
    <glyph glyph-name="edotaccent" unicode="&#x117;" horiz-adv-x="533" 
d="M508 203h-288q0 -21 5 -39.5t25 -36.5t53 -18q69 0 136 52l67 -100q-96 -74 -210 -74q-123 0 -189.5 71t-66.5 197q0 128 63 201t172 73q233 0 233 -279v-47zM336 316v10q0 82 -55 82q-61 0 -61 -92h116zM377 654q0 -40 -28.5 -69t-69.5 -29q-39 0 -67.5 29t-28.5 69
t29 69t70 29q40 0 67.5 -28.5t27.5 -69.5z" />
    <glyph glyph-name="Eogonek" unicode="&#x118;" horiz-adv-x="508" 
d="M483 0q-55 0 -84.5 -25.5t-29.5 -52.5q0 -4 2 -10q7 -21 29 -21q21 0 48 16l33 -81q-75 -30 -132 -30q-46 0 -76 25t-30 71q0 58 56 108h-234v697h405l-13 -147h-213v-117h174v-142h-174v-142h239v-149z" />
    <glyph glyph-name="eogonek" unicode="&#x119;" horiz-adv-x="533" 
d="M503 203h-288q0 -21 5 -39.5t25 -36.5t53 -18q69 0 136 52l67 -100l-27 -20q-99 -74 -99 -116q0 -5 2 -13q7 -21 29 -21q21 0 48 16l33 -81q-75 -30 -132 -30q-46 0 -76 25t-30 71q0 50 49 95h-7q-123 0 -189.5 71t-66.5 197q0 128 63 201t172 73q235 0 233 -283v-43z
M331 316q3 92 -55 92q-61 0 -61 -92h116z" />
    <glyph glyph-name="Ecaron" unicode="&#x11a;" horiz-adv-x="508" 
d="M488 0h-418v697h405l-13 -147h-213v-117h174v-142h-174v-142h239v-149zM467 842l-191 -119l-189 119l56 93l139 -70l135 70z" />
    <glyph glyph-name="ecaron" unicode="&#x11b;" horiz-adv-x="533" 
d="M508 203h-288q0 -21 5 -39.5t25 -36.5t53 -18q69 0 136 52l67 -100q-96 -74 -210 -74q-123 0 -189.5 71t-66.5 197q0 128 63 201t172 73q233 0 233 -279v-47zM336 316v10q0 82 -55 82q-61 0 -61 -92h116zM469 678l-187 -135l-193 135l51 93l139 -70l135 70z" />
    <glyph glyph-name="Gcircumflex" unicode="&#x11c;" horiz-adv-x="667" 
d="M617 620l-99 -111q-56 54 -142 54q-70 0 -101 -52t-31 -169q0 -207 124 -207q41 0 65 10v110h-85l-20 142h284v-340q-113 -69 -251 -69q-169 0 -255 119q-66 93 -66 228q0 114 45 203.5t130 133.5q69 36 159 36q141 0 243 -88zM565 799l-56 -93l-139 70l-135 -70l-50 93
l191 119z" />
    <glyph glyph-name="gcircumflex" unicode="&#x11d;" horiz-adv-x="571" 
d="M578 420q-32 -17 -61 -17q-12 0 -17 2q8 -6 16.5 -24.5t8.5 -38.5q0 -72 -62 -115.5t-150 -43.5h-56q-11 -13 -11 -18q0 -16 46 -16h75q91 0 140 -39.5t49 -109.5q0 -92 -70.5 -147.5t-209.5 -55.5q-119 0 -177.5 39t-58.5 97q0 35 7 67h156q-1 -10 -1 -31q0 -44 87 -44
q44 0 68 16t24 40q0 27 -18.5 35.5t-75.5 8.5h-91q-64 0 -99.5 26t-35.5 74q0 29 16.5 56t47.5 40q-74 38 -74 131q0 82 64 129.5t172 47.5q49 0 93 -11t62 -11q48 0 89 34zM347 352q0 59 -61 59q-60 0 -60 -59q0 -57 59 -57q62 0 62 57zM478 626l-56 -93l-139 70l-135 -70
l-50 93l191 119z" />
    <glyph glyph-name="Gbreve" unicode="&#x11e;" horiz-adv-x="667" 
d="M617 620l-99 -111q-56 54 -142 54q-70 0 -101 -52t-31 -169q0 -207 124 -207q41 0 65 10v110h-85l-20 142h284v-340q-113 -69 -251 -69q-169 0 -255 119q-66 93 -66 228q0 114 45 203.5t130 133.5q69 36 159 36q141 0 243 -88zM568 849q-31 -44 -84.5 -81t-110.5 -37
q-58 0 -115 39t-82 80l62 61q73 -63 139 -63q50 0 139 63z" />
    <glyph glyph-name="gbreve" unicode="&#x11f;" horiz-adv-x="571" 
d="M578 420q-32 -17 -61 -17q-12 0 -17 2q8 -6 16.5 -24.5t8.5 -38.5q0 -72 -62 -115.5t-150 -43.5h-56q-11 -13 -11 -18q0 -16 46 -16h75q91 0 140 -39.5t49 -109.5q0 -92 -70.5 -147.5t-209.5 -55.5q-119 0 -177.5 39t-58.5 97q0 35 7 67h156q-1 -10 -1 -31q0 -44 87 -44
q44 0 68 16t24 40q0 27 -18.5 35.5t-75.5 8.5h-91q-64 0 -99.5 26t-35.5 74q0 29 16.5 56t47.5 40q-74 38 -74 131q0 82 64 129.5t172 47.5q49 0 93 -11t62 -11q48 0 89 34zM347 352q0 59 -61 59q-60 0 -60 -59q0 -57 59 -57q62 0 62 57zM490 682q-31 -44 -84.5 -81
t-110.5 -37q-58 0 -115 39t-82 80l62 61q74 -64 139 -64q49 0 139 64z" />
    <glyph glyph-name="Gdotaccent" unicode="&#x120;" horiz-adv-x="667" 
d="M617 620l-99 -111q-56 54 -142 54q-70 0 -101 -52t-31 -169q0 -207 124 -207q41 0 65 10v110h-85l-20 142h284v-340q-113 -69 -251 -69q-169 0 -255 119q-66 93 -66 228q0 114 45 203.5t130 133.5q69 36 159 36q141 0 243 -88zM472 830q0 -40 -29 -69t-69 -29
q-39 0 -67.5 29t-28.5 69t29 69t70 29q40 0 67.5 -28.5t27.5 -69.5z" />
    <glyph glyph-name="gdotaccent" unicode="&#x121;" horiz-adv-x="571" 
d="M578 420q-32 -17 -61 -17q-12 0 -17 2q8 -6 16.5 -24.5t8.5 -38.5q0 -72 -62 -115.5t-150 -43.5h-56q-11 -13 -11 -18q0 -16 46 -16h75q91 0 140 -39.5t49 -109.5q0 -92 -70.5 -147.5t-209.5 -55.5q-119 0 -177.5 39t-58.5 97q0 35 7 67h156q-1 -10 -1 -31q0 -44 87 -44
q44 0 68 16t24 40q0 27 -18.5 35.5t-75.5 8.5h-91q-64 0 -99.5 26t-35.5 74q0 29 16.5 56t47.5 40q-74 38 -74 131q0 82 64 129.5t172 47.5q49 0 93 -11t62 -11q48 0 89 34zM347 352q0 59 -61 59q-60 0 -60 -59q0 -57 59 -57q62 0 62 57zM384 652q0 -40 -29 -69t-69 -29
q-39 0 -67.5 29t-28.5 69t29 69t70 29q40 0 67.5 -28.5t27.5 -69.5z" />
    <glyph glyph-name="Gcommaaccent" unicode="&#x122;" horiz-adv-x="667" 
d="M617 620l-99 -111q-56 54 -142 54q-70 0 -101 -52t-31 -169q0 -207 124 -207q41 0 65 10v110h-85l-20 142h284v-340q-113 -69 -251 -69q-169 0 -255 119q-66 93 -66 228q0 114 45 203.5t130 133.5q69 36 159 36q141 0 243 -88zM454 -119q0 -90 -133 -117l-84 48q5 2 16 6
t20 7.5t18 7.5t14.5 8t5.5 7q0 8 -7 11.5t-15 5.5t-15 12t-7 28q0 25 24.5 43.5t59.5 18.5q46 0 74.5 -23.5t28.5 -62.5z" />
    <glyph glyph-name="gcommaaccent" unicode="&#x123;" horiz-adv-x="571" 
d="M578 420q-32 -17 -61 -17q-12 0 -17 2q8 -6 16.5 -24.5t8.5 -38.5q0 -72 -62 -115.5t-150 -43.5h-56q-11 -13 -11 -18q0 -16 46 -16h75q91 0 140 -39.5t49 -109.5q0 -92 -70.5 -147.5t-209.5 -55.5q-119 0 -177.5 39t-58.5 97q0 35 7 67h156q-1 -10 -1 -31q0 -44 87 -44
q44 0 68 16t24 40q0 27 -18.5 35.5t-75.5 8.5h-91q-64 0 -99.5 26t-35.5 74q0 29 16.5 56t47.5 40q-74 38 -74 131q0 82 64 129.5t172 47.5q49 0 93 -11t62 -11q48 0 89 34zM347 352q0 59 -61 59q-60 0 -60 -59q0 -57 59 -57q62 0 62 57zM187 640q0 90 133 117l84 -48
q-5 -2 -16 -6t-20 -7.5t-18 -7.5t-14.5 -8t-5.5 -7q0 -8 7 -11.5t15 -5.5t15 -12t7 -28q0 -25 -24.5 -43.5t-59.5 -18.5q-46 0 -74.5 23.5t-28.5 62.5z" />
    <glyph glyph-name="Hcircumflex" unicode="&#x124;" horiz-adv-x="631" 
d="M571 0h-179v293h-143v-293h-179v697h179v-256h143v256h179v-697zM511 799l-56 -93l-139 70l-135 -70l-50 93l191 119z" />
    <glyph glyph-name="hcircumflex" unicode="&#x125;" horiz-adv-x="578" 
d="M518 0h-174v339q0 34 -6.5 44t-32.5 10q-31 0 -61 -32v-361h-174v577q0 84 -13 128l176 30q11 -49 11 -121v-82q0 -12 -0.5 -25t-0.5 -17q42 39 120 39q70 0 112.5 -32.5t42.5 -118.5v-378zM352 826l-56 -93l-139 70l-135 -70l-50 93l191 119z" />
    <glyph glyph-name="Hbar" unicode="&#x126;" horiz-adv-x="631" 
d="M566 0h-179v293h-143v-293h-179v496h-60v140h60v61h179v-61h143v61h179v-61h60v-140h-60v-496zM244 441h143v55h-143v-55z" />
    <glyph glyph-name="hbar" unicode="&#x127;" horiz-adv-x="578" 
d="M513 0h-174v339q0 34 -6.5 44t-32.5 10q-31 0 -61 -32v-361h-174v546h-36v103h33q-3 27 -10 56l176 30q8 -36 10 -86h127v-103h-126v-14q0 -12 -0.5 -25t-0.5 -17q42 39 120 39q70 0 112.5 -32.5t42.5 -118.5v-378z" />
    <glyph glyph-name="Imacron" unicode="&#x12a;" horiz-adv-x="313" 
d="M253 0h-183v697h183v-697zM334 755h-342v107h342v-107z" />
    <glyph glyph-name="imacron" unicode="&#x12b;" horiz-adv-x="304" 
d="M244 0h-174v508l174 16v-524zM339 589h-342v95h342v-95z" />
    <glyph glyph-name="Iogonek" unicode="&#x12e;" horiz-adv-x="313" 
d="M248 0q-55 0 -84.5 -25.5t-29.5 -52.5q0 -4 2 -10q7 -21 29 -21q21 0 48 16l33 -81q-75 -30 -132 -30q-46 0 -76 25t-30 71q0 57 57 108v697h183v-697z" />
    <glyph glyph-name="iogonek" unicode="&#x12f;" horiz-adv-x="304" 
d="M246 -174q-75 -30 -132 -30q-46 0 -76 25t-30 71q0 59 57 108v508l174 16v-524q-55 0 -80 -23.5t-25 -50.5q0 -6 2 -14q7 -21 29 -21q21 0 48 16zM252 652q0 -41 -29.5 -69.5t-71.5 -28.5q-41 0 -70 29t-29 69t30 69t72 29q41 0 69.5 -28.5t28.5 -69.5z" />
    <glyph glyph-name="Idotaccent" unicode="&#x130;" horiz-adv-x="313" 
d="M253 0h-183v697h183v-697zM257 826q0 -40 -28.5 -69t-69.5 -29q-39 0 -67.5 29t-28.5 69t29 69t70 29q40 0 67.5 -28.5t27.5 -69.5z" />
    <glyph glyph-name="dotlessi" unicode="&#x131;" horiz-adv-x="304" 
d="M239 0h-174v508l174 16v-524z" />
    <glyph glyph-name="Jcircumflex" unicode="&#x134;" horiz-adv-x="315" 
d="M255 47q0 -85 -56 -146.5t-137 -90.5l-82 88q62 42 77 83.5t15 141.5v574h183v-650zM355 799l-56 -93l-139 70l-135 -70l-50 93l191 119z" />
    <glyph glyph-name="jcircumflex" unicode="&#x135;" horiz-adv-x="304" 
d="M244 17q0 -109 -33.5 -160.5t-128.5 -91.5l-69 90q31 25 44 58t13 92v503l174 16v-507zM353 626l-56 -93l-139 70l-135 -70l-50 93l191 119z" />
    <glyph glyph-name="Kcommaaccent" unicode="&#x136;" horiz-adv-x="642" 
d="M662 0h-236l-175 375l154 322h222l-183 -319zM249 0h-179v697h179v-697zM432 -120q0 -90 -133 -117l-84 48q5 2 16 6t20 7.5t18 7.5t14.5 8t5.5 7q0 8 -7 11.5t-15 5.5t-15 12t-7 28q0 25 24.5 43.5t59.5 18.5q46 0 74.5 -23.5t28.5 -62.5z" />
    <glyph glyph-name="kcommaaccent" unicode="&#x137;" horiz-adv-x="563" 
d="M244 0h-174v552q0 113 -10 153l173 30q11 -64 11 -182v-553zM573 0h-195l-133 292l91 224h204l-141 -210zM410 -120q0 -90 -133 -117l-84 48q5 2 16 6t20 7.5t18 7.5t14.5 8t5.5 7q0 8 -7 11.5t-15 5.5t-15 12t-7 28q0 25 24.5 43.5t59.5 18.5q46 0 74.5 -23.5
t28.5 -62.5z" />
    <glyph glyph-name="Lacute" unicode="&#x139;" horiz-adv-x="488" 
d="M488 148l-34 -148h-384v697h181v-549h237zM308 806l-231 -96l-55 88l218 121z" />
    <glyph glyph-name="lacute" unicode="&#x13a;" horiz-adv-x="314" 
d="M332 3q-41 -16 -112 -16q-43 0 -72 9.5t-44.5 23t-23 40t-9 47t-1.5 59.5v352q0 154 -6 188l172 29q8 -50 8 -129v-383q0 -72 7 -93.5t35 -21.5q9 0 18 3zM307 844l-231 -96l-55 88l218 121z" />
    <glyph glyph-name="Lcommaaccent" unicode="&#x13b;" horiz-adv-x="488" 
d="M488 148l-34 -148h-384v697h181v-549h237zM359 -120q0 -90 -133 -117l-84 48q5 2 16 6t20 7.5t18 7.5t14.5 8t5.5 7q0 8 -7 11.5t-15 5.5t-15 12t-7 28q0 25 24.5 43.5t59.5 18.5q46 0 74.5 -23.5t28.5 -62.5z" />
    <glyph glyph-name="lcommaaccent" unicode="&#x13c;" horiz-adv-x="314" 
d="M332 3q-41 -16 -112 -16q-43 0 -72 9.5t-44.5 23t-23 40t-9 47t-1.5 59.5v352q0 154 -6 188l172 29q8 -50 8 -129v-383q0 -72 7 -93.5t35 -21.5q9 0 18 3zM297 -120q0 -90 -133 -117l-84 48q5 2 16 6t20 7.5t18 7.5t14.5 8t5.5 7q0 8 -7 11.5t-15 5.5t-15 12t-7 28
q0 25 24.5 43.5t59.5 18.5q46 0 74.5 -23.5t28.5 -62.5z" />
    <glyph glyph-name="Lcaron" unicode="&#x13d;" horiz-adv-x="488" 
d="M497 591q0 -57 -38 -102q-15 -18 -43.5 -34.5t-61.5 -22.5l-58 53q29 6 46.5 18.5t17.5 24.5q0 9 -3.5 13.5t-12.5 10.5t-15 11q-25 23 -25 61q0 33 25.5 55.5t63.5 22.5q49 0 76.5 -29.5t27.5 -81.5zM488 148l-34 -148h-384v697h181v-549h237z" />
    <glyph glyph-name="lcaron" unicode="&#x13e;" horiz-adv-x="314" 
d="M470 622q0 -57 -38 -102q-15 -18 -44 -34.5t-62 -22.5l-58 54q29 6 47 18.5t18 23.5q0 9 -3.5 14t-13 11t-14.5 11q-26 24 -26 61q0 33 25.5 55.5t63.5 22.5q49 0 77 -30t28 -82zM332 3q-41 -16 -112 -16q-43 0 -72 9.5t-44.5 23t-23 40t-9 47t-1.5 59.5v352
q0 154 -6 188l172 29q8 -50 8 -129v-383q0 -72 7 -93.5t35 -21.5q9 0 18 3z" />
    <glyph glyph-name="Lslash" unicode="&#x141;" horiz-adv-x="488" 
d="M483 148l-34 -148h-384v284l-56 -18v112l56 18v301h181v-242l170 57v-114l-170 -55v-195h237z" />
    <glyph glyph-name="lslash" unicode="&#x142;" horiz-adv-x="314" 
d="M327 3q-41 -16 -112 -16q-43 0 -72 9.5t-44.5 23t-23 40t-9 47t-1.5 59.5v104l-50 -17v112l50 17v136q0 154 -6 188l172 29q8 -50 8 -129v-166l67 23v-112l-67 -23v-105q0 -72 7 -93.5t35 -21.5q9 0 18 3z" />
    <glyph glyph-name="Nacute" unicode="&#x143;" horiz-adv-x="651" 
d="M591 0h-184l-123 242q-31 62 -54 131q10 -68 10 -177v-196h-170v697h172l127 -239q30 -55 58 -133q-6 49 -6 156v216h170v-697zM494 806l-231 -96l-55 88l218 121z" />
    <glyph glyph-name="nacute" unicode="&#x144;" horiz-adv-x="578" 
d="M518 0h-174v330q0 20 -3 32t-10 17t-12.5 6t-17.5 1q-23 0 -57 -30v-356h-174v328q0 105 -16 173l160 27q9 -26 10 -48q67 49 149 49q83 0 114 -39.5t31 -102.5v-387zM449 639l-231 -96l-55 88l218 121z" />
    <glyph glyph-name="Ncommaaccent" unicode="&#x145;" horiz-adv-x="651" 
d="M591 0h-184l-123 242q-31 62 -54 131q10 -68 10 -177v-196h-170v697h172l127 -239q30 -55 58 -133q-6 49 -6 156v216h170v-697zM429 -120q0 -90 -133 -117l-84 48q5 2 16 6t20 7.5t18 7.5t14.5 8t5.5 7q0 8 -7 11.5t-15 5.5t-15 12t-7 28q0 25 24.5 43.5t59.5 18.5
q46 0 74.5 -23.5t28.5 -62.5z" />
    <glyph glyph-name="ncommaaccent" unicode="&#x146;" horiz-adv-x="578" 
d="M518 0h-174v330q0 20 -3 32t-10 17t-12.5 6t-17.5 1q-23 0 -57 -30v-356h-174v328q0 105 -16 173l160 27q9 -26 10 -48q67 49 149 49q83 0 114 -39.5t31 -102.5v-387zM400 -120q0 -90 -133 -117l-84 48q5 2 16 6t20 7.5t18 7.5t14.5 8t5.5 7q0 8 -7 11.5t-15 5.5t-15 12
t-7 28q0 25 24.5 43.5t59.5 18.5q46 0 74.5 -23.5t28.5 -62.5z" />
    <glyph glyph-name="Ncaron" unicode="&#x147;" horiz-adv-x="651" 
d="M591 0h-184l-123 242q-31 62 -54 131q10 -68 10 -177v-196h-170v697h172l127 -239q30 -55 58 -133q-6 49 -6 156v216h170v-697zM530 842l-191 -119l-189 119l56 93l139 -70l135 70z" />
    <glyph glyph-name="ncaron" unicode="&#x148;" horiz-adv-x="578" 
d="M518 0h-174v330q0 20 -3 32t-10 17t-12.5 6t-17.5 1q-23 0 -57 -30v-356h-174v328q0 105 -16 173l160 27q9 -26 10 -48q67 49 149 49q83 0 114 -39.5t31 -102.5v-387zM478 678l-187 -135l-193 135l51 93l139 -70l135 70z" />
    <glyph glyph-name="Omacron" unicode="&#x14c;" horiz-adv-x="696" 
d="M666 375q0 -387 -312 -387q-150 0 -232 92t-82 251q0 181 88.5 279.5t231.5 98.5q85 0 147 -30t95.5 -80.5t48.5 -106t15 -117.5zM466 353q0 126 -25.5 171t-85.5 45q-115 0 -115 -218q0 -127 28.5 -174.5t88.5 -47.5q59 0 84 47t25 177zM528 755h-342v107h342v-107z" />
    <glyph glyph-name="omacron" unicode="&#x14d;" 
d="M520 271q0 -74 -21 -130t-56.5 -89t-78 -49t-90.5 -16q-112 0 -175.5 71t-63.5 198q0 122 68 197.5t181 75.5q103 0 169.5 -63.5t66.5 -194.5zM332 276q0 76 -12 104t-43 28q-29 0 -41.5 -32t-12.5 -123q0 -81 10 -112.5t45 -31.5q31 0 42.5 37t11.5 130zM448 589h-342
v95h342v-95z" />
    <glyph glyph-name="Ohungarumlaut" unicode="&#x150;" horiz-adv-x="696" 
d="M666 375q0 -387 -312 -387q-150 0 -232 92t-82 251q0 181 88.5 279.5t231.5 98.5q85 0 147 -30t95.5 -80.5t48.5 -106t15 -117.5zM466 353q0 126 -25.5 171t-85.5 45q-115 0 -115 -218q0 -127 28.5 -174.5t88.5 -47.5q59 0 84 47t25 177zM633 880l-170 -170l-96 57
l141 186zM408 900l-139 -190l-97 44l106 200z" />
    <glyph glyph-name="ohungarumlaut" unicode="&#x151;" 
d="M520 271q0 -74 -21 -130t-56.5 -89t-78 -49t-90.5 -16q-112 0 -175.5 71t-63.5 198q0 122 68 197.5t181 75.5q103 0 169.5 -63.5t66.5 -194.5zM332 276q0 76 -12 104t-43 28q-29 0 -41.5 -32t-12.5 -123q0 -81 10 -112.5t45 -31.5q31 0 42.5 37t11.5 130zM570 741
l-171 -192l-95 51l137 206zM352 753l-135 -210l-100 37l100 220z" />
    <glyph glyph-name="OE" unicode="&#x152;" horiz-adv-x="840" 
d="M815 0h-466q-151 0 -232.5 87t-81.5 244q0 179 88 272.5t232 93.5h447l-13 -147h-213v-117h174v-142h-174v-142h239v-149zM397 147v403q-21 6 -47 6q-115 0 -115 -205q0 -86 14.5 -133.5t38.5 -62t64 -14.5q26 0 45 6z" />
    <glyph glyph-name="oe" unicode="&#x153;" horiz-adv-x="817" 
d="M787 203h-288q0 -21 5 -39.5t25 -36.5t53 -18q69 0 136 52l67 -100q-96 -74 -210 -74q-99 0 -160 47q-67 -47 -146 -47q-112 0 -175.5 71t-63.5 198q0 122 68 197.5t181 75.5q81 0 140 -40q54 40 135 40q235 0 233 -283v-43zM327 276q0 76 -12 104t-43 28
q-29 0 -41.5 -32t-12.5 -123q0 -81 10 -112.5t45 -31.5q31 0 42.5 37t11.5 130zM615 316q3 92 -55 92q-61 0 -61 -92h116z" />
    <glyph glyph-name="Racute" unicode="&#x154;" horiz-adv-x="616" 
d="M611 0h-207l-73 195q-19 52 -35 66.5t-47 14.5v-276h-179v697h240q271 0 271 -199q0 -86 -40 -135t-105 -60q18 -5 37.5 -26.5t32.5 -48.5q43 -88 105 -228zM382 484q0 36 -20 51t-63 15h-50v-142h51q82 0 82 76zM445 806l-231 -96l-55 88l218 121z" />
    <glyph glyph-name="racute" unicode="&#x155;" horiz-adv-x="386" 
d="M396 516l-40 -140q-25 14 -51 14q-40 0 -61 -37v-353h-174v314q0 123 -16 187l160 27q11 -40 11 -61q48 64 106 64q29 0 65 -15zM362 639l-231 -96l-55 88l218 121z" />
    <glyph glyph-name="Rcommaaccent" unicode="&#x156;" horiz-adv-x="616" 
d="M611 0h-207l-73 195q-19 52 -35 66.5t-47 14.5v-276h-179v697h240q271 0 271 -199q0 -86 -40 -135t-105 -60q18 -5 37.5 -26.5t32.5 -48.5q43 -88 105 -228zM382 484q0 36 -20 51t-63 15h-50v-142h51q82 0 82 76zM416 -120q0 -90 -133 -117l-84 48q5 2 16 6t20 7.5
t18 7.5t14.5 8t5.5 7q0 8 -7 11.5t-15 5.5t-15 12t-7 28q0 25 24.5 43.5t59.5 18.5q46 0 74.5 -23.5t28.5 -62.5z" />
    <glyph glyph-name="rcommaaccent" unicode="&#x157;" horiz-adv-x="386" 
d="M396 516l-40 -140q-25 14 -51 14q-40 0 -61 -37v-353h-174v314q0 123 -16 187l160 27q11 -40 11 -61q48 64 106 64q29 0 65 -15zM261 -120q0 -90 -133 -117l-84 48q5 2 16 6t20 7.5t18 7.5t14.5 8t5.5 7q0 8 -7 11.5t-15 5.5t-15 12t-7 28q0 25 24.5 43.5t59.5 18.5
q46 0 74.5 -23.5t28.5 -62.5z" />
    <glyph glyph-name="Rcaron" unicode="&#x158;" horiz-adv-x="616" 
d="M611 0h-207l-73 195q-19 52 -35 66.5t-47 14.5v-276h-179v697h240q271 0 271 -199q0 -86 -40 -135t-105 -60q18 -5 37.5 -26.5t32.5 -48.5q43 -88 105 -228zM382 484q0 36 -20 51t-63 15h-50v-142h51q82 0 82 76zM485 842l-191 -119l-189 119l56 93l139 -70l135 70z" />
    <glyph glyph-name="rcaron" unicode="&#x159;" horiz-adv-x="386" 
d="M396 516l-40 -140q-25 14 -51 14q-40 0 -61 -37v-353h-174v314q0 123 -16 187l160 27q11 -40 11 -61q48 64 106 64q29 0 65 -15zM413 678l-187 -135l-193 135l51 93l139 -70l135 70z" />
    <glyph glyph-name="Sacute" unicode="&#x15a;" horiz-adv-x="627" 
d="M597 243q0 -122 -83 -188.5t-222 -66.5q-138 0 -257 63l63 140q97 -56 196 -56q98 0 98 64q0 23 -16.5 35.5t-53.5 21.5l-82 21q-170 44 -170 202q0 103 76 166.5t194 63.5q151 0 249 -68l-86 -127q-74 49 -157 49q-33 0 -52 -14t-19 -36q0 -42 68 -59l71 -18
q28 -7 48.5 -14t48 -22t44.5 -34t29.5 -51t12.5 -72zM477 806l-231 -96l-55 88l218 121z" />
    <glyph glyph-name="sacute" unicode="&#x15b;" horiz-adv-x="519" 
d="M494 171q0 -84 -66 -134t-174 -50q-100 0 -224 65l61 126q107 -66 169 -66q22 0 38 12t16 27q0 20 -14 29t-54 18l-67 14q-121 25 -121 141q0 80 57.5 128t154.5 48q25 0 48 -2.5t38.5 -6t35.5 -10.5t29 -10.5t28.5 -12.5t24.5 -11l-54 -108q-72 38 -127 38
q-20 0 -32.5 -8t-12.5 -21q0 -29 54 -41l64 -14q128 -28 128 -151zM427 639l-231 -96l-55 88l218 121z" />
    <glyph glyph-name="Scircumflex" unicode="&#x15c;" horiz-adv-x="627" 
d="M597 243q0 -122 -83 -188.5t-222 -66.5q-138 0 -257 63l63 140q97 -56 196 -56q98 0 98 64q0 23 -16.5 35.5t-53.5 21.5l-82 21q-170 44 -170 202q0 103 76 166.5t194 63.5q151 0 249 -68l-86 -127q-74 49 -157 49q-33 0 -52 -14t-19 -36q0 -42 68 -59l71 -18
q28 -7 48.5 -14t48 -22t44.5 -34t29.5 -51t12.5 -72zM537 799l-56 -93l-139 70l-135 -70l-50 93l191 119z" />
    <glyph glyph-name="scircumflex" unicode="&#x15d;" horiz-adv-x="519" 
d="M494 171q0 -84 -66 -134t-174 -50q-100 0 -224 65l61 126q107 -66 169 -66q22 0 38 12t16 27q0 20 -14 29t-54 18l-67 14q-121 25 -121 141q0 80 57.5 128t154.5 48q25 0 48 -2.5t38.5 -6t35.5 -10.5t29 -10.5t28.5 -12.5t24.5 -11l-54 -108q-72 38 -127 38
q-20 0 -32.5 -8t-12.5 -21q0 -29 54 -41l64 -14q128 -28 128 -151zM460 626l-56 -93l-139 70l-135 -70l-50 93l191 119z" />
    <glyph glyph-name="Scedilla" unicode="&#x15e;" horiz-adv-x="627" 
d="M592 243q0 -112 -70 -177.5t-191 -75.5l-7 -15q35 -3 56 -23t21 -50q0 -42 -29.5 -72t-91.5 -30q-50 0 -88 20l32 62q22 -11 48 -11q33 0 33 24t-33 24q-14 0 -28 -2l-10 17l17 55q-117 7 -221 62l63 140q97 -56 196 -56q98 0 98 64q0 23 -16.5 35.5t-53.5 21.5l-82 21
q-170 44 -170 202q0 103 76 166.5t194 63.5q151 0 249 -68l-86 -127q-74 49 -157 49q-33 0 -52 -14t-19 -36q0 -42 68 -59l71 -18q28 -7 48.5 -14t48 -22t44.5 -34t29.5 -51t12.5 -72z" />
    <glyph glyph-name="scedilla" unicode="&#x15f;" horiz-adv-x="519" 
d="M489 171q0 -78 -58 -127.5t-155 -55.5l-6 -13q35 -3 56 -23t21 -50q0 -42 -29.5 -72t-91.5 -30q-50 0 -88 20l32 62q22 -11 48 -11q33 0 33 24t-33 24q-14 0 -28 -2l-10 17l18 57q-80 11 -173 61l61 126q107 -66 169 -66q22 0 38 12t16 27q0 20 -14 29t-54 18l-67 14
q-121 25 -121 141q0 80 57.5 128t154.5 48q25 0 48 -2.5t38.5 -6t35.5 -10.5t29 -10.5t28.5 -12.5t24.5 -11l-54 -108q-72 38 -127 38q-20 0 -32.5 -8t-12.5 -21q0 -29 54 -41l64 -14q128 -28 128 -151z" />
    <glyph glyph-name="Scaron" unicode="&#x160;" horiz-adv-x="627" 
d="M502 858l-187 -135l-193 135l51 93l139 -70l135 70zM597 243q0 -122 -83 -188.5t-222 -66.5q-138 0 -257 63l63 140q97 -56 196 -56q98 0 98 64q0 23 -16.5 35.5t-53.5 21.5l-82 21q-170 44 -170 202q0 103 76 166.5t194 63.5q151 0 249 -68l-86 -127q-74 49 -157 49
q-33 0 -52 -14t-19 -36q0 -42 68 -59l71 -18q28 -7 48.5 -14t48 -22t44.5 -34t29.5 -51t12.5 -72z" />
    <glyph glyph-name="scaron" unicode="&#x161;" horiz-adv-x="519" 
d="M494 171q0 -84 -66 -134t-174 -50q-100 0 -224 65l61 126q107 -66 169 -66q22 0 38 12t16 27q0 20 -14 29t-54 18l-67 14q-121 25 -121 141q0 80 57.5 128t154.5 48q25 0 48 -2.5t38.5 -6t35.5 -10.5t29 -10.5t28.5 -12.5t24.5 -11l-54 -108q-72 38 -127 38
q-20 0 -32.5 -8t-12.5 -21q0 -29 54 -41l64 -14q128 -28 128 -151zM444 686l-187 -135l-193 135l51 93l139 -70l135 70z" />
    <glyph glyph-name="Tcommaaccent" unicode="&#x162;" horiz-adv-x="526" 
d="M546 697l-21 -148h-162v-549h-181v549h-162v148h526zM375 -120q0 -90 -133 -117l-84 48q5 2 16 6t20 7.5t18 7.5t14.5 8t5.5 7q0 8 -7 11.5t-15 5.5t-15 12t-7 28q0 25 24.5 43.5t59.5 18.5q46 0 74.5 -23.5t28.5 -62.5z" />
    <glyph glyph-name="tcommaaccent" unicode="&#x163;" horiz-adv-x="383" 
d="M373 16q-63 -30 -131 -30q-80 0 -121 27t-41 98v291h-42v114h42q0 87 6 128l173 26q-5 -46 -5 -154h95l-23 -114h-72v-208q0 -54 10.5 -71t43.5 -17q26 0 44 10zM316 -120q0 -90 -133 -117l-84 48q5 2 16 6t20 7.5t18 7.5t14.5 8t5.5 7q0 8 -7 11.5t-15 5.5t-15 12t-7 28
q0 25 24.5 43.5t59.5 18.5q46 0 74.5 -23.5t28.5 -62.5z" />
    <glyph glyph-name="Tcaron" unicode="&#x164;" horiz-adv-x="526" 
d="M546 697l-21 -148h-162v-549h-181v549h-162v148h526zM467 842l-191 -119l-189 119l56 93l139 -70l135 70z" />
    <glyph glyph-name="tcaron" unicode="&#x165;" horiz-adv-x="383" 
d="M486 697q0 -57 -38 -102q-15 -18 -44 -34.5t-62 -22.5l-58 54q29 6 47 18.5t18 23.5q0 9 -3.5 14t-13 11t-14.5 11q-26 24 -26 61q0 33 25.5 55.5t63.5 22.5q49 0 77 -30t28 -82zM373 16q-63 -30 -131 -30q-80 0 -121 27t-41 98v291h-42v114h42q0 87 6 128l173 26
q-5 -46 -5 -154h95l-23 -114h-72v-208q0 -54 10.5 -71t43.5 -17q26 0 44 10z" />
    <glyph glyph-name="Umacron" unicode="&#x16a;" horiz-adv-x="644" 
d="M589 215q0 -81 -17 -115q-25 -48 -86.5 -80t-158.5 -32q-167 0 -228 87q-21 29 -27.5 55t-6.5 93v474h180v-455q0 -107 83 -107q46 0 64 25t18 79v458h179v-482zM499 755h-342v107h342v-107z" />
    <glyph glyph-name="umacron" unicode="&#x16b;" horiz-adv-x="573" 
d="M539 41l-151 -54q-9 10 -22 47q-52 -47 -129 -47q-135 0 -162 90q-10 33 -10 125v300l174 28v-374q0 -23 11 -31t35 -8q30 0 54 26v359l174 28v-372q0 -70 26 -117zM462 589h-342v95h342v-95z" />
    <glyph glyph-name="Ubreve" unicode="&#x16c;" horiz-adv-x="644" 
d="M517 863q-30 -40 -84 -73.5t-111 -33.5q-58 0 -115 35.5t-82 72.5l62 56q72 -58 139 -58q49 0 139 58zM589 215q0 -81 -17 -115q-25 -48 -86.5 -80t-158.5 -32q-167 0 -228 87q-21 29 -27.5 55t-6.5 93v474h180v-455q0 -107 83 -107q46 0 64 25t18 79v458h179v-482z" />
    <glyph glyph-name="ubreve" unicode="&#x16d;" horiz-adv-x="573" 
d="M483 698q-30 -40 -84 -73.5t-111 -33.5q-58 0 -115 35.5t-82 72.5l62 56q72 -58 139 -58q49 0 139 58zM539 41l-151 -54q-9 10 -22 47q-52 -47 -129 -47q-135 0 -162 90q-10 33 -10 125v300l174 28v-374q0 -23 11 -31t35 -8q30 0 54 26v359l174 28v-372q0 -70 26 -117z
" />
    <glyph glyph-name="Uring" unicode="&#x16e;" horiz-adv-x="644" 
d="M589 215q0 -81 -17 -115q-25 -48 -86.5 -80t-158.5 -32q-167 0 -228 87q-21 29 -27.5 55t-6.5 93v474h180v-455q0 -107 83 -107q46 0 64 25t18 79v458h179v-482zM438 826q0 -43 -35 -74.5t-80 -31.5q-50 0 -84 31t-34 75q0 43 35 74.5t83 31.5q47 0 81 -31t34 -75z
M363 826q0 18 -12 30t-27 12q-20 0 -32 -12t-12 -30t12 -30t29 -12q19 0 30.5 12t11.5 30z" />
    <glyph glyph-name="uring" unicode="&#x16f;" horiz-adv-x="573" 
d="M539 41l-151 -54q-9 10 -22 47q-52 -47 -129 -47q-135 0 -162 90q-10 33 -10 125v300l174 28v-374q0 -23 11 -31t35 -8q30 0 54 26v359l174 28v-372q0 -70 26 -117zM415 659q0 -43 -35 -74.5t-80 -31.5q-50 0 -84 31t-34 75q0 43 35 74.5t83 31.5q47 0 81 -31t34 -75z
M340 659q0 18 -12 30t-27 12q-20 0 -32 -12t-12 -30t12 -30t29 -12q19 0 30.5 12t11.5 30z" />
    <glyph glyph-name="Uhungarumlaut" unicode="&#x170;" horiz-adv-x="644" 
d="M589 215q0 -81 -17 -115q-25 -48 -86.5 -80t-158.5 -32q-167 0 -228 87q-21 29 -27.5 55t-6.5 93v474h180v-455q0 -107 83 -107q46 0 64 25t18 79v458h179v-482zM610 880l-170 -170l-96 57l141 186zM385 900l-139 -190l-97 44l106 200z" />
    <glyph glyph-name="uhungarumlaut" unicode="&#x171;" horiz-adv-x="573" 
d="M539 41l-151 -54q-9 10 -22 47q-52 -47 -129 -47q-135 0 -162 90q-10 33 -10 125v300l174 28v-374q0 -23 11 -31t35 -8q30 0 54 26v359l174 28v-372q0 -70 26 -117zM598 741l-171 -192l-95 51l137 206zM380 753l-135 -210l-100 37l100 220z" />
    <glyph glyph-name="Uogonek" unicode="&#x172;" horiz-adv-x="644" 
d="M584 215q0 -81 -17 -115q-33 -66 -134 -98q-39 -13 -60.5 -35.5t-21.5 -43.5q0 -5 2 -11q7 -21 29 -21q21 0 48 16l33 -81q-75 -30 -132 -30q-46 0 -76 25t-30 71q0 50 46 98q-124 12 -177 85q-21 29 -27.5 55t-6.5 93v474h180v-455q0 -107 83 -107q46 0 64 25t18 79v458
h179v-482z" />
    <glyph glyph-name="uogonek" unicode="&#x173;" horiz-adv-x="573" 
d="M547 -174q-75 -30 -132 -30q-46 0 -76 25t-30 71q0 57 65 109q-2 5 -13 33q-52 -47 -129 -47q-135 0 -162 90q-10 33 -10 125v300l174 28v-374q0 -23 11 -31t35 -8q30 0 54 26v359l174 28v-372q0 -70 26 -117q-99 -65 -99 -115q0 -10 2 -14q7 -21 29 -21q21 0 48 16z" />
    <glyph glyph-name="Ydieresis" unicode="&#x178;" horiz-adv-x="571" 
d="M601 697l-223 -402v-295h-183v291l-215 406h214l61 -148q17 -43 35 -97q4 11 12 30.5t14 35t11 28.5l61 151h213zM259 814q0 -34 -25.5 -58t-60.5 -24q-36 0 -62.5 24t-26.5 58q0 35 25 59.5t60 24.5q37 0 63.5 -24.5t26.5 -59.5zM481 814q0 -34 -25.5 -58t-60.5 -24
q-36 0 -62.5 24t-26.5 58q0 35 25 59.5t60 24.5q37 0 63.5 -24.5t26.5 -59.5z" />
    <glyph glyph-name="Zacute" unicode="&#x179;" horiz-adv-x="550" 
d="M525 149l-14 -149h-476v122l231 374q29 49 40 59q-19 -5 -69 -5h-181l13 147h452v-125l-240 -392q-12 -20 -32 -37q24 6 76 6h200zM448 806l-231 -96l-55 88l218 121z" />
    <glyph glyph-name="zacute" unicode="&#x17a;" horiz-adv-x="478" 
d="M453 127l-16 -127h-402v117l201 275h-194v124h402v-124l-197 -265h206zM396 639l-231 -96l-55 88l218 121z" />
    <glyph glyph-name="Zdotaccent" unicode="&#x17b;" horiz-adv-x="550" 
d="M525 149l-14 -149h-476v122l231 374q29 49 40 59q-19 -5 -69 -5h-181l13 147h452v-125l-240 -392q-12 -20 -32 -37q24 6 76 6h200zM391 826q0 -40 -28.5 -69t-69.5 -29q-39 0 -67.5 29t-28.5 69t29 69t70 29q40 0 67.5 -28.5t27.5 -69.5z" />
    <glyph glyph-name="zdotaccent" unicode="&#x17c;" horiz-adv-x="478" 
d="M453 127l-16 -127h-402v117l201 275h-194v124h402v-124l-197 -265h206zM341 654q0 -40 -28.5 -69t-69.5 -29q-39 0 -67.5 29t-28.5 69t29 69t70 29q40 0 67.5 -28.5t27.5 -69.5z" />
    <glyph glyph-name="Zcaron" unicode="&#x17d;" horiz-adv-x="550" 
d="M474 858l-187 -135l-193 135l51 93l139 -70l135 70zM525 149l-14 -149h-476v122l231 374q29 49 40 59q-19 -5 -69 -5h-181l13 147h452v-125l-240 -392q-12 -20 -32 -37q24 6 76 6h200z" />
    <glyph glyph-name="zcaron" unicode="&#x17e;" horiz-adv-x="478" 
d="M453 127l-16 -127h-402v117l201 275h-194v124h402v-124l-197 -265h206zM430 686l-187 -135l-193 135l51 93l139 -70l135 70z" />
    <glyph glyph-name="longs" unicode="&#x17f;" horiz-adv-x="457" 
d="M323 745q90 0 164 -61l-102 -102q-39 27 -63 27q-32 0 -43.5 -19t-11.5 -69v-521h-176v379h-82v137h82v49q0 78 65 129t167 51z" />
    <glyph glyph-name="florin" unicode="&#x192;" horiz-adv-x="404" 
d="M392 720l-34 -107q-28 9 -48 9q-44 0 -48 -51l-4 -55h107l-35 -114h-76l-28 -382q-5 -63 -15.5 -104t-34 -69t-47.5 -43.5t-71 -38.5l-77 112q40 18 58 42t21 65l29 418h-41v114h48l3 63q2 44 21.5 83t50.5 59q41 25 101 25q61 0 120 -26z" />
    <glyph glyph-name="Scommaaccent" unicode="&#x218;" horiz-adv-x="627" 
d="M597 243q0 -122 -83 -188.5t-222 -66.5q-138 0 -257 63l63 140q97 -56 196 -56q98 0 98 64q0 23 -16.5 35.5t-53.5 21.5l-82 21q-170 44 -170 202q0 103 76 166.5t194 63.5q151 0 249 -68l-86 -127q-74 49 -157 49q-33 0 -52 -14t-19 -36q0 -42 68 -59l71 -18
q28 -7 48.5 -14t48 -22t44.5 -34t29.5 -51t12.5 -72zM422 -120q0 -90 -133 -117l-84 48q5 2 16 6t20 7.5t18 7.5t14.5 8t5.5 7q0 8 -7 11.5t-15 5.5t-15 12t-7 28q0 25 24.5 43.5t59.5 18.5q46 0 74.5 -23.5t28.5 -62.5z" />
    <glyph glyph-name="scommaaccent" unicode="&#x219;" horiz-adv-x="519" 
d="M494 171q0 -84 -66 -134t-174 -50q-100 0 -224 65l61 126q107 -66 169 -66q22 0 38 12t16 27q0 20 -14 29t-54 18l-67 14q-121 25 -121 141q0 80 57.5 128t154.5 48q25 0 48 -2.5t38.5 -6t35.5 -10.5t29 -10.5t28.5 -12.5t24.5 -11l-54 -108q-72 38 -127 38
q-20 0 -32.5 -8t-12.5 -21q0 -29 54 -41l64 -14q128 -28 128 -151zM371 -120q0 -90 -133 -117l-84 48q5 2 16 6t20 7.5t18 7.5t14.5 8t5.5 7q0 8 -7 11.5t-15 5.5t-15 12t-7 28q0 25 24.5 43.5t59.5 18.5q46 0 74.5 -23.5t28.5 -62.5z" />
    <glyph glyph-name="uni021A" unicode="&#x21a;" horiz-adv-x="526" 
d="M546 697l-21 -148h-162v-549h-181v549h-162v148h526zM375 -120q0 -90 -133 -117l-84 48q5 2 16 6t20 7.5t18 7.5t14.5 8t5.5 7q0 8 -7 11.5t-15 5.5t-15 12t-7 28q0 25 24.5 43.5t59.5 18.5q46 0 74.5 -23.5t28.5 -62.5z" />
    <glyph glyph-name="uni021B" unicode="&#x21b;" horiz-adv-x="383" 
d="M373 16q-63 -30 -131 -30q-80 0 -121 27t-41 98v291h-42v114h42q0 87 6 128l173 26q-5 -46 -5 -154h95l-23 -114h-72v-208q0 -54 10.5 -71t43.5 -17q26 0 44 10zM316 -120q0 -90 -133 -117l-84 48q5 2 16 6t20 7.5t18 7.5t14.5 8t5.5 7q0 8 -7 11.5t-15 5.5t-15 12t-7 28
q0 25 24.5 43.5t59.5 18.5q46 0 74.5 -23.5t28.5 -62.5z" />
    <glyph glyph-name="dotlessj" unicode="&#x237;" horiz-adv-x="304" 
d="M239 17q0 -109 -33.5 -160.5t-128.5 -91.5l-69 90q31 25 44 58t13 92v503l174 16v-507z" />
    <glyph glyph-name="circumflex" unicode="&#x2c6;" horiz-adv-x="430" 
d="M405 639l-56 -93l-139 70l-135 -70l-50 93l191 119z" />
    <glyph glyph-name="caron" unicode="&#x2c7;" horiz-adv-x="430" 
d="M405 686l-187 -135l-193 135l51 93l139 -70l135 70z" />
    <glyph glyph-name="breve" unicode="&#x2d8;" horiz-adv-x="442" 
d="M417 680q-30 -40 -84 -73.5t-111 -33.5q-58 0 -115 35.5t-82 72.5l62 56q73 -58 139 -58q49 0 139 58z" />
    <glyph glyph-name="dotaccent" unicode="&#x2d9;" horiz-adv-x="244" 
d="M219 654q0 -40 -28.5 -69t-69.5 -29q-39 0 -67.5 29t-28.5 69t29 69t70 29q40 0 67.5 -28.5t27.5 -69.5z" />
    <glyph glyph-name="ring" unicode="&#x2da;" horiz-adv-x="283" 
d="M258 659q0 -43 -35 -74.5t-80 -31.5q-50 0 -84 31t-34 75q0 43 35 74.5t83 31.5q47 0 81 -31t34 -75zM183 659q0 18 -12 30t-27 12q-20 0 -32 -12t-12 -30t12 -30t29 -12q19 0 30.5 12t11.5 30z" />
    <glyph glyph-name="ogonek" unicode="&#x2db;" horiz-adv-x="328" 
d="M283 -174q-75 -30 -132 -30q-46 0 -76 25t-30 71q0 44 29.5 79.5t62.5 55.5l100 -49q-62 -34 -62 -66q0 -21 27 -21q21 0 48 16z" />
    <glyph glyph-name="tilde" unicode="&#x2dc;" horiz-adv-x="421" 
d="M396 634q-44 -55 -123 -55q-31 0 -68 18.5t-66 18.5q-40 0 -70 -30l-44 100q48 59 117 59q32 0 70.5 -17.5t65.5 -17.5q21 0 42 9t31 20z" />
    <glyph glyph-name="hungarumlaut" unicode="&#x2dd;" horiz-adv-x="526" 
d="M501 716l-172 -191l-104 56l137 206zM273 734l-135 -210l-113 41l96 221z" />
    <glyph glyph-name="uni037E" unicode="&#x37e;" horiz-adv-x="332" 
d="M277 41q0 -70 -42 -125q-42 -52 -110 -68l-70 64q33 7 52 21.5t19 30.5q0 11 -3.5 16.5t-14 13t-16.5 13.5q-28 29 -28 75q0 40 28.5 67.5t69.5 27.5q54 0 84.5 -36t30.5 -100zM271 368q0 -43 -30.5 -73t-72.5 -30t-72 30t-30 73q0 41 30 71t72 30t72.5 -30t30.5 -71z
" />
    <glyph glyph-name="tonos" unicode="&#x384;" horiz-adv-x="297" 
d="M253 760l-123 -218l-86 32l86 233z" />
    <glyph glyph-name="dieresistonos" unicode="&#x385;" horiz-adv-x="572" 
d="M428 820l-123 -218l-86 32l86 233zM200 650q0 -34 -25.5 -58t-60.5 -24q-36 0 -62.5 24t-26.5 58q0 35 25 59.5t60 24.5q37 0 63.5 -24.5t26.5 -59.5zM547 650q0 -34 -25.5 -58t-60.5 -24q-37 0 -62.5 24t-25.5 58q0 35 24.5 59.5t59.5 24.5q38 0 64 -24.5t26 -59.5z" />
    <glyph glyph-name="Alphatonos" unicode="&#x386;" horiz-adv-x="607" 
d="M614 0h-194l-36 134h-165l-38 -134h-188l224 697h186zM122 667l-123 -218l-86 32l86 233zM348 272l-30 127q-11 46 -13 94q-3 -33 -19 -107l-28 -114h90z" />
    <glyph glyph-name="anoteleia" unicode="&#x387;" horiz-adv-x="319" 
d="M264 269q0 -42 -31 -72.5t-76 -30.5q-43 0 -72.5 30.5t-29.5 74.5q0 43 31 74.5t75 31.5q43 0 73 -31.5t30 -76.5z" />
    <glyph glyph-name="Epsilontonos" unicode="&#x388;" horiz-adv-x="508" 
d="M483 0h-418v697h405l-13 -147h-213v-117h174v-142h-174v-142h239v-149zM22 667l-123 -218l-86 32l86 233z" />
    <glyph glyph-name="Etatonos" unicode="&#x389;" horiz-adv-x="631" 
d="M566 0h-179v293h-143v-293h-179v697h179v-256h143v256h179v-697zM22 667l-123 -218l-86 32l86 233z" />
    <glyph glyph-name="Iotatonos" unicode="&#x38a;" horiz-adv-x="313" 
d="M248 0h-183v697h183v-697zM22 667l-123 -218l-86 32l86 233z" />
    <glyph glyph-name="Omicrontonos" unicode="&#x38c;" horiz-adv-x="696" 
d="M661 375q0 -387 -312 -387q-150 0 -232 92t-82 251q0 181 88.5 279.5t231.5 98.5q85 0 147 -30t95.5 -80.5t48.5 -106t15 -117.5zM461 353q0 126 -25.5 171t-85.5 45q-115 0 -115 -218q0 -127 28.5 -174.5t88.5 -47.5q59 0 84 47t25 177zM52 667l-123 -218l-86 32l86 233
z" />
    <glyph glyph-name="Upsilontonos" unicode="&#x38e;" horiz-adv-x="571" 
d="M596 697l-223 -402v-295h-183v291l-215 406h214l61 -148q17 -43 35 -97q4 11 12 30.5t14 35t11 28.5l61 151h213zM-28 667l-123 -218l-86 32l86 233z" />
    <glyph glyph-name="Omegatonos" unicode="&#x38f;" horiz-adv-x="736" 
d="M691 371q0 -57 -31 -123.5t-78 -108.5h100l-16 -139h-266v118q46 48 68.5 117t22.5 138q0 196 -121 196q-125 0 -125 -196q0 -69 22.5 -138t68.5 -117v-118h-282l16 139h81q-47 42 -76.5 108t-29.5 124q0 170 90.5 254t234.5 84q141 0 231 -85.5t90 -252.5zM62 667
l-123 -218l-86 32l86 233z" />
    <glyph glyph-name="iotadieresistonos" unicode="&#x390;" horiz-adv-x="311" 
d="M324 3q-41 -16 -112 -16q-31 0 -54.5 5t-39 12t-26 21.5t-16 26t-8 34.5t-3 37t-0.5 43v147q0 154 -6 188l169 27q8 -50 8 -128v-177q0 -72 7 -93.5t35 -21.5q9 0 18 3zM308 820l-123 -218l-86 32l86 233zM80 650q0 -34 -25.5 -58t-60.5 -24q-36 0 -62.5 24t-26.5 58
q0 35 25 59.5t60 24.5q37 0 63.5 -24.5t26.5 -59.5zM427 650q0 -34 -25.5 -58t-60.5 -24q-37 0 -62.5 24t-25.5 58q0 35 24.5 59.5t59.5 24.5q38 0 64 -24.5t26 -59.5z" />
    <glyph glyph-name="Alpha" unicode="&#x391;" horiz-adv-x="607" 
d="M614 0h-194l-36 134h-165l-38 -134h-188l224 697h186zM348 272l-30 127q-11 46 -13 94q-3 -33 -19 -107l-28 -114h90z" />
    <glyph glyph-name="Beta" unicode="&#x392;" horiz-adv-x="617" 
d="M582 215q0 -99 -59 -157t-175 -58h-283v697h309q83 0 133 -40.5t50 -130.5q0 -53 -24.5 -95t-78.5 -59q55 -14 91.5 -55.5t36.5 -101.5zM376 221q0 66 -66 66h-66v-138h68q64 0 64 72zM373 495q0 55 -60 55h-69v-121h71q58 0 58 66z" />
    <glyph glyph-name="Gamma" unicode="&#x393;" horiz-adv-x="439" 
d="M449 697l-13 -147h-190v-550h-181v697h384z" />
    <glyph glyph-name="uni0394" unicode="&#x394;" horiz-adv-x="650" 
d="M632 117l-13 -117h-599v128l205 569h210zM436 139l-86 272q-16 49 -25 113q-7 -49 -29 -118l-89 -267h229z" />
    <glyph glyph-name="Epsilon" unicode="&#x395;" horiz-adv-x="508" 
d="M483 0h-418v697h405l-13 -147h-213v-117h174v-142h-174v-142h239v-149z" />
    <glyph glyph-name="Zeta" unicode="&#x396;" horiz-adv-x="550" 
d="M520 149l-14 -149h-476v122l231 374q29 49 40 59q-19 -5 -69 -5h-181l13 147h452v-125l-240 -392q-12 -20 -32 -37q24 6 76 6h200z" />
    <glyph glyph-name="Eta" unicode="&#x397;" horiz-adv-x="631" 
d="M566 0h-179v293h-143v-293h-179v697h179v-256h143v256h179v-697z" />
    <glyph glyph-name="Theta" unicode="&#x398;" horiz-adv-x="706" 
d="M671 375q0 -80 -15 -145.5t-49.5 -122t-98.5 -88t-154 -31.5q-150 0 -234.5 92.5t-84.5 250.5q0 180 91 279t234 99q85 0 148 -30t97 -80.5t50 -106t16 -117.5zM469 292h-232q7 -91 37 -127t83 -36t79.5 35t32.5 128zM468 429q-8 79 -35 109.5t-78 30.5q-94 0 -115 -140
h228z" />
    <glyph glyph-name="Iota" unicode="&#x399;" horiz-adv-x="313" 
d="M248 0h-183v697h183v-697z" />
    <glyph glyph-name="Kappa" unicode="&#x39a;" horiz-adv-x="642" 
d="M657 0h-236l-175 375l154 322h222l-183 -319zM244 0h-179v697h179v-697z" />
    <glyph glyph-name="Lambda" unicode="&#x39b;" horiz-adv-x="595" 
d="M595 0h-194l-80 335q-8 34 -25 136q-5 -62 -24 -135l-86 -336h-186l210 697h186z" />
    <glyph glyph-name="Mu" unicode="&#x39c;" horiz-adv-x="863" 
d="M808 0h-174l-17 281q-5 73 -5 140h-1q-13 -92 -24 -131l-85 -290h-152l-74 282q-17 67 -23 140h-1q0 -78 -3 -144l-14 -278h-180l68 697h219l68 -276q15 -59 23 -132h1q8 74 27 142l71 266h212z" />
    <glyph glyph-name="Nu" unicode="&#x39d;" horiz-adv-x="651" 
d="M586 0h-184l-123 242q-31 62 -54 131q10 -68 10 -177v-196h-170v697h172l127 -239q30 -55 58 -133q-6 49 -6 156v216h170v-697z" />
    <glyph glyph-name="Xi" unicode="&#x39e;" horiz-adv-x="540" 
d="M511 0h-482l18 161h464v-161zM508 697l-18 -159h-441v159h459zM479 438l-17 -154h-401l17 154h401z" />
    <glyph glyph-name="Omicron" unicode="&#x39f;" horiz-adv-x="696" 
d="M661 375q0 -387 -312 -387q-150 0 -232 92t-82 251q0 181 88.5 279.5t231.5 98.5q85 0 147 -30t95.5 -80.5t48.5 -106t15 -117.5zM461 353q0 126 -25.5 171t-85.5 45q-115 0 -115 -218q0 -127 28.5 -174.5t88.5 -47.5q59 0 84 47t25 177z" />
    <glyph glyph-name="Pi" unicode="&#x3a0;" horiz-adv-x="625" 
d="M560 0h-179v549h-137v-549h-179v697h495v-697z" />
    <glyph glyph-name="Rho" unicode="&#x3a1;" horiz-adv-x="588" 
d="M573 480q0 -44 -11.5 -81t-39 -73t-84.5 -57t-138 -21h-56v-248h-179v697h227q138 0 209.5 -51t71.5 -166zM378 481q0 41 -18 55t-54 14h-62v-160h52q45 0 63.5 18.5t18.5 72.5z" />
    <glyph glyph-name="Sigma" unicode="&#x3a3;" horiz-adv-x="525" 
d="M509 149l-14 -149h-470v108l181 258l-172 218l16 113h454l-14 -147h-148q-60 0 -77 5q6 -6 34 -42q79 -103 110 -144l-126 -185q-16 -23 -33 -40q20 5 74 5h185z" />
    <glyph glyph-name="Tau" unicode="&#x3a4;" horiz-adv-x="526" 
d="M541 697l-21 -148h-162v-549h-181v549h-162v148h526z" />
    <glyph glyph-name="Upsilon" unicode="&#x3a5;" horiz-adv-x="571" 
d="M596 697l-223 -402v-295h-183v291l-215 406h214l61 -148q17 -43 35 -97q4 11 12 30.5t14 35t11 28.5l61 151h213z" />
    <glyph glyph-name="Phi" unicode="&#x3a6;" horiz-adv-x="824" 
d="M794 351q0 -48 -15 -92t-47.5 -84.5t-92.5 -69t-140 -37.5v-68h-175v68q-80 9 -139.5 37.5t-92 69t-47.5 84.5t-15 92t15 92t47.5 84.5t92 68.5t139.5 36v65h175v-64q80 -8 139.5 -36t92 -68.5t48 -85t15.5 -92.5zM594 350q0 53 -20 86t-75 51v-276q56 23 75.5 55
t19.5 84zM324 211v275q-40 -14 -62 -38.5t-27 -46.5t-5 -51q0 -19 1 -30.5t6 -29.5t14 -30.5t28 -26t45 -22.5z" />
    <glyph glyph-name="Chi" unicode="&#x3a7;" horiz-adv-x="594" 
d="M609 0h-217l-89 196l-91 -196h-227l217 362l-195 335h221l74 -169l73 169h215l-188 -324z" />
    <glyph glyph-name="Psi" unicode="&#x3a8;" horiz-adv-x="753" 
d="M723 424q0 -37 -7.5 -73t-27 -72.5t-48 -64t-74.5 -46t-103 -20.5v-148h-173v148q-72 3 -125 29.5t-81 68.5t-41 86t-13 92v273h171v-273q0 -58 17.5 -90t71.5 -47v410h173v-410q53 13 71 45.5t18 91.5v273h171v-273z" />
    <glyph glyph-name="uni03A9" unicode="&#x3a9;" horiz-adv-x="736" 
d="M691 371q0 -57 -31 -123.5t-78 -108.5h100l-16 -139h-266v118q46 48 68.5 117t22.5 138q0 196 -121 196q-125 0 -125 -196q0 -69 22.5 -138t68.5 -117v-118h-282l16 139h81q-47 42 -76.5 108t-29.5 124q0 170 90.5 254t234.5 84q141 0 231 -85.5t90 -252.5z" />
    <glyph glyph-name="Iotadieresis" unicode="&#x3aa;" horiz-adv-x="313" 
d="M248 0h-183v697h183v-697zM133 813q0 -34 -25.5 -58t-60.5 -24q-36 0 -62.5 24t-26.5 58q0 35 25 59.5t60 24.5q37 0 63.5 -24.5t26.5 -59.5zM355 813q0 -34 -25.5 -58t-60.5 -24q-37 0 -62.5 24t-25.5 58q0 35 24.5 59.5t59.5 24.5q38 0 64 -24.5t26 -59.5z" />
    <glyph glyph-name="Upsilondieresis" unicode="&#x3ab;" horiz-adv-x="571" 
d="M596 697l-223 -402v-295h-183v291l-215 406h214l61 -148q17 -43 35 -97q4 11 12 30.5t14 35t11 28.5l61 151h213zM253 814q0 -34 -25.5 -58t-60.5 -24q-36 0 -62.5 24t-26.5 58q0 35 25 59.5t60 24.5q37 0 63.5 -24.5t26.5 -59.5zM475 814q0 -34 -25.5 -58t-60.5 -24
q-37 0 -62.5 24t-25.5 58q0 35 24.5 59.5t59.5 24.5q38 0 64 -24.5t26 -59.5z" />
    <glyph glyph-name="alphatonos" unicode="&#x3ac;" horiz-adv-x="562" 
d="M533 76l-100 -97q-47 16 -69 65q-38 -57 -122 -57q-98 0 -152.5 71t-54.5 195q0 125 64.5 200.5t149.5 75.5q66 0 94 -50q3 21 9 37h149q-9 -36 -9 -159v-180q0 -37 8 -61t33 -40zM443 760l-123 -218l-86 32l86 233zM320 151v214q-10 20 -35 20q-15 0 -24.5 -3
t-19.5 -14.5t-15 -37.5t-5 -68q0 -74 11.5 -105t47.5 -31q28 0 40 25z" />
    <glyph glyph-name="epsilontonos" unicode="&#x3ad;" horiz-adv-x="517" 
d="M502 54q-108 -74 -240 -74q-108 0 -167.5 43t-59.5 127q0 72 85 116q-66 40 -66 103q0 72 54.5 116t149.5 44q61 0 106.5 -12.5t111.5 -46.5l-56 -110q-40 24 -68 31t-66 7q-21 0 -34.5 -8t-16.5 -15t-3 -13q0 -20 12 -28.5t41 -8.5h77v-111h-70q-61 0 -61 -49
q0 -16 16 -29t50 -13q37 0 65.5 10.5t68.5 38.5zM423 760l-123 -218l-86 32l86 233z" />
    <glyph glyph-name="etatonos" unicode="&#x3ae;" horiz-adv-x="578" 
d="M554 76l-100 -97q-48 15 -81.5 67.5t-33.5 105.5v178q0 20 -3 32t-10 17t-12.5 6t-17.5 1q-23 0 -57 -30v-356h-174v328q0 105 -16 173l160 27q9 -26 10 -48q67 49 149 49q83 0 114 -39.5t31 -102.5v-215q0 -36 8 -58t33 -38zM453 760l-123 -218l-86 32l86 233z" />
    <glyph glyph-name="iotatonos" unicode="&#x3af;" horiz-adv-x="311" 
d="M324 3q-41 -16 -112 -16q-31 0 -54.5 5t-39 12t-26 21.5t-16 26t-8 34.5t-3 37t-0.5 43v147q0 154 -6 188l169 27q8 -50 8 -128v-177q0 -72 7 -93.5t35 -21.5q9 0 18 3zM313 760l-123 -218l-86 32l86 233z" />
    <glyph glyph-name="upsilondieresistonos" unicode="&#x3b0;" horiz-adv-x="568" 
d="M508 169q0 -85 -63 -133.5t-170 -48.5q-104 0 -159.5 46t-55.5 129v340l174 28v-373q0 -45 49 -45q26 0 38.5 14t12.5 34v342l174 28v-361zM428 820l-123 -218l-86 32l86 233zM200 650q0 -34 -25.5 -58t-60.5 -24q-36 0 -62.5 24t-26.5 58q0 35 25 59.5t60 24.5
q37 0 63.5 -24.5t26.5 -59.5zM547 650q0 -34 -25.5 -58t-60.5 -24q-37 0 -62.5 24t-25.5 58q0 35 24.5 59.5t59.5 24.5q38 0 64 -24.5t26 -59.5z" />
    <glyph glyph-name="alpha" unicode="&#x3b1;" horiz-adv-x="562" 
d="M533 76l-100 -97q-47 16 -69 65q-38 -57 -122 -57q-98 0 -152.5 71t-54.5 195q0 125 64.5 200.5t149.5 75.5q66 0 94 -50q3 21 9 37h149q-9 -36 -9 -159v-180q0 -37 8 -61t33 -40zM320 151v214q-10 20 -35 20q-15 0 -24.5 -3t-19.5 -14.5t-15 -37.5t-5 -68
q0 -74 11.5 -105t47.5 -31q28 0 40 25z" />
    <glyph glyph-name="beta" unicode="&#x3b2;" horiz-adv-x="598" 
d="M573 196q0 -91 -61.5 -151t-186.5 -60q-41 0 -89 26v-193l-171 -46v674q0 268 238 268q107 0 164 -50t57 -140q0 -41 -24 -77t-65 -60q64 -23 101 -74t37 -117zM385 190q0 56 -21 81t-85 25h-15l14 124h8q41 0 55.5 22t14.5 64q0 77 -61 77q-31 0 -45 -26t-14 -84v-333
q36 -46 71 -46q78 0 78 96z" />
    <glyph glyph-name="gamma" unicode="&#x3b3;" horiz-adv-x="515" 
d="M530 516l-179 -508v-190l-172 -46v236l-118 368q-8 24 -22 24q-8 0 -24 -6l-35 106q62 29 115 29q54 0 82 -20t41 -69l19 -71q18 -69 30 -150h2q9 77 34 161l39 136h188z" />
    <glyph glyph-name="delta" unicode="&#x3b4;" 
d="M515 272q0 -74 -21 -130.5t-56.5 -89t-78 -49t-90.5 -16.5q-112 0 -175.5 70.5t-63.5 197.5q0 94 49.5 167t128.5 85q-65 51 -117 68l10 122h379l-11 -129h-127q73 -52 123 -132t50 -164zM327 275q0 64 -13 88.5t-42 24.5q-28 0 -41 -28t-13 -107q0 -81 10 -112.5
t45 -31.5q31 0 42.5 36.5t11.5 129.5z" />
    <glyph glyph-name="epsilon" unicode="&#x3b5;" horiz-adv-x="517" 
d="M502 54q-108 -74 -240 -74q-108 0 -167.5 43t-59.5 127q0 72 85 116q-66 40 -66 103q0 72 54.5 116t149.5 44q61 0 106.5 -12.5t111.5 -46.5l-56 -110q-40 24 -68 31t-66 7q-21 0 -34.5 -8t-16.5 -15t-3 -13q0 -20 12 -28.5t41 -8.5h77v-111h-70q-61 0 -61 -49
q0 -16 16 -29t50 -13q37 0 65.5 10.5t68.5 38.5z" />
    <glyph glyph-name="zeta" unicode="&#x3b6;" horiz-adv-x="484" 
d="M494 697l-11 -131q-127 -59 -193 -158.5t-66 -192.5q0 -29 17 -41t55 -12h18q48 0 82.5 -14t52.5 -38.5t25.5 -52t7.5 -60.5q0 -67 -62 -159q-28 -40 -49 -65l-104 58q45 56 45 122q0 47 -53 47h-29q-91 0 -143 43.5t-52 128.5q0 107 60 215.5t148 168.5q-21 -6 -70 -6
h-96l13 147h404z" />
    <glyph glyph-name="eta" unicode="&#x3b7;" horiz-adv-x="578" 
d="M554 76l-100 -97q-48 15 -81.5 67.5t-33.5 105.5v178q0 20 -3 32t-10 17t-12.5 6t-17.5 1q-23 0 -57 -30v-356h-174v328q0 105 -16 173l160 27q9 -26 10 -48q67 49 149 49q83 0 114 -39.5t31 -102.5v-215q0 -36 8 -58t33 -38z" />
    <glyph glyph-name="theta" unicode="&#x3b8;" horiz-adv-x="562" 
d="M525 350q0 -363 -244 -363q-71 0 -120.5 27t-75.5 78t-37 112t-11 142q0 363 246 363q72 0 121 -27t74.5 -78.5t36 -112t10.5 -141.5zM340 297h-116q2 -123 13 -154q13 -34 44 -34q21 0 34 14.5t18 48t6 56t1 69.5zM340 416q-2 95 -11.5 134t-44.5 39q-21 0 -33.5 -13.5
t-18 -43t-6.5 -51.5t-2 -65h116z" />
    <glyph glyph-name="iota" unicode="&#x3b9;" horiz-adv-x="311" 
d="M324 3q-41 -16 -112 -16q-31 0 -54.5 5t-39 12t-26 21.5t-16 26t-8 34.5t-3 37t-0.5 43v147q0 154 -6 188l169 27q8 -50 8 -128v-177q0 -72 7 -93.5t35 -21.5q9 0 18 3z" />
    <glyph glyph-name="kappa" unicode="&#x3ba;" horiz-adv-x="563" 
d="M561 0h-194l-127 279l96 237h208l-150 -223zM239 0h-174v346q0 113 -10 153l173 30q11 -64 11 -182v-347z" />
    <glyph glyph-name="lambda" unicode="&#x3bb;" horiz-adv-x="541" 
d="M550 9q-44 -22 -103 -22q-60 0 -87.5 25t-38.5 73l-36 167q-12 56 -15 106h-1q-9 -63 -20 -106l-69 -257l-178 13l128 388q23 70 35 133h48l-7 33q-15 72 -57 72q-22 0 -53 -12l-25 102q66 21 108 21q47 0 81.5 -14t52 -39t25 -42t13.5 -41l124 -474q5 -18 10 -25t14 -7
q10 0 26 8z" />
    <glyph glyph-name="uni03BC" unicode="&#x3bc;" horiz-adv-x="582" 
d="M542 44l-141 -58q-19 16 -28 44q-70 -41 -116 -41q-14 0 -20 4l-2 1q1 -11 1 -67v-108l-171 -47v732l174 31v-379q0 -23 11 -32.5t35 -9.5q23 0 54 23v363l174 36v-380q0 -70 29 -112z" />
    <glyph glyph-name="nu" unicode="&#x3bd;" horiz-adv-x="482" 
d="M497 516l-187 -516h-134l-191 506l176 17l46 -154q16 -55 37 -149h2q9 75 34 160l39 136h178z" />
    <glyph glyph-name="xi" unicode="&#x3be;" horiz-adv-x="508" 
d="M503 697l-13 -147h-171q-29 0 -49.5 -19t-20.5 -43q0 -25 18.5 -39.5t48.5 -14.5h125l-12 -141h-110q-95 0 -95 -78q0 -29 17 -41t55 -12h30q48 0 82.5 -14t52.5 -38.5t25.5 -52t7.5 -60.5q0 -67 -62 -159q-28 -40 -49 -65l-104 58q45 56 45 122q0 47 -53 47h-41
q-91 0 -143 43.5t-52 128.5q0 59 31.5 115t87.5 73v2q-83 35 -83 114q0 28 18.5 55t40.5 36q-23 -5 -68 -5h-2l12 135h431z" />
    <glyph glyph-name="omicron" unicode="&#x3bf;" 
d="M515 271q0 -74 -21 -130t-56.5 -89t-78 -49t-90.5 -16q-112 0 -175.5 71t-63.5 198q0 122 68 197.5t181 75.5q103 0 169.5 -63.5t66.5 -194.5zM327 276q0 76 -12 104t-43 28q-29 0 -41.5 -32t-12.5 -123q0 -81 10 -112.5t45 -31.5q31 0 42.5 37t11.5 130z" />
    <glyph glyph-name="pi" unicode="&#x3c0;" horiz-adv-x="581" 
d="M456 -23q-123 49 -123 164v251h-88v-392h-174v392h-44v124h541l-25 -124h-36v-237q0 -28 10.5 -43t38.5 -35z" />
    <glyph glyph-name="rho" unicode="&#x3c1;" horiz-adv-x="534" 
d="M501 278q0 -145 -57.5 -218t-163.5 -73q-40 0 -81 17q8 -22 8 -79v-106l-174 -47v504q0 121 60.5 187t173.5 66q102 0 168 -62t66 -189zM313 273q0 135 -53 135q-29 0 -41 -27t-12 -108v-135q3 -14 33 -14q21 0 36 9.5t22 21.5t10.5 34.5t4 35t0.5 37.5v11z" />
    <glyph glyph-name="sigma1" unicode="&#x3c2;" horiz-adv-x="462" 
d="M452 -30q0 -60 -51 -132q-28 -40 -49 -65l-104 58q38 47 38 103q0 12 -7.5 22.5t-26.5 21.5t-31.5 17t-41.5 19q-149 66 -149 239q0 130 65.5 203t181.5 73q85 0 159 -61l-80 -105q-36 38 -73 38q-63 0 -63 -142q0 -52 22.5 -79.5t64.5 -45.5q31 -13 51.5 -25t44.5 -31.5
t36.5 -47t12.5 -60.5z" />
    <glyph glyph-name="sigma" unicode="&#x3c3;" horiz-adv-x="558" 
d="M563 516l-25 -124h-57q34 -57 34 -121q0 -74 -21 -130t-56.5 -89t-78 -49t-90.5 -16q-112 0 -175.5 71t-63.5 198q0 120 67.5 190t181.5 70h284zM327 276q0 72 -13 94t-42 22q-18 0 -28 -7t-18 -39t-8 -93q0 -81 10 -112.5t45 -31.5q31 0 42.5 37t11.5 130z" />
    <glyph glyph-name="tau" unicode="&#x3c4;" horiz-adv-x="443" 
d="M441 516l-25 -124h-108v-198q0 -54 10.5 -71t43.5 -17q26 0 44 10l21 -100q-63 -30 -131 -30q-80 0 -121 27t-41 98v281h-114v124h421z" />
    <glyph glyph-name="upsilon" unicode="&#x3c5;" horiz-adv-x="568" 
d="M508 169q0 -85 -63 -133.5t-170 -48.5q-104 0 -159.5 46t-55.5 129v340l174 28v-373q0 -45 49 -45q26 0 38.5 14t12.5 34v342l174 28v-361z" />
    <glyph glyph-name="phi" unicode="&#x3c6;" horiz-adv-x="726" 
d="M696 255q0 -51 -11.5 -92.5t-38 -79.5t-76.5 -63.5t-121 -36.5v-165l-172 -46v211q-113 19 -180 90.5t-67 180.5q0 97 54 169t164 95v-130q-17 -15 -25.5 -39.5t-9.5 -42t-1 -48.5q0 -105 65 -140v405q43 6 99 6q86 0 156.5 -27.5t117 -91.5t46.5 -155zM514 258
q0 100 -65 133v-272q65 37 65 139z" />
    <glyph glyph-name="chi" unicode="&#x3c7;" horiz-adv-x="532" 
d="M547 0h-221l-37 80q-19 38 -23 58h-2q-6 -35 -35 -84l-31 -54h-213l178 269l-148 229l188 36l39 -68q19 -32 31 -79h1q3 42 26 85l23 44h204l-155 -242z" />
    <glyph glyph-name="psi" unicode="&#x3c8;" horiz-adv-x="706" 
d="M656 267q0 -112 -55.5 -187t-161.5 -88v-174l-172 -46v220q-217 26 -217 266v244l168 28v-304q0 -45 9.5 -65t39.5 -36v437q0 90 -13 143l174 30q11 -55 11 -99v-511q25 16 37 37.5t12 63.5v276l168 28v-263z" />
    <glyph glyph-name="omega" unicode="&#x3c9;" horiz-adv-x="734" 
d="M704 198q0 -83 -48.5 -147t-143.5 -64q-53 0 -87.5 16.5t-57.5 57.5q-24 -41 -58.5 -57.5t-88.5 -16.5q-94 0 -142 64t-48 147q0 205 154 336l116 -44q-82 -109 -82 -258q0 -102 36 -102q31 0 31 45v209h164v-209q0 -45 31 -45q36 0 36 102q0 148 -83 258l116 44
q155 -132 155 -336z" />
    <glyph glyph-name="iotadieresis" unicode="&#x3ca;" horiz-adv-x="311" 
d="M324 3q-41 -16 -112 -16q-31 0 -54.5 5t-39 12t-26 21.5t-16 26t-8 34.5t-3 37t-0.5 43v147q0 154 -6 188l169 27q8 -50 8 -128v-177q0 -72 7 -93.5t35 -21.5q9 0 18 3zM129 650q0 -34 -25.5 -58t-60.5 -24q-36 0 -62.5 24t-26.5 58q0 35 25 59.5t60 24.5
q37 0 63.5 -24.5t26.5 -59.5zM351 650q0 -34 -25.5 -58t-60.5 -24q-37 0 -62.5 24t-25.5 58q0 35 24.5 59.5t59.5 24.5q38 0 64 -24.5t26 -59.5z" />
    <glyph glyph-name="upsilondieresis" unicode="&#x3cb;" horiz-adv-x="568" 
d="M508 169q0 -85 -63 -133.5t-170 -48.5q-104 0 -159.5 46t-55.5 129v340l174 28v-373q0 -45 49 -45q26 0 38.5 14t12.5 34v342l174 28v-361zM260 650q0 -34 -25.5 -58t-60.5 -24q-36 0 -62.5 24t-26.5 58q0 35 25 59.5t60 24.5q37 0 63.5 -24.5t26.5 -59.5zM482 650
q0 -34 -25.5 -58t-60.5 -24q-37 0 -62.5 24t-25.5 58q0 35 24.5 59.5t59.5 24.5q38 0 64 -24.5t26 -59.5z" />
    <glyph glyph-name="omicrontonos" unicode="&#x3cc;" 
d="M515 271q0 -74 -21 -130t-56.5 -89t-78 -49t-90.5 -16q-112 0 -175.5 71t-63.5 198q0 122 68 197.5t181 75.5q103 0 169.5 -63.5t66.5 -194.5zM327 276q0 76 -12 104t-43 28q-29 0 -41.5 -32t-12.5 -123q0 -81 10 -112.5t45 -31.5q31 0 42.5 37t11.5 130zM443 760
l-123 -218l-86 32l86 233z" />
    <glyph glyph-name="upsilontonos" unicode="&#x3cd;" horiz-adv-x="568" 
d="M508 169q0 -85 -63 -133.5t-170 -48.5q-104 0 -159.5 46t-55.5 129v340l174 28v-373q0 -45 49 -45q26 0 38.5 14t12.5 34v342l174 28v-361zM443 760l-123 -218l-86 32l86 233z" />
    <glyph glyph-name="omegatonos" unicode="&#x3ce;" horiz-adv-x="734" 
d="M704 198q0 -83 -48.5 -147t-143.5 -64q-53 0 -87.5 16.5t-57.5 57.5q-24 -41 -58.5 -57.5t-88.5 -16.5q-94 0 -142 64t-48 147q0 205 154 336l116 -44q-82 -109 -82 -258q0 -102 36 -102q31 0 31 45v209h164v-209q0 -45 31 -45q36 0 36 102q0 148 -83 258l116 44
q155 -132 155 -336zM523 760l-123 -218l-86 32l86 233z" />
    <glyph glyph-name="beta1" unicode="&#x3d0;" horiz-adv-x="592" 
d="M562 201q0 -43 -13 -80.5t-40.5 -69.5t-76 -50t-114.5 -18t-107 49q-2 -19 -10 -32h-149q12 26 12 99v347q0 268 238 268q107 0 164 -50t57 -140q0 -41 -24 -77t-65 -60q128 -47 128 -186zM378 194q0 55 -20.5 78.5t-85.5 23.5h-9l14 124h8q41 0 55.5 22t14.5 64
q0 77 -60 77q-31 0 -44 -25.5t-13 -84.5v-325q36 -46 68 -46q72 0 72 92z" />
    <glyph glyph-name="phi1" unicode="&#x3d5;" horiz-adv-x="726" 
d="M696 255q0 -51 -11.5 -92.5t-38 -79.5t-76.5 -63.5t-121 -36.5v-165l-172 -46v211q-71 11 -121 36.5t-76.5 63.5t-38 79.5t-11.5 92.5t11.5 92.5t38 79.5t76.5 63.5t121 36.5v35q0 90 -13 143l174 30q11 -55 11 -99v-109q71 -11 121 -36.5t76.5 -63.5t38 -79.5
t11.5 -92.5zM277 119v272q-65 -37 -65 -136q0 -100 65 -136zM514 255q0 100 -65 136v-272q65 37 65 136z" />
    <glyph glyph-name="afii10023" unicode="&#x401;" horiz-adv-x="508" 
d="M483 0h-418v697h405l-13 -147h-213v-117h174v-142h-174v-142h239v-149zM238 801q0 -32 -24 -55t-58 -23q-30 0 -57 21t-27 57q0 33 24 56.5t57 23.5q35 0 60 -23.5t25 -56.5zM463 801q0 -33 -24 -55.5t-58 -22.5q-32 0 -57.5 21t-25.5 57q0 34 23 57t57 23q35 0 60 -23.5
t25 -56.5z" />
    <glyph glyph-name="afii10051" unicode="&#x402;" horiz-adv-x="702" 
d="M541 697l-21 -148h-179v-158q55 39 125 39q93 0 136 -38q41 -37 41 -113v-232q0 -85 -54 -146t-135 -91l-82 88q50 29 74 78q18 39 18 147v115q0 32 -11 43t-36 11q-41 0 -76 -32v-260h-179v549h-147v148h526z" />
    <glyph glyph-name="afii10052" unicode="&#x403;" horiz-adv-x="449" 
d="M449 697l-13 -147h-192v-550h-179v697h384zM367 806l-231 -96l-55 88l218 121z" />
    <glyph glyph-name="afii10053" unicode="&#x404;" horiz-adv-x="578" 
d="M415 425v-134h-174q0 -20 4 -54q8 -54 31 -76q29 -29 91 -29q40 0 76 14q33 13 56 32l75 -119q-38 -29 -82 -46q-61 -25 -129 -25q-188 0 -271 140q-54 91 -54 234q0 168 81 259q79 88 222 88q63 0 128 -18q47 -14 86 -37l-76 -125q-56 38 -121 38q-62 0 -90 -38
q-27 -35 -27 -104h174z" />
    <glyph glyph-name="afii10054" unicode="&#x405;" horiz-adv-x="627" 
d="M584 641l-86 -127q-36 24 -78 36q-44 13 -79 13q-31 0 -51 -13q-20 -14 -20 -37q0 -19 14 -33q17 -17 54 -26l71 -18q29 -8 49 -14.5t48 -21.5t44.5 -34t29 -51t12.5 -72q0 -119 -81 -187q-80 -68 -233 -68q-70 0 -140 20q-63 18 -108 43l63 140q48 -26 94 -40
q57 -17 102 -17q51 0 77 20q21 16 21 45q0 25 -20 38q-10 7 -50 19l-82 21q-170 43 -170 198q0 102 69 164q77 70 201 70q79 0 150 -22q55 -16 99 -46z" />
    <glyph glyph-name="afii10055" unicode="&#x406;" horiz-adv-x="313" 
d="M248 0h-183v697h183v-697z" />
    <glyph glyph-name="afii10056" unicode="&#x407;" horiz-adv-x="313" 
d="M248 0h-183v697h183v-697zM132 816q0 -31 -22 -52.5t-54 -21.5q-29 0 -55 19.5t-26 54.5q0 33 22.5 54.5t54.5 21.5q30 0 55 -20.5t25 -55.5zM338 816q0 -31 -23 -52.5t-54 -21.5q-32 0 -55.5 21.5t-23.5 52.5q0 29 20 52.5t55 23.5q33 0 57 -22t24 -54z" />
    <glyph glyph-name="afii10057" unicode="&#x408;" horiz-adv-x="315" 
d="M250 697v-650q0 -82 -56 -147q-52 -60 -137 -90l-82 88q50 29 74 78q18 39 18 147v574h183z" />
    <glyph glyph-name="afii10058" unicode="&#x409;" horiz-adv-x="952" 
d="M591 441h61q136 0 196 -47q69 -55 69 -164q0 -114 -61 -173q-58 -57 -164 -57h-280v557h-109l-3 -84q-8 -183 -21 -277q-13 -99 -54 -141q-42 -43 -140 -58l-53 -8l-37 125l26 7q29 8 49 21q25 17 36 47q14 40 21 108q13 109 17 273l3 127h444v-256zM586 299v-150h61
q31 0 48 18q18 20 18 55q0 37 -15 56q-17 21 -49 21h-63z" />
    <glyph glyph-name="afii10059" unicode="&#x40a;" horiz-adv-x="927" 
d="M566 441h61q136 0 196 -47q69 -55 69 -164q0 -114 -61 -173q-58 -57 -164 -57h-280v293h-143v-293h-179v697h179v-256h143v256h179v-256zM561 299v-150h61q31 0 48 18q18 20 18 55q0 37 -15 56q-17 21 -49 21h-63z" />
    <glyph glyph-name="afii10060" unicode="&#x40b;" horiz-adv-x="702" 
d="M541 697l-21 -148h-179v-158q55 39 125 39q57 0 95.5 -15t54.5 -40.5t21.5 -47t5.5 -48.5v-279h-179v240q0 32 -11 43t-36 11q-41 0 -76 -32v-262h-179v549h-147v148h526z" />
    <glyph glyph-name="afii10061" unicode="&#x40c;" horiz-adv-x="657" 
d="M244 697v-256h39q43 0 63 20q16 15 25 56l17 72q13 55 45 80q33 25 102 33l49 5l41 -113l-40 -11q-22 -7 -29 -12q-12 -10 -21 -38l-19 -62q-17 -54 -34 -71q-20 -22 -55 -29v-4q37 -12 59 -39q16 -19 30 -59l34 -100q9 -29 27 -41q8 -6 38 -16l28 -9l-36 -116l-53 4
q-101 7 -137 49q-23 27 -36 88l-18 84q-11 46 -29 62q-21 19 -61 19h-29v-293h-179v697h179zM497 806l-231 -96l-55 88l218 121z" />
    <glyph glyph-name="afii10062" unicode="&#x40e;" horiz-adv-x="582" 
d="M603 697l-194 -503q-3 -8 -11 -28.5t-11 -27.5t-9.5 -23.5t-9.5 -23.5t-9 -19.5t-9.5 -19t-9 -15.5t-10.5 -15t-11 -12q-40 -42 -122 -54l-56 -9l-61 120l40 7q46 7 75 32q24 20 42 70l4 11l-55 -6q-12 50 -44 133l-148 383h197l87 -270q19 -56 24 -106h4q17 100 37 160
l71 216h189zM397 890l88 -35q-13 -60 -60 -93q-48 -34 -125 -34q-75 0 -123 34q-47 33 -60 93l88 35q19 -30 41 -41q23 -11 55 -11t55 11q22 11 41 41z" />
    <glyph glyph-name="afii10145" unicode="&#x40f;" horiz-adv-x="614" 
d="M370 697h179v-697h-160v-168h-164v168h-160v697h179v-559h126v559z" />
    <glyph glyph-name="afii10017" unicode="&#x410;" horiz-adv-x="607" 
d="M614 0h-194l-36 134h-165l-38 -134h-188l224 697h186zM348 272l-30 127q-9 37 -13 98q-5 -51 -19 -111l-28 -114h90z" />
    <glyph glyph-name="afii10018" unicode="&#x411;" horiz-adv-x="608" 
d="M348 0h-283v697h461l-13 -147h-269v-116h64q44 0 70.5 -1.5t63 -12.5t62.5 -31q69 -55 69 -162q0 -112 -61 -171q-57 -56 -164 -56zM244 294v-145h61q31 0 48 17q18 18 18 52q0 37 -15 55q-17 21 -49 21h-63z" />
    <glyph glyph-name="afii10019" unicode="&#x412;" horiz-adv-x="617" 
d="M65 697h309q99 0 145 -52q38 -43 38 -119q0 -55 -25 -95q-27 -44 -78 -59q59 -15 95 -60q33 -42 33 -105q0 -93 -61 -150t-173 -57h-283v697zM244 149h68q32 0 49 20q15 18 15 52q0 29 -11 44q-16 22 -55 22h-66v-138zM244 429h71q28 0 44 18q14 16 14 48q0 24 -10 36
q-15 19 -50 19h-69v-121z" />
    <glyph glyph-name="afii10020" unicode="&#x413;" horiz-adv-x="449" 
d="M449 697l-13 -147h-192v-550h-179v697h384z" />
    <glyph glyph-name="afii10021" unicode="&#x414;" horiz-adv-x="681" 
d="M595 697v-549h72v-316h-164v168h-325v-168h-164v316h54q25 58 41 119q20 75 32 164q12 98 13 157l4 109h437zM416 559h-112l-3 -74q-3 -57 -15 -138q-9 -60 -26 -115q-17 -54 -37 -94h193v421z" />
    <glyph glyph-name="afii10022" unicode="&#x415;" horiz-adv-x="508" 
d="M483 0h-418v697h405l-13 -147h-213v-117h174v-142h-174v-142h239v-149z" />
    <glyph glyph-name="afii10024" unicode="&#x416;" horiz-adv-x="976" 
d="M574 697v-256h29q43 0 62 18q4 3 7 6.5t5.5 8.5l4 8t3 9l2 8t2.5 9t2 9l17 72q13 55 45 80q33 25 102 33l49 5l41 -113l-40 -11q-22 -7 -29 -12q-12 -10 -21 -38l-19 -62q-17 -54 -34 -71q-20 -22 -55 -29v-4q37 -12 59 -39q16 -19 30 -59l34 -100q9 -29 27 -41
q8 -6 38 -16l28 -9l-36 -116l-53 4q-101 7 -137 49q-23 27 -36 88l-18 84q-10 47 -29 64q-20 17 -61 17h-19v-293h-172v293h-19q-41 0 -61 -17q-19 -17 -29 -64l-18 -84q-13 -61 -36 -88q-36 -42 -137 -49l-53 -4l-36 116l28 9q30 10 38 16q18 12 27 41l34 100q14 40 30 59
q22 27 59 39v4q-35 7 -55 29q-17 17 -34 71l-19 62q-9 28 -21 38q-7 5 -29 12l-40 11l41 113l49 -5q69 -8 102 -33q32 -25 45 -80l17 -72q0 -2 2 -9t2.5 -9l2 -8t3 -9l4 -8t5.5 -8.5t7 -6.5q19 -18 62 -18h29v256h172z" />
    <glyph glyph-name="afii10025" unicode="&#x417;" 
d="M205 291h-49v134h44q56 0 78 19q21 16 21 52q0 31 -17 48q-21 21 -66 21q-63 0 -120 -36l-76 123q33 22 73 34q73 23 155 23q56 0 98.5 -11.5t68 -29.5t41.5 -43.5t22 -50.5t6 -53q0 -52 -25 -89q-27 -41 -78 -58q58 -14 95 -58q34 -43 34 -108q0 -99 -65 -156
q-72 -64 -215 -64q-83 0 -148 25q-43 16 -84 46l75 119q30 -22 61 -33q32 -13 74 -13q54 0 78 21q24 19 24 59q0 43 -23 62q-20 17 -82 17z" />
    <glyph glyph-name="afii10026" unicode="&#x418;" horiz-adv-x="667" 
d="M602 0h-179v289q0 53 6 131q-19 -55 -47 -119l-128 -301h-189v697h179v-289q0 -53 -6 -131q19 52 47 119l128 301h189v-697z" />
    <glyph glyph-name="afii10027" unicode="&#x419;" horiz-adv-x="667" 
d="M602 0h-179v289q0 53 6 131q-19 -55 -47 -119l-128 -301h-189v697h179v-289q0 -53 -6 -131q19 52 47 119l128 301h189v-697zM429 900l88 -35q-13 -60 -60 -93q-45 -33 -124 -33t-124 33q-47 33 -60 93l88 35q19 -30 41 -41q23 -11 55 -11t55 11q22 11 41 41z" />
    <glyph glyph-name="afii10028" unicode="&#x41a;" horiz-adv-x="657" 
d="M244 697v-256h39q43 0 63 20q16 15 25 56l17 72q13 55 45 80q33 25 102 33l49 5l41 -113l-40 -11q-22 -7 -29 -12q-12 -10 -21 -38l-19 -62q-17 -54 -34 -71q-20 -22 -55 -29v-4q37 -12 59 -39q16 -19 30 -59l34 -100q9 -29 27 -41q8 -6 38 -16l28 -9l-36 -116l-53 4
q-101 7 -137 49q-23 27 -36 88l-18 84q-11 46 -29 62q-21 19 -61 19h-29v-293h-179v697h179z" />
    <glyph glyph-name="afii10029" unicode="&#x41b;" horiz-adv-x="666" 
d="M591 0h-179v557h-109l-3 -84q-8 -183 -21 -277q-13 -99 -54 -141q-42 -43 -140 -58l-53 -8l-37 125l26 7q29 8 49 21q25 17 36 47q14 40 21 108q13 109 17 273l3 127h444v-697z" />
    <glyph glyph-name="afii10030" unicode="&#x41c;" horiz-adv-x="863" 
d="M808 0h-174l-17 301q-4 67 -5 120h-1q-17 -86 -24 -111l-85 -310h-152l-74 302q-14 61 -23 120h-1q1 -35 -3 -124l-14 -298h-180l68 697h219l68 -296q17 -77 23 -112h1q11 57 27 122l71 286h212z" />
    <glyph glyph-name="afii10031" unicode="&#x41d;" horiz-adv-x="631" 
d="M566 0h-179v293h-143v-293h-179v697h179v-256h143v256h179v-697z" />
    <glyph glyph-name="afii10032" unicode="&#x41e;" horiz-adv-x="696" 
d="M661 375q0 -179 -71 -279q-78 -108 -241 -108q-161 0 -243 107q-71 92 -71 236q0 190 102 292q86 86 218 86q165 0 246 -117q60 -86 60 -217zM461 353q0 151 -39 190q-26 26 -67 26q-58 0 -87 -46q-33 -52 -33 -172q0 -153 44 -195q27 -27 73 -27q45 0 71 27
q38 39 38 197z" />
    <glyph glyph-name="afii10033" unicode="&#x41f;" horiz-adv-x="623" 
d="M558 0h-179v556h-135v-556h-179v697h493v-697z" />
    <glyph glyph-name="afii10034" unicode="&#x420;" horiz-adv-x="588" 
d="M65 697h227q142 0 208 -50q73 -55 73 -167q0 -119 -78 -180q-66 -52 -195 -52h-56v-248h-179v697zM244 390h52q41 0 58 13q24 19 24 74q0 39 -13 54q-17 20 -59 20h-62v-161z" />
    <glyph glyph-name="afii10035" unicode="&#x421;" horiz-adv-x="565" 
d="M543 658l-76 -132q-46 37 -104 37q-49 0 -78 -27q-21 -20 -32 -51.5t-12 -50t-1 -51.5q0 -94 6.5 -135.5t27.5 -68.5q34 -45 89 -45q72 0 120 47l77 -122q-82 -71 -217 -71q-142 0 -228 96q-80 90 -80 251q0 130 48 216q87 158 282 158q115 0 178 -51z" />
    <glyph glyph-name="afii10036" unicode="&#x422;" horiz-adv-x="526" 
d="M541 697l-21 -148h-162v-549h-181v549h-162v148h526z" />
    <glyph glyph-name="afii10037" unicode="&#x423;" horiz-adv-x="582" 
d="M603 697l-194 -503q-3 -8 -11 -28.5t-11 -27.5t-9.5 -23.5t-9.5 -23.5t-9 -19.5t-9.5 -19t-9 -15.5t-10.5 -15t-11 -12q-40 -42 -122 -54l-56 -9l-61 120l40 7q46 7 75 32q24 20 42 70l4 11l-55 -6q-12 50 -44 133l-148 383h197l87 -270q19 -56 24 -106h4q17 100 37 160
l71 216h189z" />
    <glyph glyph-name="afii10038" unicode="&#x424;" horiz-adv-x="813" 
d="M496 0h-179v107h-34q-108 0 -167 44q-87 65 -87 222q0 148 67 210q60 55 187 55h34v97h179v-97h34q127 0 187 -55q67 -62 67 -210q0 -157 -87 -222q-59 -44 -167 -44h-34v-107zM329 502h-20q-50 0 -71 -19q-29 -26 -29 -108q0 -84 29 -111q23 -21 73 -21h18v259zM484 502
v-259h18q50 0 73 21q29 27 29 111q0 82 -29 108q-21 19 -71 19h-20z" />
    <glyph glyph-name="afii10039" unicode="&#x425;" horiz-adv-x="594" 
d="M609 0h-217l-89 196l-91 -196h-227l217 362l-195 335h221l74 -169l73 169h215l-188 -324z" />
    <glyph glyph-name="afii10040" unicode="&#x426;" horiz-adv-x="658" 
d="M377 697h179v-549h72v-316h-164v168h-399v697h179v-559h133v559z" />
    <glyph glyph-name="afii10041" unicode="&#x427;" horiz-adv-x="589" 
d="M524 0h-179v264q-53 -20 -115 -20q-93 0 -140 41q-50 45 -50 144v268h179v-227q0 -49 13 -67q14 -21 51 -21q29 0 62 11v304h179v-697z" />
    <glyph glyph-name="afii10042" unicode="&#x428;" horiz-adv-x="857" 
d="M234 697v-557h110v557h169v-557h110v557h169v-697h-727v697h169z" />
    <glyph glyph-name="afii10043" unicode="&#x429;" horiz-adv-x="879" 
d="M234 697v-557h110v557h169v-557h110v557h169v-549h72v-316h-164v168h-635v697h169z" />
    <glyph glyph-name="afii10044" unicode="&#x42a;" horiz-adv-x="692" 
d="M331 441h61q136 0 196 -47q69 -55 69 -164q0 -114 -61 -173q-58 -57 -164 -57h-280v549h-152v148h331v-256zM326 299v-150h61q31 0 48 18q18 20 18 55q0 37 -15 56q-17 21 -49 21h-63z" />
    <glyph glyph-name="afii10045" unicode="&#x42b;" horiz-adv-x="888" 
d="M244 441h61q136 0 196 -47q69 -55 69 -164q0 -114 -61 -173q-58 -57 -164 -57h-280v697h179v-256zM644 697h179v-697h-179v697zM239 299v-150h61q31 0 48 18q18 20 18 55q0 37 -15 56q-17 21 -49 21h-63z" />
    <glyph glyph-name="afii10046" unicode="&#x42c;" horiz-adv-x="605" 
d="M244 441h61q136 0 196 -47q69 -55 69 -164q0 -114 -61 -173q-58 -57 -164 -57h-280v697h179v-256zM239 299v-150h61q31 0 48 18q18 20 18 55q0 37 -15 56q-17 21 -49 21h-63z" />
    <glyph glyph-name="afii10047" unicode="&#x42d;" horiz-adv-x="581" 
d="M169 425h174q0 69 -27 104q-28 38 -90 38q-65 0 -121 -38l-76 125q39 23 86 37q65 18 128 18q143 0 222 -88q81 -91 81 -259q0 -143 -54 -234q-83 -140 -271 -140q-68 0 -129 25q-44 17 -82 46l75 119q23 -19 56 -32q36 -14 76 -14q62 0 91 29q23 22 31 76q4 34 4 54
h-174v134z" />
    <glyph glyph-name="afii10048" unicode="&#x42e;" horiz-adv-x="971" 
d="M244 441h92q7 60 32.5 112.5t62.5 85.5q78 70 204 70q163 0 242 -117q59 -87 59 -217q0 -180 -70 -279q-74 -108 -237 -108q-169 0 -243 108q-57 81 -57 197h-85v-293h-179v697h179v-256zM635 569q-56 0 -83 -46q-29 -48 -29 -172q0 -156 39 -195q27 -27 70 -27
q42 0 68 27q19 20 27.5 62.5t8.5 134.5q0 152 -37 190q-26 26 -64 26z" />
    <glyph glyph-name="afii10049" unicode="&#x42f;" horiz-adv-x="672" 
d="M428 268h-35q-40 0 -61 -19q-20 -18 -29 -62l-12 -59q-12 -60 -36 -88q-16 -19 -42.5 -30t-44.5 -13.5t-50 -5.5l-55 -5l-38 120l30 6q20 4 38 16q20 14 27 41l19 65q12 40 30 62q25 30 68 38v3q-60 10 -97 49q-42 42 -42 113q0 101 69 153q61 45 190 45h250v-697h-179
v268zM433 557h-55q-36 0 -55.5 -12.5t-23.5 -26.5t-4 -34q0 -76 82 -76h56v149z" />
    <glyph glyph-name="afii10065" unicode="&#x430;" horiz-adv-x="526" 
d="M500 76l-100 -97q-46 21 -64 51q-50 -43 -133 -43q-81 0 -127 44t-46 118q0 89 74 136q71 44 184 37v32q0 26 -7 36q-9 12 -35 12q-28 0 -56 -7q-45 -13 -91 -47l-63 108q51 31 104 50q65 23 128 23q74 0 122 -24q50 -25 64 -70q8 -26 8 -80l-2 -178q-1 -74 40 -101z
M288 124v90h-6q-40 0 -59 -12q-24 -15 -24 -44q0 -18 8 -31q13 -20 40 -20q13 0 25 6q10 5 16 11z" />
    <glyph glyph-name="afii10066" unicode="&#x431;" horiz-adv-x="558" 
d="M459 763l60 -139q-36 -23 -115 -49q-19 -6 -79.5 -23.5t-80.5 -25.5q-44 -19 -60 -51q-12 -25 -12 -57h3q16 28 49 49q45 27 97 27q82 0 135 -50q30 -28 46 -65.5t18.5 -62.5t2.5 -64q0 -133 -64 -199q-63 -66 -175 -66q-118 0 -184 79q-62 73 -62 223q0 161 34 240
q48 114 200 165l64 21q86 29 123 48zM335 245q0 90 -18 111q-14 16 -37 16q-16 0 -31 -13q-23 -22 -23 -116q0 -71 8 -97q10 -37 47 -37q30 0 42 33q12 35 12 103z" />
    <glyph glyph-name="afii10067" unicode="&#x432;" horiz-adv-x="563" 
d="M65 516h274q72 0 113 -31q44 -34 44 -99q0 -48 -23 -79q-20 -26 -53 -34q38 -6 65 -33q33 -33 33 -93q0 -75 -50 -113q-45 -34 -124 -34h-279v516zM235 220v-120h53q28 0 42 19q11 14 11 43q0 26 -12 41q-14 17 -41 17h-53zM235 416v-100h43q24 0 36 12q12 13 12 39
q0 25 -10 36q-11 13 -41 13h-40z" />
    <glyph glyph-name="afii10068" unicode="&#x433;" horiz-adv-x="439" 
d="M239 0h-174v516h365l-20 -130h-171v-386z" />
    <glyph glyph-name="afii10069" unicode="&#x434;" horiz-adv-x="600" 
d="M585 110v-254h-164v144h-257v-144h-165v254h43q40 66 54.5 141t18.5 203l2 62h404v-406h64zM347 406h-84l-2 -40q-6 -108 -17 -155q-13 -60 -40 -101h143v296z" />
    <glyph glyph-name="afii10070" unicode="&#x435;" horiz-adv-x="532" 
d="M503 203h-288q0 -34 13 -57q21 -37 70 -37q71 0 136 52l67 -100q-93 -74 -210 -74q-110 0 -175 57q-81 71 -81 211q0 130 64 202q63 72 180 72q105 0 165 -70q59 -70 59 -213v-43zM215 316h116v5q0 35 -7 54q-14 33 -49 33q-25 0 -40 -16q-20 -23 -20 -68v-8z" />
    <glyph glyph-name="afii10072" unicode="&#x436;" horiz-adv-x="793" 
d="M315 502l163 28v-198h18q42 0 54 49l11 49q11 44 34 66q25 24 85 29l58 4l28 -112l-30 -6q-15 -3 -22 -8q-10 -7 -18 -28l-13 -40q-5 -15 -9.5 -23.5t-18.5 -20.5t-35 -15v-3q20 -6 34 -18.5t19 -22t12 -27.5l22 -56q8 -24 21 -33q11 -7 27 -10l31 -4l-28 -115l-55 3
q-75 3 -107 35q-21 21 -33 69l-17 70q-6 26 -18 37t-37 11h-13v-212h-163v212h-13q-44 0 -55 -48l-17 -70q-12 -48 -33 -69q-32 -32 -107 -35l-55 -3l-28 115l31 4q16 3 27 10q13 9 21 33l22 56q7 18 12 27.5t19 22t34 18.5v3q-21 3 -35 15t-18.5 20.5t-9.5 23.5l-13 40
q-8 21 -18 28q-7 5 -22 8l-30 6l28 112l58 -4q60 -5 85 -29q23 -22 34 -66l11 -49q3 -13 5 -18.5t8.5 -14.5t18.5 -12.5t31 -3.5h9v170z" />
    <glyph glyph-name="afii10073" unicode="&#x437;" horiz-adv-x="484" 
d="M151 321h36q37 0 51 11q13 13 13 33q0 21 -13 32q-13 12 -41 12q-30 0 -56 -13q-22 -11 -36 -26l-80 98q27 24 69 40q56 21 126 21q97 0 148 -36q56 -40 56 -113q0 -37 -18 -65q-22 -33 -60 -44q42 -9 67 -38q26 -30 26 -81q0 -72 -54 -116q-59 -49 -168 -49
q-71 0 -122 21q-46 19 -81 52l73 96q17 -21 41 -34q28 -15 64 -15q29 0 45 11q20 14 20 42q0 30 -20 43q-17 12 -46 12h-40v106z" />
    <glyph glyph-name="afii10074" unicode="&#x438;" horiz-adv-x="608" 
d="M239 0h-174v502l174 28v-187q0 -59 -5 -127h3q1 3 50 115l82 182l174 17v-530h-174v160q0 59 5 127h-3q-13 -35 -36 -85z" />
    <glyph glyph-name="afii10075" unicode="&#x439;" horiz-adv-x="608" 
d="M239 0h-174v502l174 28v-187q0 -59 -5 -127h3q1 3 50 115l82 182l174 17v-530h-174v160q0 59 5 127h-3q-13 -35 -36 -85zM391 724l80 -34q-12 -59 -54 -92q-41 -32 -113 -32t-113 32q-42 33 -54 92l80 34q15 -28 37 -40q22 -11 50 -11t50 11q22 12 37 40z" />
    <glyph glyph-name="afii10076" unicode="&#x43a;" horiz-adv-x="570" 
d="M65 502l174 28v-198h19q19 0 31 3.5t18.5 12.5t8.5 14.5t5 18.5l11 49q11 44 34 66q25 24 85 29l58 4l28 -112l-30 -6q-15 -3 -22 -8q-10 -7 -18 -28l-13 -40q-5 -15 -9.5 -23.5t-18.5 -20.5t-35 -15v-3q20 -6 34 -18.5t19 -22t12 -27.5l22 -56q8 -24 21 -33
q11 -7 27 -10l31 -4l-28 -115l-55 3q-75 3 -107 35q-21 21 -33 69l-17 70q-11 48 -55 48h-23v-212h-174v502z" />
    <glyph glyph-name="afii10077" unicode="&#x43b;" horiz-adv-x="578" 
d="M513 0h-174v396h-81l-1 -26q-1 -45 -6 -111q-8 -92 -16 -136q-12 -64 -48 -92q-36 -29 -105 -36l-63 -6l-32 114l41 12q29 9 43 26q12 16 18 50q9 55 14 127q3 42 7 122l3 76h400v-516z" />
    <glyph glyph-name="afii10078" unicode="&#x43c;" horiz-adv-x="696" 
d="M428 516h176l52 -516h-149l-11 240q-2 22 -3 66q-4 -25 -15 -60l-70 -246h-129l-61 239q-8 29 -13 56q0 -20 -2 -58l-9 -237h-154l56 516h182l58 -235q4 -14 14 -76q7 42 18 84z" />
    <glyph glyph-name="afii10079" unicode="&#x43d;" horiz-adv-x="578" 
d="M239 0h-174v502l174 28v-198h100v170l174 28v-530h-174v212h-100v-212z" />
    <glyph glyph-name="afii10080" unicode="&#x43e;" 
d="M515 271q0 -147 -82 -222q-68 -62 -164 -62q-113 0 -177 74q-62 72 -62 185q0 133 70 209q68 74 179 74q109 0 170 -63q66 -68 66 -195zM327 267q0 101 -18 124q-13 17 -37 17q-18 0 -31 -13q-14 -16 -18.5 -47t-4.5 -105q0 -67 8 -97q10 -37 47 -37q30 0 42 33
q12 34 12 125z" />
    <glyph glyph-name="afii10081" unicode="&#x43f;" horiz-adv-x="568" 
d="M239 0h-174v516h438v-516h-174v392h-90v-392z" />
    <glyph glyph-name="afii10082" unicode="&#x440;" horiz-adv-x="566" 
d="M49 501l160 27q5 -14 11 -46q13 23 47.5 35t68.5 12q102 0 153 -74q42 -61 42 -171q0 -151 -61 -227q-56 -70 -162 -70q-34 0 -77 17q8 -24 8 -79v-106l-174 -47v556q0 97 -16 173zM239 369v-231q9 -14 36 -14q26 0 40 12q30 25 30 135q0 78 -12 100q-13 24 -40 24
q-38 0 -54 -26z" />
    <glyph glyph-name="afii10083" unicode="&#x441;" horiz-adv-x="469" 
d="M381 162l73 -102q-73 -73 -185 -73q-109 0 -169 66q-65 70 -65 200q0 132 66 204q65 72 181 72q91 0 159 -61l-80 -105q-38 38 -73 38q-26 0 -40 -15q-23 -25 -23 -127q0 -93 18 -121q13 -22 43 -22q56 0 95 46z" />
    <glyph glyph-name="afii10084" unicode="&#x442;" horiz-adv-x="446" 
d="M305 0h-174v392h-123v124h440l-20 -124h-123v-392z" />
    <glyph glyph-name="afii10085" unicode="&#x443;" horiz-adv-x="550" 
d="M555 516l-196 -517q-18 -48 -27.5 -70.5t-34.5 -61t-55 -59.5q-57 -41 -147 -45l-61 112q73 13 111 41q40 28 63 84h-48q-9 48 -37 133l-128 378l178 13l77 -270q14 -46 24 -106h1q15 98 35 160l69 208h176z" />
    <glyph glyph-name="afii10086" unicode="&#x444;" horiz-adv-x="766" 
d="M470 735v-231q33 25 85 25q89 0 135 -68q46 -70 46 -204q0 -132 -51 -199q-52 -71 -152 -71q-36 0 -63 15v-205h-174v205q-27 -15 -63 -15q-100 0 -152 71q-51 67 -51 199q0 134 46 204q46 68 135 68q52 0 85 -25v201zM302 138v242q-23 15 -41 15q-20 0 -33 -13
q-22 -22 -22 -119q0 -101 28 -126q15 -13 37 -13q19 0 31 14zM464 380v-242q12 -14 31 -14q37 0 52 36q13 32 13 107q0 93 -22 115q-13 13 -33 13q-19 0 -41 -15z" />
    <glyph glyph-name="afii10087" unicode="&#x445;" horiz-adv-x="532" 
d="M547 0h-221l-37 80q-21 45 -23 58h-2q-11 -43 -35 -84l-31 -54h-213l178 269l-148 229l188 36l39 -68q22 -36 31 -79h1q5 47 26 85l23 44h204l-155 -242z" />
    <glyph glyph-name="afii10088" unicode="&#x446;" horiz-adv-x="587" 
d="M239 530v-416h90v388l174 28v-416h64v-258h-164v144h-338v502z" />
    <glyph glyph-name="afii10089" unicode="&#x447;" horiz-adv-x="511" 
d="M288 0v195q-54 -17 -101 -17q-82 0 -120 38q-38 37 -38 114v172l174 28v-197q0 -26 12 -36q9 -8 30 -8q19 0 43 8v205l174 28v-530h-174z" />
    <glyph glyph-name="afii10090" unicode="&#x448;" horiz-adv-x="740" 
d="M213 530v-416h75v388l164 28v-416h75v388l164 28v-530h-642v502z" />
    <glyph glyph-name="afii10091" unicode="&#x449;" horiz-adv-x="791" 
d="M229 530v-416h75v388l164 28v-416h75v388l164 28v-420h64v-244h-164v134h-542v502z" />
    <glyph glyph-name="afii10092" unicode="&#x44a;" horiz-adv-x="608" 
d="M294 346h69q98 0 145 -39q55 -46 55 -138q0 -86 -50 -131q-43 -38 -121 -38h-272v392h-108l-10 124h292v-170zM289 234v-120h42q28 0 43 15t15 44q0 33 -17 48q-14 13 -44 13h-39z" />
    <glyph glyph-name="afii10093" unicode="&#x44b;" horiz-adv-x="819" 
d="M65 502l174 28v-184h69q98 0 145 -39q55 -46 55 -138q0 -86 -50 -131q-43 -38 -121 -38h-272v502zM754 0h-174v502l174 28v-530zM234 234v-120h42q28 0 43 15t15 44q0 33 -17 48q-14 13 -44 13h-39z" />
    <glyph glyph-name="afii10094" unicode="&#x44c;" horiz-adv-x="553" 
d="M65 502l174 28v-184h69q98 0 145 -39q55 -46 55 -138q0 -86 -50 -131q-43 -38 -121 -38h-272v502zM234 234v-120h42q28 0 43 15t15 44q0 33 -17 48q-14 13 -44 13h-39z" />
    <glyph glyph-name="afii10095" unicode="&#x44d;" horiz-adv-x="461" 
d="M139 323h104v13q0 47 -20 63q-11 10 -35 10q-30 0 -56 -13q-22 -12 -34 -26l-80 98q27 25 64 40q52 21 115 21q111 0 172 -71q62 -73 62 -205q0 -127 -58 -196q-59 -70 -175 -70q-66 0 -115 21q-44 18 -78 52l73 96q18 -24 46 -37q26 -12 56 -12q21 0 38 11q25 16 25 82
v13h-104v110z" />
    <glyph glyph-name="afii10096" unicode="&#x44e;" horiz-adv-x="805" 
d="M239 530v-198h74q16 85 64 134q61 63 166 63q106 0 167 -63q65 -66 65 -195q0 -147 -81 -222q-66 -62 -161 -62q-118 0 -176 74q-46 59 -51 151h-67v-212h-174v502zM536 408q-17 0 -29 -13q-14 -15 -17.5 -45t-3.5 -107q0 -86 13 -112q12 -22 38 -22q29 0 39 33
q11 36 11 125q0 103 -17 125q-12 16 -34 16z" />
    <glyph glyph-name="afii10097" unicode="&#x44f;" horiz-adv-x="554" 
d="M489 516v-516h-174v188h-29q-23 0 -32.5 -12.5t-15.5 -35.5l-13 -46q-14 -50 -33 -69q-32 -32 -107 -35l-55 -3l-30 115l31 4q16 3 27 10q13 10 21 33l11 34q15 45 61 60v4q-36 8 -61 31q-34 32 -34 92q0 80 60 119q41 27 104 27h269zM320 412h-24q-26 0 -42 -10
q-21 -14 -21 -49t18 -50q14 -11 46 -11h23v120z" />
    <glyph glyph-name="afii10071" unicode="&#x451;" horiz-adv-x="532" 
d="M503 203h-288q0 -34 13 -57q21 -37 70 -37q71 0 136 52l67 -100q-93 -74 -210 -74q-110 0 -175 57q-81 71 -81 211q0 130 64 202q63 72 180 72q105 0 165 -70q59 -70 59 -213v-43zM242 640q0 -31 -22 -52.5t-54 -21.5q-33 0 -56.5 21.5t-23.5 52.5q0 33 22.5 54.5
t53.5 21.5q34 0 57 -22t23 -54zM463 640q0 -31 -23 -52.5t-54 -21.5q-32 0 -55.5 21.5t-23.5 52.5q0 29 20 52.5t55 23.5q33 0 57 -22t24 -54zM215 316h116v5q0 35 -7 54q-14 33 -49 33q-25 0 -40 -16q-20 -23 -20 -68v-8z" />
    <glyph glyph-name="afii10099" unicode="&#x452;" horiz-adv-x="609" 
d="M434 651l-24 -75h-141v-86q45 39 120 39q80 0 118 -38q37 -37 37 -113v-364q0 -66 -11 -112.5t-48 -80.5q-41 -38 -103 -61l-69 90q21 17 33.5 36.5t17 44t5.5 37.5t1 39v332q0 36 -7 45q-9 9 -29 9q-37 0 -64 -32v-361h-174v576h-44v75h40q-2 25 -9 54l176 30
q7 -34 10 -84h165z" />
    <glyph glyph-name="afii10100" unicode="&#x453;" horiz-adv-x="439" 
d="M239 0h-174v516h365l-20 -130h-171v-386zM364 638l-231 -96l-55 88l218 121z" />
    <glyph glyph-name="afii10101" unicode="&#x454;" horiz-adv-x="455" 
d="M325 323v-110h-104v-13q0 -66 25 -82q17 -11 38 -11q30 0 56 12q28 13 46 37l73 -96q-34 -34 -78 -52q-49 -21 -115 -21q-116 0 -175 70q-58 69 -58 196q0 132 62 205q61 71 172 71q63 0 115 -21q37 -15 64 -40l-80 -98q-12 14 -34 26q-26 13 -56 13q-24 0 -35 -10
q-20 -16 -20 -63v-13h104z" />
    <glyph glyph-name="afii10102" unicode="&#x455;" horiz-adv-x="519" 
d="M469 476l-54 -108q-66 38 -126 38q-23 0 -34 -8q-12 -9 -12 -21q0 -14 11 -24q15 -11 43 -17l64 -14q59 -13 91 -45q37 -37 37 -99q0 -89 -68 -142q-64 -49 -160 -49q-70 0 -132 20q-42 14 -74 30l-30 15l61 126q36 -23 86.5 -44.5t82.5 -21.5q24 0 39 12t15 29
q0 14 -9 23q-13 12 -59 22l-67 14q-121 27 -121 141q0 80 58 128t154 48q93 0 185 -44z" />
    <glyph glyph-name="afii10103" unicode="&#x456;" horiz-adv-x="304" 
d="M239 0h-174v508l174 16v-524zM252 652q0 -40 -29.5 -69t-71.5 -29q-41 0 -70 28.5t-29 69.5t29.5 69.5t72.5 28.5q40 0 69 -29t29 -69z" />
    <glyph glyph-name="afii10104" unicode="&#x457;" horiz-adv-x="332" 
d="M253 0h-174v508l174 16v-524zM141 651q0 -31 -22 -52.5t-54 -21.5q-33 0 -56.5 21.5t-23.5 52.5q0 33 22.5 54.5t53.5 21.5q34 0 57 -22t23 -54zM347 651q0 -31 -23 -52.5t-54 -21.5q-32 0 -55.5 21.5t-23.5 52.5q0 29 20 52.5t55 23.5q33 0 57 -22t24 -54z" />
    <glyph glyph-name="afii10105" unicode="&#x458;" horiz-adv-x="304" 
d="M239 524v-507q0 -69 -12.5 -114t-46.5 -77q-41 -38 -103 -61l-69 90q26 21 39.5 50.5t15.5 49t2 50.5v503zM247 652q0 -40 -29.5 -69t-71.5 -29q-41 0 -70 28.5t-29 69.5t29.5 69.5t72.5 28.5q41 0 69.5 -29t28.5 -69z" />
    <glyph glyph-name="afii10106" unicode="&#x459;" horiz-adv-x="827" 
d="M513 346h69q98 0 145 -39q55 -46 55 -138q0 -86 -50 -131q-43 -38 -121 -38h-272v396h-81l-1 -26q-1 -45 -6 -111q-8 -92 -16 -136q-12 -64 -48 -92q-36 -29 -105 -36l-63 -6l-32 114l41 12q29 9 43 26q12 16 18 50q9 55 14 127q3 42 7 122l3 76h400v-170zM508 234v-120
h42q28 0 43 15t15 44q0 33 -17 48q-14 13 -44 13h-39z" />
    <glyph glyph-name="afii10107" unicode="&#x45a;" horiz-adv-x="827" 
d="M513 530v-184h69q98 0 145 -39q55 -46 55 -138q0 -86 -50 -131q-43 -38 -121 -38h-272v212h-100v-212h-174v502l174 28v-198h100v170zM508 234v-120h42q28 0 43 15t15 44q0 33 -17 48q-14 13 -44 13h-39z" />
    <glyph glyph-name="afii10108" unicode="&#x45b;" horiz-adv-x="578" 
d="M513 0h-174v339q0 31 -7 42q-9 12 -27 12q-37 0 -66 -32v-361h-174v576h-44v75h40q-1 25 -9 54l176 30q7 -34 10 -84h165l-24 -75h-141v-86q45 39 120 39q80 0 118 -38q37 -37 37 -113v-378z" />
    <glyph glyph-name="afii10109" unicode="&#x45c;" horiz-adv-x="570" 
d="M65 502l174 28v-198h19q19 0 31 3.5t18.5 12.5t8.5 14.5t5 18.5l11 49q11 44 34 66q25 24 85 29l58 4l28 -112l-30 -6q-15 -3 -22 -8q-10 -7 -18 -28l-13 -40q-5 -15 -9.5 -23.5t-18.5 -20.5t-35 -15v-3q20 -6 34 -18.5t19 -22t12 -27.5l22 -56q8 -24 21 -33
q11 -7 27 -10l31 -4l-28 -115l-55 3q-75 3 -107 35q-21 21 -33 69l-17 70q-11 48 -55 48h-23v-212h-174v502zM426 638l-231 -96l-55 88l218 121z" />
    <glyph glyph-name="afii10110" unicode="&#x45e;" horiz-adv-x="550" 
d="M555 516l-196 -517q-18 -48 -27.5 -70.5t-34.5 -61t-55 -59.5q-57 -41 -147 -45l-61 112q73 13 111 41q40 28 63 84h-48q-9 48 -37 133l-128 378l178 13l77 -270q14 -46 24 -106h1q15 98 35 160l69 208h176zM362 746l80 -34q-12 -59 -54 -92q-41 -32 -113 -32t-113 32
q-42 33 -54 92l80 34q15 -28 37 -40q22 -11 50 -11t50 11q22 12 37 40z" />
    <glyph glyph-name="afii10193" unicode="&#x45f;" horiz-adv-x="564" 
d="M239 530v-416h86v388l174 28v-530h-135v-144h-164v144h-135v502z" />
    <glyph glyph-name="afii10050" unicode="&#x490;" horiz-adv-x="474" 
d="M469 792v-242h-225v-550h-179v697h243v110z" />
    <glyph glyph-name="afii10098" unicode="&#x491;" horiz-adv-x="442" 
d="M239 0h-174v516h220v87l144 -21v-196h-190v-386z" />
    <glyph glyph-name="endash" unicode="&#x2013;" horiz-adv-x="578" 
d="M533 205h-488v133h488v-133z" />
    <glyph glyph-name="emdash" unicode="&#x2014;" horiz-adv-x="804" 
d="M759 205h-714v133h714v-133z" />
    <glyph glyph-name="afii00208" unicode="&#x2015;" horiz-adv-x="804" 
d="M759 205h-714v133h714v-133z" />
    <glyph glyph-name="quoteleft" unicode="&#x2018;" horiz-adv-x="277" 
d="M257 663q-33 -7 -52 -21.5t-19 -30.5q0 -11 3.5 -16.5t14 -13t16.5 -13.5q28 -29 28 -75q0 -40 -28.5 -67.5t-69.5 -27.5q-54 0 -84.5 36t-30.5 100q0 70 42 125q42 52 110 68z" />
    <glyph glyph-name="quoteright" unicode="&#x2019;" horiz-adv-x="277" 
d="M242 590q0 -70 -42 -125q-42 -52 -110 -68l-70 64q33 7 52 21.5t19 30.5q0 11 -3.5 16.5t-14 13t-16.5 13.5q-28 29 -28 75q0 40 28.5 67.5t69.5 27.5q54 0 84.5 -36t30.5 -100z" />
    <glyph glyph-name="quotesinglbase" unicode="&#x201a;" horiz-adv-x="277" 
d="M242 41q0 -70 -42 -125q-42 -52 -110 -68l-70 64q33 7 52 21.5t19 30.5q0 11 -3.5 16.5t-14 13t-16.5 13.5q-28 29 -28 75q0 40 28.5 67.5t69.5 27.5q54 0 84.5 -36t30.5 -100z" />
    <glyph glyph-name="quotedblleft" unicode="&#x201c;" horiz-adv-x="523" 
d="M503 663q-33 -7 -52 -21.5t-19 -30.5q0 -11 3.5 -16.5t14 -13t16.5 -13.5q28 -29 28 -75q0 -40 -28.5 -67.5t-69.5 -27.5q-54 0 -84.5 36t-30.5 100q0 70 42 125q42 52 110 68zM257 663q-33 -7 -52 -21.5t-19 -30.5q0 -11 3.5 -16.5t14 -13t16.5 -13.5q28 -29 28 -75
q0 -40 -28.5 -67.5t-69.5 -27.5q-54 0 -84.5 36t-30.5 100q0 70 42 125q42 52 110 68z" />
    <glyph glyph-name="quotedblright" unicode="&#x201d;" horiz-adv-x="523" 
d="M488 590q0 -70 -42 -125q-42 -52 -110 -68l-70 64q33 7 52 21.5t19 30.5q0 11 -3.5 16.5t-14 13t-16.5 13.5q-28 29 -28 75q0 40 28.5 67.5t69.5 27.5q54 0 84.5 -36t30.5 -100zM242 590q0 -70 -42 -125q-42 -52 -110 -68l-70 64q33 7 52 21.5t19 30.5q0 11 -3.5 16.5
t-14 13t-16.5 13.5q-28 29 -28 75q0 40 28.5 67.5t69.5 27.5q54 0 84.5 -36t30.5 -100z" />
    <glyph glyph-name="quotedblbase" unicode="&#x201e;" horiz-adv-x="523" 
d="M488 41q0 -70 -42 -125q-42 -52 -110 -68l-70 64q33 7 52 21.5t19 30.5q0 11 -3.5 16.5t-14 13t-16.5 13.5q-28 29 -28 75q0 40 28.5 67.5t69.5 27.5q54 0 84.5 -36t30.5 -100zM242 41q0 -70 -42 -125q-42 -52 -110 -68l-70 64q33 7 52 21.5t19 30.5q0 11 -3.5 16.5
t-14 13t-16.5 13.5q-28 29 -28 75q0 40 28.5 67.5t69.5 27.5q54 0 84.5 -36t30.5 -100z" />
    <glyph glyph-name="dagger" unicode="&#x2020;" horiz-adv-x="527" 
d="M502 555l-32 -152h-131v-403h-168v403h-146v152h146v142h168v-142h163z" />
    <glyph glyph-name="daggerdbl" unicode="&#x2021;" 
d="M520 555l-32 -154h-131v-105h145v-154h-145v-142h-168v142h-164l32 154h132v105h-146v154h146v142h168v-142h163z" />
    <glyph glyph-name="bullet" unicode="&#x2022;" horiz-adv-x="484" 
d="M419 354q0 -74 -51.5 -125.5t-125.5 -51.5t-125.5 51.5t-51.5 125.5t51.5 125.5t125.5 51.5t125.5 -51.5t51.5 -125.5z" />
    <glyph glyph-name="ellipsis" unicode="&#x2026;" horiz-adv-x="822" 
d="M250 85q0 -43 -30.5 -73t-72.5 -30q-43 0 -72.5 30t-29.5 73q0 41 30 71t71 30q43 0 73.5 -30t30.5 -71zM777 85q0 -43 -30.5 -73t-72.5 -30q-43 0 -72.5 30t-29.5 73q0 41 30 71t72 30t72.5 -30t30.5 -71zM513 85q0 -43 -30.5 -73t-72.5 -30t-71.5 30t-29.5 73
q0 41 30 71t71 30q42 0 72.5 -30t30.5 -71z" />
    <glyph glyph-name="perthousand" unicode="&#x2030;" horiz-adv-x="1208" 
d="M710 697l-424 -697h-162l424 697h162zM811 166q0 -80 -48.5 -129.5t-130.5 -49.5q-81 0 -128 44t-47 128q0 76 51 126t128 50q80 0 127.5 -43t47.5 -126zM1183 166q0 -80 -48.5 -129.5t-130.5 -49.5q-81 0 -128 44t-47 128q0 76 51 126t128 50q80 0 127.5 -43t47.5 -126z
M379 541q0 -80 -48.5 -129.5t-130.5 -49.5q-81 0 -128 44t-47 128q0 76 51 126t128 50q80 0 127.5 -43t47.5 -126zM673 164q0 47 -8.5 66t-30.5 19q-24 0 -31.5 -18.5t-7.5 -71.5q0 -49 8 -66.5t31 -17.5q22 0 30.5 19t8.5 70zM241 539q0 47 -8.5 66t-30.5 19
q-24 0 -31.5 -18.5t-7.5 -71.5q0 -49 8 -66.5t31 -17.5q22 0 30.5 19t8.5 70zM1045 164q0 47 -8.5 66t-30.5 19q-24 0 -31.5 -18.5t-7.5 -71.5q0 -49 8 -66.5t31 -17.5q22 0 30.5 19t8.5 70z" />
    <glyph glyph-name="guilsinglleft" unicode="&#x2039;" horiz-adv-x="354" 
d="M329 98l-126 -81l-178 240l178 239l126 -79l-121 -160z" />
    <glyph glyph-name="guilsinglright" unicode="&#x203a;" horiz-adv-x="354" 
d="M329 257l-178 -240l-126 81l121 159l-121 160l126 79z" />
    <glyph glyph-name="fraction" unicode="&#x2044;" horiz-adv-x="275" 
d="M470 765l-529 -919h-136l528 919h137z" />
    <glyph glyph-name="uni2070" unicode="&#x2070;" horiz-adv-x="350" 
d="M333 453q0 -92 -44 -151.5t-115 -59.5q-72 0 -114.5 57.5t-42.5 150.5q0 99 43 154t116 55t115 -55t42 -151zM198 456q0 60 -4 87t-18 27q-17 0 -21 -25.5t-4 -88.5v-8v-8q0 -32 0.5 -46.5t2.5 -32t7 -24t13 -6.5q5 0 9 2t6.5 6t4 8.5t2.5 12.5t1.5 15t1 17.5t0 19
t-0.5 22v22.5z" />
    <glyph glyph-name="uni2074" unicode="&#x2074;" horiz-adv-x="368" 
d="M351 323h-28l-6 1q0 -2 0.5 -6.5t0.5 -6.5v-77l-125 -9v93l1 7q-2 0 -5 -1t-4 -1h-168v76l99 258h125l-71 -194q-6 -19 -16 -34h39q0 41 17 106l108 16v-77q0 -25 -2 -45h35v-106z" />
    <glyph glyph-name="uni2075" unicode="&#x2075;" horiz-adv-x="327" 
d="M310 393q0 -71 -58 -118t-151 -47q-14 0 -54 6l-30 98q41 -9 78 -9q40 0 62 16t22 44q0 40 -53 40q-39 0 -91 -14l20 246h244l-19 -106h-110l-4 -36q2 0 7.5 0.5t9.5 0.5q55 0 91 -34.5t36 -86.5z" />
    <glyph glyph-name="uni2076" unicode="&#x2076;" horiz-adv-x="369" 
d="M352 386q0 -62 -46 -103.5t-116 -41.5q-81 0 -127 43.5t-46 122.5q0 98 68 174.5t205 110.5l27 -90q-109 -35 -141 -89q27 6 38 6q64 0 101 -36.5t37 -96.5zM227 384q0 18 -8.5 30t-22.5 12q-22 0 -41 -7q-1 -10 -1 -37q0 -50 36 -50q16 0 26.5 13t10.5 39z" />
    <glyph glyph-name="uni2077" unicode="&#x2077;" horiz-adv-x="322" 
d="M305 655l-11 -94q-1 -1 -13 -20t-26.5 -44t-27.5 -51q-56 -113 -57 -204l-135 -30q8 94 37 171.5t83 165.5h-138l15 106h273z" />
    <glyph glyph-name="uni2078" unicode="&#x2078;" horiz-adv-x="389" 
d="M372 369q0 -62 -50.5 -94.5t-136.5 -32.5q-89 0 -128.5 35.5t-39.5 85.5q0 61 55 92q-45 31 -45 83q0 55 47.5 89t117.5 34q72 0 118 -30t46 -85q0 -54 -57 -81q73 -31 73 -96zM234 358q0 27 -30 38l-34 12q-16 -13 -16 -38q0 -38 44 -38q36 0 36 26zM217 547
q0 25 -31 25q-32 0 -32 -26q0 -12 7 -19.5t29 -15.5q27 13 27 36z" />
    <glyph glyph-name="uni2079" unicode="&#x2079;" horiz-adv-x="360" 
d="M343 499q0 -110 -56 -172.5t-179 -111.5l-69 77q93 28 142 87q-2 0 -11 -2t-12 -2q-62 0 -101.5 35.5t-39.5 104.5q0 65 47 106.5t122 41.5q77 0 117 -44t40 -120zM209 512q0 52 -29 52q-33 0 -33 -46q0 -50 41 -50q11 0 17 3q4 22 4 41z" />
    <glyph glyph-name="uni2080" unicode="&#x2080;" horiz-adv-x="350" 
d="M333 -47q0 -92 -44 -151.5t-115 -59.5q-72 0 -114.5 57.5t-42.5 150.5q0 99 43 154t116 55t115 -55t42 -151zM198 -44q0 60 -4 87t-18 27q-17 0 -21 -25.5t-4 -88.5v-8v-8q0 -32 0.5 -46.5t2.5 -32t7 -24t13 -6.5q5 0 9 2t6.5 6t4 8.5t2.5 12.5t1.5 15t1 17.5t0 19
t-0.5 22v22.5z" />
    <glyph glyph-name="uni2081" unicode="&#x2081;" horiz-adv-x="302" 
d="M285 -250h-244v93h71v177q-37 -21 -61 -27l-34 67l134 96h79v-313h55v-93z" />
    <glyph glyph-name="uni2082" unicode="&#x2082;" horiz-adv-x="364" 
d="M347 -148l-28 -102h-282v86q78 64 119 112q25 29 34.5 46.5t9.5 40.5q0 27 -27 27t-73 -39l-83 72q46 36 85 52t89 16q68 0 106 -34.5t38 -90.5q0 -94 -136 -187q2 0 7.5 0.5t7.5 0.5h133z" />
    <glyph glyph-name="uni2083" unicode="&#x2083;" horiz-adv-x="348" 
d="M331 -127q0 -65 -64 -104.5t-162 -39.5q-34 0 -65 4l-23 97q32 -6 51 -6q121 0 121 60q0 29 -62 26q-13 -2 -41 -4v101q32 -4 51 -4q30 0 40 8.5t10 27.5q0 21 -27 21q-45 0 -82 -37l-58 89q69 49 152 49q66 0 108 -30.5t42 -82.5q0 -58 -41 -86q50 -25 50 -89z" />
    <glyph glyph-name="uni2084" unicode="&#x2084;" horiz-adv-x="368" 
d="M351 -177h-28l-6 1q0 -2 0.5 -6.5t0.5 -6.5v-77l-125 -9v93l1 7q-2 0 -5 -1t-4 -1h-168v76l99 258h125l-71 -194q-6 -19 -16 -34h39q0 41 17 106l108 16v-77q0 -25 -2 -45h35v-106z" />
    <glyph glyph-name="uni2085" unicode="&#x2085;" horiz-adv-x="327" 
d="M310 -107q0 -71 -58 -118t-151 -47q-14 0 -54 6l-30 98q41 -9 78 -9q40 0 62 16t22 44q0 40 -53 40q-39 0 -91 -14l20 246h244l-19 -106h-110l-4 -36q2 0 7.5 0.5t9.5 0.5q55 0 91 -34.5t36 -86.5z" />
    <glyph glyph-name="uni2086" unicode="&#x2086;" horiz-adv-x="369" 
d="M352 -114q0 -62 -46 -103.5t-116 -41.5q-81 0 -127 43.5t-46 122.5q0 98 68 174.5t205 110.5l27 -90q-109 -35 -141 -89q27 6 38 6q64 0 101 -36.5t37 -96.5zM227 -116q0 18 -8.5 30t-22.5 12q-22 0 -41 -7q-1 -10 -1 -37q0 -50 36 -50q16 0 26.5 13t10.5 39z" />
    <glyph glyph-name="uni2087" unicode="&#x2087;" horiz-adv-x="322" 
d="M305 155l-11 -94q-1 -1 -13 -20t-26.5 -44t-27.5 -51q-56 -113 -57 -204l-135 -30q8 94 37 171.5t83 165.5h-138l15 106h273z" />
    <glyph glyph-name="uni2088" unicode="&#x2088;" horiz-adv-x="389" 
d="M372 -131q0 -62 -50.5 -94.5t-136.5 -32.5q-89 0 -128.5 35.5t-39.5 85.5q0 61 55 92q-45 31 -45 83q0 55 47.5 89t117.5 34q72 0 118 -30t46 -85q0 -54 -57 -81q73 -31 73 -96zM234 -142q0 27 -30 38l-34 12q-16 -13 -16 -38q0 -38 44 -38q36 0 36 26zM217 47
q0 25 -31 25q-32 0 -32 -26q0 -12 7 -19.5t29 -15.5q27 13 27 36z" />
    <glyph glyph-name="uni2089" unicode="&#x2089;" horiz-adv-x="360" 
d="M343 -1q0 -110 -56 -172.5t-179 -111.5l-69 77q93 28 142 87q-2 0 -11 -2t-12 -2q-62 0 -101.5 35.5t-39.5 104.5q0 65 47 106.5t122 41.5q77 0 117 -44t40 -120zM209 12q0 52 -29 52q-33 0 -33 -46q0 -50 41 -50q11 0 17 3q4 22 4 41z" />
    <glyph glyph-name="Euro" unicode="&#x20ac;" horiz-adv-x="665" 
d="M650 59q-76 -71 -217 -71q-140 0 -228 96q-44 49 -65 128h-115v103h100v20q0 29 1 43h-101v103h119q10 33 29 70q86 158 282 158q54 0 104 -14t74 -37l-76 -132q-48 37 -104 37q-52 0 -78 -27q-25 -26 -34 -55h151v-103h-162q0 -44 1 -63h161v-103h-147q8 -20 19 -33
q37 -44 89 -44q69 0 120 46z" />
    <glyph glyph-name="afii61352" unicode="&#x2116;" horiz-adv-x="988" 
d="M581 0h-181l-118 257q-33 72 -66 165q15 -106 15 -227v-195h-166v697h170l122 -254q38 -79 67 -159q-9 95 -9 198v215h166v-697zM953 531q0 -35 -10 -72.5t-26 -58.5q-40 -52 -119 -52q-83 0 -123 54q-28 38 -28 118q0 91 48 137q42 40 107 40q68 0 109 -41
q42 -42 42 -125zM943 203h-286v88h286v-88zM841 526q0 57 -13 75q-11 13 -28 13q-19 0 -29 -13q-12 -15 -12 -81q0 -58 14 -75q11 -12 27 -12q19 0 28 13q13 18 13 80z" />
    <glyph glyph-name="uni2117" unicode="&#x2117;" horiz-adv-x="814" 
d="M779 354q0 -151 -109 -261.5t-263 -110.5q-153 0 -262.5 110.5t-109.5 261.5t109.5 261.5t262.5 110.5q154 0 263 -110.5t109 -261.5zM653 354q0 104 -72.5 181t-173.5 77q-100 0 -173 -77t-73 -181t73 -181t173 -77q101 0 173.5 77t72.5 181zM574 421q0 -50 -33.5 -86.5
t-117.5 -36.5h-19v-121h-112v361h127q155 0 155 -117zM454 421q0 15 -6.5 20.5t-21.5 5.5h-22v-61h17q19 0 26 6t7 29z" />
    <glyph glyph-name="trademark" unicode="&#x2122;" horiz-adv-x="1003" 
d="M958 285h-148v215h-2l-72 -215h-118l-72 215h-2v-215h-142l17 412h189l78 -235l74 235h175zM385 580h-110v-295h-140v295h-110v117h360v-117z" />
    <glyph glyph-name="Omega" unicode="&#x2126;" horiz-adv-x="728" 
d="M683 0h-283v91q47 0 86.5 66t39.5 186q0 106 -40.5 168t-123.5 62q-81 0 -121 -64t-40 -168q0 -66 12 -115.5t28 -74t36.5 -39.5t32 -18t19.5 -3v-91h-284v106h98q-44 33 -69 97t-25 136q0 168 91 261t226 93q141 0 226.5 -86t85.5 -237q0 -98 -25 -168.5t-64 -95.5h94
v-106z" />
    <glyph glyph-name="arrowleft" unicode="&#x2190;" horiz-adv-x="1296" 
d="M1271 276q0 -45 -32 -77t-77 -32t-77 32t-32 77t32 77t77 32t77 -32t32 -77zM1014 276q0 -45 -32 -77t-77 -32t-77 32t-32 77t32 77t77 32t77 -32t32 -77zM501 706q0 -45 -32 -77t-77 -32t-77 32t-32 77t32 77t77 32t77 -32t32 -77zM757 276q0 -45 -32 -77t-77 -32
t-77 32t-32 77t32 77t77 32t77 -32t32 -77zM372 491q0 -45 -32 -77t-77 -32t-77 32t-32 77t32 77t77 32t77 -32t32 -77zM500 276q0 -45 -32 -77t-77 -32t-77 32t-32 77t32 77t77 32t77 -32t32 -77zM243 276q0 -45 -32 -77t-77 -32t-77 32t-32 77t32 77t77 32t77 -32t32 -77z
M372 61q0 -45 -32 -77t-77 -32t-77 32t-32 77t32 77t77 32t77 -32t32 -77zM501 -154q0 -45 -32 -77t-77 -32t-77 32t-32 77t32 77t77 32t77 -32t32 -77z" />
    <glyph glyph-name="arrowup" unicode="&#x2191;" horiz-adv-x="1296" 
d="M1187 532q0 -45 -32 -77t-77 -32t-77 32t-32 77t32 77t77 32t77 -32t32 -77zM972 661q0 -45 -32 -77t-77 -32t-77 32t-32 77t32 77t77 32t77 -32t32 -77zM757 790q0 -45 -32 -77t-77 -32t-77 32t-32 77t32 77t77 32t77 -32t32 -77zM757 533q0 -45 -32 -77t-77 -32t-77 32
t-32 77t32 77t77 32t77 -32t32 -77zM542 661q0 -45 -32 -77t-77 -32t-77 32t-32 77t32 77t77 32t77 -32t32 -77zM757 276q0 -45 -32 -77t-77 -32t-77 32t-32 77t32 77t77 32t77 -32t32 -77zM327 532q0 -45 -32 -77t-77 -32t-77 32t-32 77t32 77t77 32t77 -32t32 -77zM757 19
q0 -45 -32 -77t-77 -32t-77 32t-32 77t32 77t77 32t77 -32t32 -77zM757 -238q0 -45 -32 -77t-77 -32t-77 32t-32 77t32 77t77 32t77 -32t32 -77z" />
    <glyph glyph-name="arrowright" unicode="&#x2192;" horiz-adv-x="1296" 
d="M1013 706q0 -45 -32 -77t-77 -32t-77 32t-32 77t32 77t77 32t77 -32t32 -77zM1142 491q0 -45 -32 -77t-77 -32t-77 32t-32 77t32 77t77 32t77 -32t32 -77zM1271 276q0 -45 -32 -77t-77 -32t-77 32t-32 77t32 77t77 32t77 -32t32 -77zM1014 276q0 -45 -32 -77t-77 -32
t-77 32t-32 77t32 77t77 32t77 -32t32 -77zM1142 61q0 -45 -32 -77t-77 -32t-77 32t-32 77t32 77t77 32t77 -32t32 -77zM757 276q0 -45 -32 -77t-77 -32t-77 32t-32 77t32 77t77 32t77 -32t32 -77zM1013 -154q0 -45 -32 -77t-77 -32t-77 32t-32 77t32 77t77 32t77 -32
t32 -77zM500 276q0 -45 -32 -77t-77 -32t-77 32t-32 77t32 77t77 32t77 -32t32 -77zM243 276q0 -45 -32 -77t-77 -32t-77 32t-32 77t32 77t77 32t77 -32t32 -77z" />
    <glyph glyph-name="arrowdown" unicode="&#x2193;" horiz-adv-x="1296" 
d="M757 790q0 -45 -32 -77t-77 -32t-77 32t-32 77t32 77t77 32t77 -32t32 -77zM757 533q0 -45 -32 -77t-77 -32t-77 32t-32 77t32 77t77 32t77 -32t32 -77zM1187 20q0 -45 -32 -77t-77 -32t-77 32t-32 77t32 77t77 32t77 -32t32 -77zM757 276q0 -45 -32 -77t-77 -32t-77 32
t-32 77t32 77t77 32t77 -32t32 -77zM972 -109q0 -45 -32 -77t-77 -32t-77 32t-32 77t32 77t77 32t77 -32t32 -77zM757 19q0 -45 -32 -77t-77 -32t-77 32t-32 77t32 77t77 32t77 -32t32 -77zM757 -238q0 -45 -32 -77t-77 -32t-77 32t-32 77t32 77t77 32t77 -32t32 -77z
M542 -109q0 -45 -32 -77t-77 -32t-77 32t-32 77t32 77t77 32t77 -32t32 -77zM327 20q0 -45 -32 -77t-77 -32t-77 32t-32 77t32 77t77 32t77 -32t32 -77z" />
    <glyph glyph-name="uni2196" unicode="&#x2196;" horiz-adv-x="1296" 
d="M848 562q-32 -32 -77 -32q-46 0 -77 31q-32 32 -32 78t32 78t77 32q44 0 76 -32q33 -33 33 -78t-32 -77zM362 441q-32 -32 -78 -32t-77 31q-32 32 -32 78q0 45 32 77t77 32t77 -32q33 -33 33 -77q0 -45 -32 -77zM1089 -286q-32 -32 -78 -32t-77 31q-32 32 -32 78
q0 45 32 77t77 32t77 -32q33 -33 33 -77q0 -45 -32 -77zM605 502q-32 -32 -77 -32q-46 0 -77 31q-32 32 -32 78q0 45 32 77t77 32q44 0 76 -32q33 -33 33 -77q0 -45 -32 -77zM240 -46q-32 -32 -77 -32q-46 0 -77 31q-32 32 -32 78q0 45 32 77t77 32q44 0 76 -32
q33 -33 33 -77q0 -45 -32 -77zM543 259q-32 -32 -77 -32q-46 0 -77 31q-32 32 -32 78q0 45 32 77t77 32q44 0 76 -32q33 -33 33 -77q0 -45 -32 -77zM725 77q-32 -32 -77 -32q-46 0 -77 31q-32 32 -32 78q0 45 32 77t77 32q44 0 76 -32q33 -33 33 -77q0 -45 -32 -77z
M907 -104q-32 -32 -77 -32q-46 0 -77 31q-32 32 -32 78q0 45 32 77t77 32q44 0 76 -32q33 -33 33 -77q0 -45 -32 -77zM301 198q-32 -32 -77 -32q-46 0 -77 31q-32 32 -32 78q0 45 32 77t77 32q44 0 76 -32q33 -33 33 -77q0 -45 -32 -77z" />
    <glyph glyph-name="uni2197" unicode="&#x2197;" horiz-adv-x="1296" 
d="M480 562q-32 -32 -77 -32q-46 0 -77 31q-32 32 -32 78t32 78t77 32q44 0 76 -32q33 -33 33 -78t-32 -77zM1089 -46q-32 -32 -78 -32t-77 31q-32 32 -32 78q0 45 32 77t77 32t77 -32q33 -33 33 -77q0 -45 -32 -77zM240 -286q-32 -32 -77 -32q-46 0 -77 31q-32 32 -32 78
q0 45 32 77t77 32q44 0 76 -32q33 -33 33 -77q0 -45 -32 -77zM785 259q-32 -32 -77 -32q-46 0 -77 31q-32 32 -32 78q0 45 32 77t77 32q44 0 76 -32q33 -33 33 -77q0 -45 -32 -77zM724 502q-32 -32 -77 -32q-46 0 -77 31q-32 32 -32 78q0 45 32 77t77 32q44 0 76 -32
q33 -33 33 -77q0 -45 -32 -77zM1028 198q-32 -32 -77 -32q-46 0 -77 31q-32 32 -32 78q0 45 32 77t77 32q44 0 76 -32q33 -33 33 -77q0 -45 -32 -77zM603 77q-32 -32 -77 -32q-46 0 -77 31q-32 32 -32 78q0 45 32 77t77 32q44 0 76 -32q33 -33 33 -77q0 -45 -32 -77z
M422 -104q-32 -32 -77 -32q-46 0 -77 31q-32 32 -32 78q0 45 32 77t77 32q44 0 76 -32q33 -33 33 -77q0 -45 -32 -77zM967 441q-32 -32 -77 -32q-46 0 -77 31q-32 32 -32 78q0 45 32 77t77 32q44 0 76 -32q33 -33 33 -77q0 -45 -32 -77z" />
    <glyph glyph-name="uni2198" unicode="&#x2198;" horiz-adv-x="1296" 
d="M1089 322q-32 -32 -78 -32t-77 31q-32 32 -32 78q0 45 32 77t77 32t77 -32q33 -33 33 -77q0 -45 -32 -77zM240 562q-32 -32 -77 -32q-46 0 -77 31q-32 32 -32 78t32 78t77 32q44 0 76 -32q33 -33 33 -78t-32 -77zM967 -165q-32 -32 -77 -32q-46 0 -77 31q-32 32 -32 78
t32 78t77 32q44 0 76 -32q33 -33 33 -78t-32 -77zM1028 79q-32 -32 -77 -32q-46 0 -77 31q-32 32 -32 78q0 45 32 77t77 32q44 0 76 -32q33 -33 33 -77q0 -45 -32 -77zM480 -286q-32 -32 -77 -32q-46 0 -77 31q-32 32 -32 78q0 45 32 77t77 32q44 0 76 -32q33 -33 33 -77
q0 -45 -32 -77zM603 199q-32 -32 -77 -32q-46 0 -77 31q-32 32 -32 78q0 45 32 77t77 32q44 0 76 -32q33 -33 33 -77q0 -45 -32 -77zM785 17q-32 -32 -77 -32q-46 0 -77 31q-32 32 -32 78q0 45 32 77t77 32q44 0 76 -32q33 -33 33 -77q0 -45 -32 -77zM422 381
q-32 -32 -77 -32q-46 0 -77 31q-32 32 -32 78q0 45 32 77t77 32q44 0 76 -32q33 -33 33 -77q0 -45 -32 -77zM724 -225q-32 -32 -77 -32q-46 0 -77 31q-32 32 -32 78q0 45 32 77t77 32q44 0 76 -32q33 -33 33 -77q0 -45 -32 -77z" />
    <glyph glyph-name="uni2199" unicode="&#x2199;" horiz-adv-x="1296" 
d="M1089 562q-32 -32 -78 -32t-77 31q-32 32 -32 78t32 78t77 32t77 -32q33 -33 33 -78t-32 -77zM362 -165q-32 -32 -78 -32t-77 31q-32 32 -32 78t32 78t77 32t77 -32q33 -33 33 -78t-32 -77zM725 199q-32 -32 -77 -32q-46 0 -77 31q-32 32 -32 78q0 45 32 77t77 32
q44 0 76 -32q33 -33 33 -77q0 -45 -32 -77zM907 381q-32 -32 -77 -32q-46 0 -77 31q-32 32 -32 78q0 45 32 77t77 32q44 0 76 -32q33 -33 33 -77q0 -45 -32 -77zM848 -286q-32 -32 -77 -32q-46 0 -77 31q-32 32 -32 78q0 45 32 77t77 32q44 0 76 -32q33 -33 33 -77
q0 -45 -32 -77zM543 17q-32 -32 -77 -32q-46 0 -77 31q-32 32 -32 78q0 45 32 77t77 32q44 0 76 -32q33 -33 33 -77q0 -45 -32 -77zM301 79q-32 -32 -77 -32q-46 0 -77 31q-32 32 -32 78q0 45 32 77t77 32q44 0 76 -32q33 -33 33 -77q0 -45 -32 -77zM605 -225
q-32 -32 -77 -32q-46 0 -77 31q-32 32 -32 78q0 45 32 77t77 32q44 0 76 -32q33 -33 33 -77q0 -45 -32 -77zM240 322q-32 -32 -77 -32q-46 0 -77 31q-32 32 -32 78q0 45 32 77t77 32q44 0 76 -32q33 -33 33 -77q0 -45 -32 -77z" />
    <glyph glyph-name="partialdiff" unicode="&#x2202;" horiz-adv-x="529" 
d="M494 242q0 -123 -64.5 -188t-166.5 -65q-101 0 -164 59t-63 169q0 94 59 151.5t154 57.5h15l1 2q-7 4 -38 30q-83 75 -252 96l107 127q82 -9 164.5 -48.5t137.5 -103.5q110 -128 110 -287zM328 234q0 30 -3 55q-24 9 -54 9q-67 0 -67 -83q0 -39 16.5 -63t48.5 -24
q59 0 59 106z" />
    <glyph glyph-name="Delta" unicode="&#x2206;" horiz-adv-x="669" 
d="M664 0h-659l260 672h148zM427 149l-96 300l-111 -300h207z" />
    <glyph glyph-name="product" unicode="&#x220f;" horiz-adv-x="732" 
d="M707 0h-308v121h69v395h-203v-395h69v-121h-309v121h73v395h-73v142h682v-142h-72v-395h72v-121z" />
    <glyph glyph-name="summation" unicode="&#x2211;" horiz-adv-x="506" 
d="M491 142l-46 -142h-420l2 108l223 238l-224 243l38 108h423l-50 -141h-170l196 -205l-203 -209h231z" />
    <glyph glyph-name="minus" unicode="&#x2212;" horiz-adv-x="578" 
d="M533 205h-488v133h488v-133z" />
    <glyph glyph-name="uni2219" unicode="&#x2219;" horiz-adv-x="319" 
d="M264 269q0 -42 -31 -72.5t-76 -30.5q-43 0 -72.5 30.5t-29.5 74.5q0 43 31 74.5t75 31.5q43 0 73 -31.5t30 -76.5z" />
    <glyph glyph-name="radical" unicode="&#x221a;" horiz-adv-x="643" 
d="M638 745l-277 -745h-141l-145 399h-70v117h202l57 -152q25 -66 30 -111h2q6 52 26 107l142 385h174z" />
    <glyph glyph-name="infinity" unicode="&#x221e;" horiz-adv-x="973" 
d="M948 262q0 -95 -68 -148t-152 -53q-100 0 -183 58l-63 44l-54 -40q-85 -63 -187 -63q-36 0 -71 9t-69 29.5t-55 60.5t-21 95q0 100 66.5 151t156.5 51q101 0 190 -63l56 -39l55 43q78 60 186 60q36 0 70.5 -9.5t68 -30t54 -60.5t20.5 -95zM782 261q0 21 -15 33.5
t-40 12.5q-45 0 -91 -35l-14 -11l29 -18q48 -29 76 -29q29 0 42 13.5t13 33.5zM350 255l-28 21q-34 26 -74 26q-55 0 -55 -47q0 -21 15 -33.5t40 -12.5q37 0 91 38z" />
    <glyph glyph-name="uni2224" unicode="&#x2224;" horiz-adv-x="319" 
d="M264 269q0 -42 -31 -72.5t-76 -30.5q-43 0 -72.5 30.5t-29.5 74.5q0 43 31 74.5t75 31.5q43 0 73 -31.5t30 -76.5z" />
    <glyph glyph-name="logicaland" unicode="&#x2227;" horiz-adv-x="319" 
d="M264 269q0 -42 -31 -72.5t-76 -30.5q-43 0 -72.5 30.5t-29.5 74.5q0 43 31 74.5t75 31.5q43 0 73 -31.5t30 -76.5z" />
    <glyph glyph-name="integral" unicode="&#x222b;" horiz-adv-x="249" 
d="M424 693l-69 -131q-23 19 -59 19q-22 0 -32 -14t-13 -51l-40 -527q-7 -86 -58.5 -136.5t-133.5 -50.5q-71 0 -144 44l65 133q24 -27 59 -27q44 0 47 48l42 542q6 82 55.5 134.5t135.5 52.5t145 -36z" />
    <glyph glyph-name="approxequal" unicode="&#x2248;" horiz-adv-x="558" 
d="M513 328q-42 -56 -128 -56q-55 0 -117 29t-93 29q-49 0 -92 -37l-38 154q50 48 126 48q46 0 109 -28.5t102 -28.5q59 0 97 46zM513 68q-42 -56 -128 -56q-55 0 -117 29t-93 29q-49 0 -92 -37l-38 154q50 48 126 48q46 0 109 -28.5t102 -28.5q59 0 97 46z" />
    <glyph glyph-name="notequal" unicode="&#x2260;" horiz-adv-x="656" 
d="M611 111h-326l-90 -153l-104 62l54 91h-100v162h195l35 60h-230v162h326l85 145l103 -62l-49 -83h101v-162h-196l-35 -60h231v-162z" />
    <glyph glyph-name="lessequal" unicode="&#x2264;" horiz-adv-x="454" 
d="M419 113l-394 150v118l394 172v-167l-177 -58l177 -53v-162zM419 -24h-394v131h394v-131z" />
    <glyph glyph-name="greaterequal" unicode="&#x2265;" horiz-adv-x="455" 
d="M430 255l-394 -142l-1 162l177 50l-176 63v165l394 -180v-118zM430 -24h-394v131h394v-131z" />
    <glyph glyph-name="dotmath" unicode="&#x22c5;" horiz-adv-x="319" 
d="M264 269q0 -42 -31 -72.5t-76 -30.5q-43 0 -72.5 30.5t-29.5 74.5q0 43 31 74.5t75 31.5q43 0 73 -31.5t30 -76.5z" />
    <glyph glyph-name="uni25B4" unicode="&#x25b4;" horiz-adv-x="516" 
d="M288 543l178 -386h-356z" />
    <glyph glyph-name="uni25B8" unicode="&#x25b8;" horiz-adv-x="516" 
d="M481 350l-386 -178v356z" />
    <glyph glyph-name="uni25BE" unicode="&#x25be;" horiz-adv-x="516" 
d="M288 157l-178 386h356z" />
    <glyph glyph-name="uni25C2" unicode="&#x25c2;" horiz-adv-x="516" 
d="M95 350l386 178v-356z" />
    <glyph glyph-name="lozenge" unicode="&#x25ca;" horiz-adv-x="592" 
d="M567 344l-185 -344h-176l-181 344l181 343h176zM393 344l-102 219l-98 -219l98 -220z" />
    <glyph glyph-name="uniFB06" unicode="&#xfb06;" horiz-adv-x="887" 
d="M484 171q0 -84 -66 -134t-174 -50q-100 0 -224 65l61 126q107 -66 169 -66q22 0 38 12t16 27q0 20 -14 29t-54 18l-67 14q-121 25 -121 141q0 80 57.5 128t154.5 48h13q-22 25 -22 73q0 53 57.5 98t157.5 45q93 0 292 -56v-173h95l-23 -114h-72v-208q0 -54 10.5 -71
t43.5 -17q26 0 44 10l21 -100q-63 -30 -131 -30q-80 0 -121 27t-41 98v291h-42v114h42v99q-77 31 -125 31q-40 0 -66 -20.5t-26 -50.5q0 -33 11.5 -47.5t48.5 -34.5q35 -16 37 -17l-54 -108q-72 38 -127 38q-20 0 -32.5 -8t-12.5 -21q0 -29 54 -41l64 -14q128 -28 128 -151z
" />
    <glyph glyph-name="parenleft.case" horiz-adv-x="337" 
d="M357 -32l-44 -103q-43 13 -79.5 34t-62.5 44t-47 53.5t-34.5 58.5t-23 63t-14.5 61.5t-8 61t-3.5 55t-0.5 48.5q0 67 6.5 121.5t24 111t47 101t78 84.5t114.5 69l46 -106q-26 -20 -38.5 -30.5t-36.5 -40.5t-35.5 -63.5t-21.5 -91.5t-10 -131q0 -135 18 -217t46.5 -118.5
t78.5 -64.5z" />
    <glyph glyph-name="parenright.case" horiz-adv-x="336" 
d="M306 375q0 -101 -11.5 -174t-41 -138t-83.5 -113t-136 -85l-44 107q41 31 67.5 63.5t42 63.5t23 77.5t9.5 86.5t2 111q0 146 -31 228.5t-111 125.5l44 104q29 -12 42 -18t41 -20.5t42 -26t37.5 -33t36 -43.5t28.5 -55t24 -70t13.5 -86t5.5 -105z" />
    <glyph glyph-name="hyphen.case" horiz-adv-x="363" 
d="M323 276h-273v143h273v-143z" />
    <glyph glyph-name="bracketleft.case" horiz-adv-x="320" 
d="M310 -96h-240v888h240v-110h-88v-668h88v-110z" />
    <glyph glyph-name="bracketright.case" horiz-adv-x="321" 
d="M261 -96h-241v110h88v668h-88v110h241v-888z" />
    <glyph glyph-name="braceleft.case" horiz-adv-x="321" 
d="M311 -96h-79q-145 0 -145 160v156q0 40 -13.5 51t-53.5 11v134q40 0 53.5 12.5t13.5 47.5v157q0 87 36.5 123t108.5 36h79v-151h-23q-48 0 -48 -53v-151q0 -31 -8 -51t-22.5 -27t-22.5 -8.5t-20 -1.5v-2q73 0 73 -85v-154q0 -19 11 -36t37 -17h23v-151z" />
    <glyph glyph-name="braceright.case" horiz-adv-x="321" 
d="M311 282q-40 0 -53.5 -11t-13.5 -51v-156q0 -160 -145 -160h-79v151h23q26 0 37 17t11 36v154q0 85 73 85v2q-12 0 -20 1.5t-22.5 8.5t-22.5 27t-8 51v151q0 53 -48 53h-23v151h79q73 0 109 -36t36 -123v-157q0 -35 13.5 -47.5t53.5 -12.5v-134z" />
    <glyph glyph-name="guillemotleft.case" horiz-adv-x="615" 
d="M595 177l-115 -77l-170 247l170 248l115 -78l-115 -170zM315 177l-115 -77l-170 247l170 248l115 -78l-115 -170z" />
    <glyph glyph-name="uni00AD.case" horiz-adv-x="363" 
d="M323 276h-273v143h273v-143z" />
    <glyph glyph-name="guillemotright.case" horiz-adv-x="615" 
d="M595 347l-170 -247l-115 77l115 170l-115 170l115 78zM315 347l-170 -247l-115 77l115 170l-115 170l115 78z" />
    <glyph glyph-name="endash.case" horiz-adv-x="578" 
d="M538 281h-488v133h488v-133z" />
    <glyph glyph-name="emdash.case" horiz-adv-x="804" 
d="M764 281h-714v133h714v-133z" />
    <glyph glyph-name="guilsinglleft.case" horiz-adv-x="354" 
d="M334 189l-126 -81l-178 240l178 239l126 -79l-121 -160z" />
    <glyph glyph-name="guilsinglright.case" horiz-adv-x="354" 
d="M334 348l-178 -240l-126 81l121 159l-121 160l126 79z" />
    <glyph glyph-name="zero.dnom" horiz-adv-x="350" 
d="M333 203q0 -92 -44 -151.5t-115 -59.5q-72 0 -114.5 57.5t-42.5 150.5q0 99 43 154t116 55t115 -55t42 -151zM198 206q0 60 -4 87t-18 27q-17 0 -21 -25.5t-4 -88.5v-8v-8q0 -32 0.5 -46.5t2.5 -32t7 -24t13 -6.5q5 0 9 2t6.5 6t4 8.5t2.5 12.5t1.5 15t1 17.5t0 19
t-0.5 22v22.5z" />
    <glyph glyph-name="one.dnom" horiz-adv-x="302" 
d="M285 0h-244v93h71v177q-37 -21 -61 -27l-34 67l134 96h79v-313h55v-93z" />
    <glyph glyph-name="two.dnom" horiz-adv-x="364" 
d="M347 102l-28 -102h-282v86q78 64 119 112q25 29 34.5 46.5t9.5 40.5q0 27 -27 27t-73 -39l-83 72q46 36 85 52t89 16q68 0 106 -34.5t38 -90.5q0 -94 -136 -187q2 0 7.5 0.5t7.5 0.5h133z" />
    <glyph glyph-name="three.dnom" horiz-adv-x="348" 
d="M331 123q0 -65 -64 -104.5t-162 -39.5q-34 0 -65 4l-23 97q32 -6 51 -6q121 0 121 60q0 29 -62 26q-13 -2 -41 -4v101q32 -4 51 -4q30 0 40 8.5t10 27.5q0 21 -27 21q-45 0 -82 -37l-58 89q69 49 152 49q66 0 108 -30.5t42 -82.5q0 -58 -41 -86q50 -25 50 -89z" />
    <glyph glyph-name="four.dnom" horiz-adv-x="368" 
d="M351 73h-28l-6 1q0 -2 0.5 -6.5t0.5 -6.5v-77l-125 -9v93l1 7q-2 0 -5 -1t-4 -1h-168v76l99 258h125l-71 -194q-6 -19 -16 -34h39q0 41 17 106l108 16v-77q0 -25 -2 -45h35v-106z" />
    <glyph glyph-name="five.dnom" horiz-adv-x="327" 
d="M310 143q0 -71 -58 -118t-151 -47q-14 0 -54 6l-30 98q41 -9 78 -9q40 0 62 16t22 44q0 40 -53 40q-39 0 -91 -14l20 246h244l-19 -106h-110l-4 -36q2 0 7.5 0.5t9.5 0.5q55 0 91 -34.5t36 -86.5z" />
    <glyph glyph-name="six.dnom" horiz-adv-x="369" 
d="M352 136q0 -62 -46 -103.5t-116 -41.5q-81 0 -127 43.5t-46 122.5q0 98 68 174.5t205 110.5l27 -90q-109 -35 -141 -89q27 6 38 6q64 0 101 -36.5t37 -96.5zM227 134q0 18 -8.5 30t-22.5 12q-22 0 -41 -7q-1 -10 -1 -37q0 -50 36 -50q16 0 26.5 13t10.5 39z" />
    <glyph glyph-name="seven.dnom" horiz-adv-x="322" 
d="M305 405l-11 -94q-1 -1 -13 -20t-26.5 -44t-27.5 -51q-56 -113 -57 -204l-135 -30q8 94 37 171.5t83 165.5h-138l15 106h273z" />
    <glyph glyph-name="eight.dnom" horiz-adv-x="389" 
d="M372 119q0 -62 -50.5 -94.5t-136.5 -32.5q-89 0 -128.5 35.5t-39.5 85.5q0 61 55 92q-45 31 -45 83q0 55 47.5 89t117.5 34q72 0 118 -30t46 -85q0 -54 -57 -81q73 -31 73 -96zM234 108q0 27 -30 38l-34 12q-16 -13 -16 -38q0 -38 44 -38q36 0 36 26zM217 297
q0 25 -31 25q-32 0 -32 -26q0 -12 7 -19.5t29 -15.5q27 13 27 36z" />
    <glyph glyph-name="nine.dnom" horiz-adv-x="360" 
d="M343 249q0 -110 -56 -172.5t-179 -111.5l-69 77q93 28 142 87q-2 0 -11 -2t-12 -2q-62 0 -101.5 35.5t-39.5 104.5q0 65 47 106.5t122 41.5q77 0 117 -44t40 -120zM209 262q0 52 -29 52q-33 0 -33 -46q0 -50 41 -50q11 0 17 3q4 22 4 41z" />
    <glyph glyph-name="germandbls.hist" horiz-adv-x="833" 
d="M323 745q90 0 164 -61l-102 -102q-39 27 -63 27q-32 0 -43.5 -19t-11.5 -69v-521h-176v379h-82v137h82v49q0 78 65 129t167 51zM808 171q0 -84 -66 -134t-174 -50q-100 0 -224 65l61 126q107 -66 169 -66q22 0 38 12t16 27q0 20 -14 29t-54 18l-67 14q-121 25 -121 141
q0 80 57.5 128t154.5 48q25 0 48 -2.5t38.5 -6t35.5 -10.5t29 -10.5t28.5 -12.5t24.5 -11l-54 -108q-72 38 -127 38q-20 0 -32.5 -8t-12.5 -21q0 -29 54 -41l64 -14q128 -28 128 -151z" />
    <glyph glyph-name="grave.lc" 
d="M389 630l-51 -88l-234 96l66 113z" />
    <glyph glyph-name="dieresis.lc" 
d="M250 651q0 -34 -25.5 -58t-60.5 -24q-36 0 -62.5 24t-26.5 58q0 35 25 59.5t60 24.5q37 0 63.5 -24.5t26.5 -59.5zM472 651q0 -34 -25.5 -58t-60.5 -24q-37 0 -62.5 24t-25.5 58q0 35 24.5 59.5t59.5 24.5q38 0 64 -24.5t26 -59.5z" />
    <glyph glyph-name="macron.lc" horiz-adv-x="392" 
d="M367 569h-342v95h342v-95z" />
    <glyph glyph-name="acute.lc" 
d="M430 638l-231 -96l-55 88l218 121z" />
    <glyph glyph-name="circumflex.lc" 
d="M467 626l-56 -93l-139 70l-135 -70l-50 93l191 119z" />
    <glyph glyph-name="caron.lc" horiz-adv-x="478" 
d="M425 686l-187 -135l-193 135l51 93l139 -70l135 70z" />
    <glyph glyph-name="breve.lc" horiz-adv-x="442" 
d="M414 733q-31 -44 -84.5 -81t-110.5 -37q-58 0 -115 39t-82 80l62 61q74 -64 139 -64q49 0 139 64z" />
    <glyph glyph-name="dotaccent.lc" horiz-adv-x="244" 
d="M219 652q0 -40 -28.5 -69t-69.5 -29q-39 0 -67.5 29t-28.5 69t29 69t70 29q40 0 67.5 -28.5t27.5 -69.5z" />
    <glyph glyph-name="ring.lc" horiz-adv-x="526" 
d="M381 658q0 -43 -35 -74.5t-80 -31.5q-50 0 -84 31t-34 75q0 43 35 74.5t83 31.5q47 0 81 -31t34 -75zM306 658q0 18 -12 30t-27 12q-20 0 -32 -12t-12 -30t12 -30t29 -12q19 0 30.5 12t11.5 30z" />
    <glyph glyph-name="tilde.lc" 
d="M458 626q-44 -55 -123 -55q-31 0 -68 18.5t-66 18.5q-40 0 -70 -30l-44 100q48 59 117 59q32 0 70.5 -17.5t65.5 -17.5q21 0 42 9t31 20z" />
    <glyph glyph-name="hungarumlaut.lc" horiz-adv-x="526" 
d="M495 741l-171 -192l-95 51l137 206zM277 753l-135 -210l-100 37l100 220z" />
    <glyph glyph-name="diedot.lc" 
d="M250 651q0 -34 -25.5 -58t-60.5 -24q-36 0 -62.5 24t-26.5 58q0 35 25 59.5t60 24.5q37 0 63.5 -24.5t26.5 -59.5z" />
    <glyph glyph-name="zero.lf" horiz-adv-x="564" 
d="M529 339q0 -155 -70 -253.5t-179 -98.5q-111 0 -178 94t-67 252q0 167 68 257.5t180 90.5q113 0 179.5 -89.5t66.5 -252.5zM337 343q0 119 -18 175q-14 42 -35 42q-26 0 -40 -40q-18 -54 -18 -191q0 -106 11 -158q12 -62 43 -62q33 0 46 58q11 51 11 176z" />
    <glyph glyph-name="one.lf" horiz-adv-x="418" 
d="M343 0h-163v482q-75 -43 -110 -54l-45 92l208 156h110v-676z" />
    <glyph glyph-name="two.lf" horiz-adv-x="573" 
d="M538 145l-38 -145h-441v126q135 118 195 193q29 35 42.5 54.5t24 48.5t10.5 60q0 29 -15.5 46.5t-46.5 17.5q-51 0 -121 -63l-113 102q64 53 125.5 78t139.5 25q107 0 164.5 -55.5t57.5 -146.5q0 -53 -21 -102t-61 -92.5t-83.5 -78.5t-102.5 -74q32 6 83 6h201z" />
    <glyph glyph-name="three.lf" 
d="M510 199q0 -104 -101 -169t-260 -65q-51 0 -94 5l-30 133q33 -6 62 -6q219 0 219 121q0 57 -75 63q-32 2 -96 -5v147q35 -5 68 -5q57 1 78.5 17.5t21.5 56.5q0 22 -17 36t-45 14q-82 0 -134 -54l-77 124q99 73 231 73q104 0 169 -49.5t65 -131.5q0 -110 -91 -153
q51 -14 78.5 -55.5t27.5 -96.5z" />
    <glyph glyph-name="four.lf" horiz-adv-x="573" 
d="M548 120h-36l-21 2q2 -22 2 -40v-110l-175 -13v141l2 24q-15 -4 -31 -4h-264v111l176 448h173l-121 -317q-31 -78 -45 -92q13 1 23 1h75l13 -1q-1 7 -1 12q0 70 10 140l9 63l156 23v-142q0 -51 -5 -96h60v-150z" />
    <glyph glyph-name="five.lf" horiz-adv-x="509" 
d="M474 234q0 -116 -91.5 -193t-241.5 -77q-37 0 -77 7l-39 135q50 -11 107 -11q72 0 114.5 33t42.5 89q0 39 -27 60t-79 21q-64 0 -133 -19l30 396h372l-26 -151h-184l-11 -95q20 3 48 3q84 0 139.5 -57t55.5 -141z" />
    <glyph glyph-name="six.lf" horiz-adv-x="595" 
d="M560 220q0 -100 -72 -167.5t-182 -67.5q-128 0 -199.5 72t-71.5 201q0 163 107.5 292t319.5 184l36 -127q-106 -35 -163 -76.5t-80 -110.5q27 20 92 20q99 0 156 -60.5t57 -159.5zM384 218q0 36 -17 59t-51 23q-36 0 -83 -20q-3 -20 -3 -66q0 -21 4 -40t22.5 -38
t49.5 -19q35 0 56.5 27.5t21.5 73.5z" />
    <glyph glyph-name="seven.lf" horiz-adv-x="522" 
d="M507 675l-15 -142q0 -1 -21.5 -36t-41 -69.5t-47.5 -92t-48 -110.5t-34.5 -118t-15.5 -121l-189 -45q8 101 31 193.5t61.5 175.5t57 117.5t56.5 98.5q-9 -3 -26 -3h-250l20 152h462z" />
    <glyph glyph-name="eight.lf" horiz-adv-x="614" 
d="M579 192q0 -100 -74 -152.5t-213 -52.5q-74 0 -127 17t-80 46.5t-38.5 61.5t-11.5 70q0 126 96 159q-81 41 -81 146q0 88 71 143t183 55q114 0 182.5 -48.5t68.5 -136.5q0 -54 -33.5 -91.5t-86.5 -49.5q144 -41 144 -167zM383 173q0 54 -54 73l-69 25q-29 -29 -29 -78
q0 -79 82 -79q33 0 51.5 15.5t18.5 43.5zM357 503q0 56 -63 56q-66 0 -66 -58q0 -28 14.5 -41t58.5 -29q56 26 56 72z" />
    <glyph glyph-name="nine.lf" horiz-adv-x="580" 
d="M545 420q0 -95 -23 -168t-72 -129t-114.5 -97.5t-160.5 -80.5l-90 106q99 31 161.5 85.5t77.5 94.5q-32 -16 -70 -16q-96 0 -157.5 59t-61.5 173q0 106 72.5 173.5t192.5 67.5t182.5 -71t62.5 -197zM355 442q0 108 -65 108q-71 0 -71 -98q0 -42 24 -69.5t62 -27.5
q27 0 44 12q6 24 6 75z" />
    <glyph glyph-name="less.salt" horiz-adv-x="686" 
d="M581 706q0 -45 -32 -77t-77 -32t-77 32t-32 77t32 77t77 32t77 -32t32 -77zM452 491q0 -45 -32 -77t-77 -32t-77 32t-32 77t32 77t77 32t77 -32t32 -77zM323 276q0 -45 -32 -77t-77 -32t-77 32t-32 77t32 77t77 32t77 -32t32 -77zM452 61q0 -45 -32 -77t-77 -32t-77 32
t-32 77t32 77t77 32t77 -32t32 -77zM581 -154q0 -45 -32 -77t-77 -32t-77 32t-32 77t32 77t77 32t77 -32t32 -77z" />
    <glyph glyph-name="greater.salt" horiz-adv-x="686" 
d="M323 706q0 -45 -32 -77t-77 -32t-77 32t-32 77t32 77t77 32t77 -32t32 -77zM452 491q0 -45 -32 -77t-77 -32t-77 32t-32 77t32 77t77 32t77 -32t32 -77zM581 276q0 -45 -32 -77t-77 -32t-77 32t-32 77t32 77t77 32t77 -32t32 -77zM452 61q0 -45 -32 -77t-77 -32t-77 32
t-32 77t32 77t77 32t77 -32t32 -77zM323 -154q0 -45 -32 -77t-77 -32t-77 32t-32 77t32 77t77 32t77 -32t32 -77z" />
    <glyph glyph-name="g.salt" horiz-adv-x="552" 
d="M492 357v-223q0 -44 2.5 -91.5t2.5 -74.5q0 -202 -247 -202q-109 0 -198 38l30 126q91 -35 167 -35q42 0 59 16.5t17 48.5q0 25 -3 55q-36 -28 -90 -28q-101 0 -151.5 70t-50.5 200q0 125 64.5 198.5t149.5 73.5q69 0 97 -50q3 21 9 37h151q-9 -36 -9 -159zM318 151v214
q-10 20 -38 20q-15 0 -24.5 -3t-19.5 -14.5t-15 -37.5t-5 -68q0 -74 11.5 -105t47.5 -31q16 0 27.5 8.5t15.5 16.5z" />
    <glyph glyph-name="pi.salt" horiz-adv-x="617" 
d="M592 26q-72 -36 -114 -36q-20 0 -40 6t-40.5 19.5t-33 42t-12.5 68.5v271h-96v-237q0 -64 -6.5 -93.5t-26.5 -66.5h-172q26 58 33 89.5t7 78.5v229h-66v143h557v-143h-65v-249q0 -17 16 -17q13 0 22 13z" />
    <glyph glyph-name="uni25B4.salt" horiz-adv-x="645" 
d="M579 107h-512l256 555zM423 207l-100 217l-100 -217h200z" />
    <glyph glyph-name="uni25B8.salt" horiz-adv-x="645" 
d="M610 350l-555 -256v512zM372 350l-217 100v-200z" />
    <glyph glyph-name="uni25BE.salt" horiz-adv-x="645" 
d="M579 593l-256 -555l-256 555h512zM423 493h-200l100 -217z" />
    <glyph glyph-name="uni25C2.salt" horiz-adv-x="645" 
d="M590 94l-555 256l555 256v-512zM490 250v200l-217 -100z" />
    <glyph glyph-name="a.sc" horiz-adv-x="549" 
d="M556 0h-182l-30 102h-143l-31 -102h-177l202 568h171zM314 223l-39 158l-41 -158h80z" />
    <glyph glyph-name="b.sc" horiz-adv-x="585" 
d="M540 177q0 -81 -53.5 -129t-157.5 -48h-254v568h277q75 0 120.5 -33.5t45.5 -108.5q0 -39 -20.5 -72.5t-62.5 -50.5q45 -15 75 -48t30 -78zM349 182q0 51 -53 51h-54v-106h56q51 0 51 55zM346 401q0 41 -48 41h-56v-92h58q46 0 46 51z" />
    <glyph glyph-name="c.sc" horiz-adv-x="534" 
d="M519 51q-71 -61 -198 -61q-125 0 -204 79q-72 72 -72 204q0 104 43 175q77 129 253 129q112 0 163 -45l-72 -113q-44 31 -93 31q-44 0 -65 -20q-22 -21 -30.5 -46.5t-8.5 -72.5q0 -73 6 -107t23 -52q31 -34 75 -34q59 0 107 39z" />
    <glyph glyph-name="d.sc" horiz-adv-x="593" 
d="M548 294q0 -149 -71 -225q-64 -69 -174 -69h-228v568h222q92 0 149 -36q102 -64 102 -238zM365 299q0 88 -20 115.5t-59 27.5h-43v-315h48q17 0 28.5 5.5t23 22t17 53t5.5 91.5z" />
    <glyph glyph-name="e.sc" horiz-adv-x="476" 
d="M451 0h-376v568h365l-12 -128h-186v-84h152v-123h-152v-104h209v-129z" />
    <glyph glyph-name="f.sc" horiz-adv-x="426" 
d="M421 568l-12 -128h-169v-84h138v-123h-137v-233h-166v568h346z" />
    <glyph glyph-name="g.sc" horiz-adv-x="632" 
d="M567 501l-95 -96q-51 45 -125 45q-60 0 -86 -39.5t-26 -131.5q0 -164 105 -164q31 0 52 7v82h-69l-20 124h257v-280q-105 -58 -227 -58q-152 0 -229 97q-59 76 -59 186q0 93 40.5 165.5t116.5 108.5q62 29 143 29q126 0 222 -75z" />
    <glyph glyph-name="h.sc" horiz-adv-x="601" 
d="M526 0h-167v234h-117v-234h-167v568h167v-205h117v205h167v-568z" />
    <glyph glyph-name="i.sc" horiz-adv-x="315" 
d="M240 0h-165v568h165v-568z" />
    <glyph glyph-name="j.sc" horiz-adv-x="315" 
d="M240 43q0 -70 -50 -121t-123 -75l-77 77q56 35 69.5 67t13.5 112v465h167v-525z" />
    <glyph glyph-name="k.sc" horiz-adv-x="598" 
d="M243 0h-168v568h168v-252l132 252h206l-161 -261l183 -307h-214l-146 293v-293z" />
    <glyph glyph-name="l.sc" horiz-adv-x="448" 
d="M443 128l-33 -128h-335v568h168v-440h200z" />
    <glyph glyph-name="m.sc" horiz-adv-x="809" 
d="M744 0h-164l-13 259q-3 57 -3 70l-16 -64l-77 -265h-142l-68 259q-2 7 -5 21t-6 26t-3 13q0 -28 -2 -62l-10 -257h-170l62 568h200l64 -255q3 -12 9 -46t7 -37q16 82 19 91l66 247h194z" />
    <glyph glyph-name="n.sc" horiz-adv-x="619" 
d="M544 0h-167l-93 160q-10 17 -24.5 48.5t-24.5 55.5l-10 23q10 -82 10 -125v-162h-160v568h159l92 -158q11 -18 27.5 -51.5t27.5 -58.5l11 -24q-8 87 -8 114v178h160v-568z" />
    <glyph glyph-name="o.sc" horiz-adv-x="653" 
d="M608 305q0 -315 -280 -315q-134 0 -208.5 75.5t-74.5 204.5q0 149 75.5 228t212.5 79q76 0 132 -24.5t86 -65.5t43.5 -86.5t13.5 -95.5zM422 287q0 100 -21.5 134.5t-72.5 34.5q-96 0 -96 -170q0 -100 24 -137.5t74 -37.5q49 0 70.5 36.5t21.5 139.5z" />
    <glyph glyph-name="p.sc" horiz-adv-x="547" 
d="M529 389q0 -191 -242 -191h-45v-198h-167v568h205q122 0 185.5 -42t63.5 -137zM353 390q0 30 -15.5 41t-45.5 11h-50v-122h41q37 0 53.5 14.5t16.5 55.5z" />
    <glyph glyph-name="q.sc" horiz-adv-x="653" 
d="M662 -6l-43 -101q-14 -2 -44 -2q-57 0 -121 41q-4 3 -18 12t-19 12t-16.5 9.5t-19 10t-18.5 7.5t-22 7q-150 0 -223 75.5t-73 214.5q0 140 80.5 218.5t207.5 78.5q133 0 204.5 -72.5t71.5 -199.5q0 -201 -116 -263q15 -4 58 -26q44 -22 77 -22h34zM422 287q0 100 -21 135
t-72 35q-97 0 -97 -171q0 -100 24.5 -138t74.5 -38q49 0 70 37t21 140z" />
    <glyph glyph-name="r.sc" horiz-adv-x="575" 
d="M565 0h-194l-65 162q-16 39 -28.5 50t-34.5 12v-224h-168v568h217q243 0 243 -165q0 -130 -126 -155q36 -13 60 -58q42 -80 96 -190zM350 392q0 27 -15.5 38.5t-52.5 11.5h-39v-108h40q67 0 67 58z" />
    <glyph glyph-name="s.sc" horiz-adv-x="592" 
d="M547 199q0 -101 -75 -155t-199 -54q-122 0 -233 53l60 122q90 -47 175 -47q82 0 82 46q0 30 -58 43l-84 20q-143 33 -143 161q0 84 69 136.5t175 52.5q135 0 227 -58l-82 -109q-65 40 -140 40q-28 0 -43 -10t-15 -25q0 -33 56 -45l63 -14q33 -8 55 -15.5t51 -24.5
t44 -46.5t15 -70.5z" />
    <glyph glyph-name="t.sc" horiz-adv-x="494" 
d="M489 568l-20 -129h-142v-439h-169v439h-143v129h474z" />
    <glyph glyph-name="u.sc" horiz-adv-x="612" 
d="M542 177q0 -64 -16 -94q-22 -40 -78 -66.5t-142 -26.5q-147 0 -204 72q-20 25 -26 46t-6 75v385h169v-369q0 -40 15.5 -60.5t52.5 -20.5q38 0 53 18.5t15 59.5v372h167v-391z" />
    <glyph glyph-name="v.sc" horiz-adv-x="554" 
d="M569 568l-223 -573h-147l-214 573h185l79 -246q16 -53 25 -96q18 73 28 100l89 242h178z" />
    <glyph glyph-name="w.sc" horiz-adv-x="793" 
d="M793 568l-164 -573h-177l-33 191q-19 99 -25 155q0 -2 -4.5 -30t-11 -65.5t-10.5 -59.5l-34 -191h-180l-154 573h178l36 -175q16 -76 31 -173q7 70 23 150l37 198h184l41 -211q16 -101 21 -134q14 102 30 182l32 163h180z" />
    <glyph glyph-name="x.sc" horiz-adv-x="540" 
d="M555 0h-204l-76 161l-77 -161h-213l195 295l-176 273h208l62 -139l62 139h202l-170 -265z" />
    <glyph glyph-name="y.sc" horiz-adv-x="517" 
d="M542 568l-201 -328v-240h-172v236l-194 332h201l47 -111q7 -16 19 -51t16 -46q6 15 18 48t18 47l47 113h201z" />
    <glyph glyph-name="z.sc" horiz-adv-x="502" 
d="M472 129l-13 -129h-429v104l208 301l30 38q-40 -3 -55 -3h-165l13 128h407v-107l-209 -305l-26 -29q42 2 58 2h181z" />
    <glyph glyph-name="germandbls.sc" horiz-adv-x="1164" 
d="M1119 199q0 -101 -75 -155t-199 -54q-122 0 -233 53l60 122q90 -47 175 -47q82 0 82 46q0 30 -58 43l-84 20q-143 33 -143 161q0 84 69 136.5t175 52.5q135 0 227 -58l-82 -109q-65 40 -140 40q-28 0 -43 -10t-15 -25q0 -33 56 -45l63 -14q33 -8 55 -15.5t51 -24.5
t44 -46.5t15 -70.5zM547 199q0 -101 -75 -155t-199 -54q-122 0 -233 53l60 122q90 -47 175 -47q82 0 82 46q0 30 -58 43l-84 20q-143 33 -143 161q0 84 69 136.5t175 52.5q135 0 227 -58l-82 -109q-65 40 -140 40q-28 0 -43 -10t-15 -25q0 -33 56 -45l63 -14q33 -8 55 -15.5
t51 -24.5t44 -46.5t15 -70.5z" />
    <glyph glyph-name="agrave.sc" horiz-adv-x="549" 
d="M561 0h-182l-30 102h-143l-31 -102h-177l202 568h171zM319 223l-39 158l-41 -158h80zM422 670l-51 -88l-234 96l66 113z" />
    <glyph glyph-name="aacute.sc" horiz-adv-x="549" 
d="M561 0h-182l-30 102h-143l-31 -102h-177l202 568h171zM319 223l-39 158l-41 -158h80zM431 678l-231 -96l-55 88l218 121z" />
    <glyph glyph-name="acircumflex.sc" horiz-adv-x="549" 
d="M561 0h-182l-30 102h-143l-31 -102h-177l202 568h171zM319 223l-39 158l-41 -158h80zM479 666l-56 -93l-139 70l-135 -70l-50 93l191 119z" />
    <glyph glyph-name="atilde.sc" horiz-adv-x="549" 
d="M561 0h-182l-30 102h-143l-31 -102h-177l202 568h171zM319 223l-39 158l-41 -158h80zM473 670q-44 -55 -123 -55q-31 0 -68 18.5t-66 18.5q-40 0 -70 -30l-44 100q48 59 117 59q32 0 70.5 -17.5t65.5 -17.5q21 0 42 9t31 20z" />
    <glyph glyph-name="adieresis.sc" horiz-adv-x="549" 
d="M561 0h-182l-30 102h-143l-31 -102h-177l202 568h171zM319 223l-39 158l-41 -158h80zM262 690q0 -34 -25.5 -58t-60.5 -24q-36 0 -62.5 24t-26.5 58q0 35 25 59.5t60 24.5q37 0 63.5 -24.5t26.5 -59.5zM485 690q0 -34 -25.5 -58t-60.5 -24q-36 0 -62.5 24t-26.5 58
q0 35 25 59.5t60 24.5q37 0 63.5 -24.5t26.5 -59.5z" />
    <glyph glyph-name="aring.sc" horiz-adv-x="549" 
d="M556 0h-182l-30 102h-143l-31 -102h-177l202 568h171zM314 223l-39 158l-41 -158h80zM400 698q0 -43 -35 -74.5t-80 -31.5q-50 0 -84 31t-34 75q0 43 35 74.5t83 31.5q47 0 81 -31t34 -75zM325 698q0 18 -12 30t-27 12q-20 0 -32 -12t-12 -30t12 -30t29 -12q19 0 30.5 12
t11.5 30z" />
    <glyph glyph-name="ae.sc" horiz-adv-x="722" 
d="M737 0h-386v107h-137l-59 -107h-190l338 568h423l-22 -128h-184v-84h155v-123h-155v-104h217v-129zM351 228v172l-83 -172h83z" />
    <glyph glyph-name="ccedilla.sc" horiz-adv-x="534" 
d="M519 51q-71 -61 -197 -61l-7 -15q35 -3 56 -23t21 -50q0 -42 -29.5 -72t-91.5 -30q-50 0 -88 20l32 62q22 -11 48 -11q33 0 33 24t-33 24q-14 0 -28 -2l-10 17l20 64q-74 17 -128 71q-72 72 -72 204q0 104 43 175q77 129 253 129q112 0 163 -45l-72 -113q-44 31 -93 31
q-44 0 -65 -20q-22 -21 -30.5 -46.5t-8.5 -72.5q0 -73 6 -107t23 -52q31 -34 75 -34q59 0 107 39z" />
    <glyph glyph-name="egrave.sc" horiz-adv-x="476" 
d="M456 0h-376v568h365l-12 -128h-186v-84h152v-123h-152v-104h209v-129zM410 670l-51 -88l-234 96l66 113z" />
    <glyph glyph-name="eacute.sc" horiz-adv-x="476" 
d="M456 0h-376v568h365l-12 -128h-186v-84h152v-123h-152v-104h209v-129zM403 678l-231 -96l-55 88l218 121z" />
    <glyph glyph-name="ecircumflex.sc" horiz-adv-x="476" 
d="M456 0h-376v568h365l-12 -128h-186v-84h152v-123h-152v-104h209v-129zM454 666l-56 -93l-139 70l-135 -70l-50 93l191 119z" />
    <glyph glyph-name="edieresis.sc" horiz-adv-x="476" 
d="M456 0h-376v568h365l-12 -128h-186v-84h152v-123h-152v-104h209v-129zM245 690q0 -34 -25.5 -58t-60.5 -24q-36 0 -62.5 24t-26.5 58q0 35 25 59.5t60 24.5q37 0 63.5 -24.5t26.5 -59.5zM467 690q0 -34 -25.5 -58t-60.5 -24q-36 0 -62.5 24t-26.5 58q0 35 25 59.5
t60 24.5q37 0 63.5 -24.5t26.5 -59.5z" />
    <glyph glyph-name="igrave.sc" horiz-adv-x="315" 
d="M245 0h-165v568h165v-568zM296 670l-51 -88l-234 96l66 113z" />
    <glyph glyph-name="iacute.sc" horiz-adv-x="315" 
d="M245 0h-165v568h165v-568zM311 678l-231 -96l-55 88l218 121z" />
    <glyph glyph-name="icircumflex.sc" horiz-adv-x="315" 
d="M245 0h-165v568h165v-568zM353 679l-56 -93l-139 70l-135 -70l-50 93l191 119z" />
    <glyph glyph-name="idieresis.sc" horiz-adv-x="315" 
d="M245 0h-165v568h165v-568zM141 690q0 -34 -25.5 -58t-60.5 -24q-36 0 -62.5 24t-26.5 58q0 35 25 59.5t60 24.5q37 0 63.5 -24.5t26.5 -59.5zM362 690q0 -34 -25.5 -58t-60.5 -24q-36 0 -62.5 24t-26.5 58q0 35 25 59.5t60 24.5q37 0 63.5 -24.5t26.5 -59.5z" />
    <glyph glyph-name="eth.sc" horiz-adv-x="593" 
d="M548 294q0 -149 -71 -225q-64 -69 -174 -69h-228v230h-51v109h51v229h222q92 0 149 -36q102 -64 102 -238zM365 299q0 88 -20 115.5t-59 27.5h-43v-103h86l-24 -109h-62v-103h48q17 0 28.5 5.5t23 22t17 53t5.5 91.5z" />
    <glyph glyph-name="ntilde.sc" horiz-adv-x="619" 
d="M549 0h-167l-93 160q-10 17 -24.5 48.5t-24.5 55.5l-10 23q10 -82 10 -125v-162h-160v568h159l92 -158q11 -18 27.5 -51.5t27.5 -58.5l11 -24q-8 87 -8 114v178h160v-568zM493 669q-44 -55 -123 -55q-31 0 -68 18.5t-66 18.5q-40 0 -70 -30l-44 100q48 59 117 59
q32 0 70.5 -17.5t65.5 -17.5q21 0 42 9t31 20z" />
    <glyph glyph-name="ograve.sc" horiz-adv-x="653" 
d="M613 305q0 -315 -280 -315q-134 0 -208.5 75.5t-74.5 204.5q0 149 75.5 228t212.5 79q76 0 132 -24.5t86 -65.5t43.5 -86.5t13.5 -95.5zM427 287q0 100 -21.5 134.5t-72.5 34.5q-96 0 -96 -170q0 -100 24 -137.5t74 -37.5q49 0 70.5 36.5t21.5 139.5zM464 670l-51 -88
l-234 96l66 113z" />
    <glyph glyph-name="oacute.sc" horiz-adv-x="653" 
d="M613 305q0 -315 -280 -315q-134 0 -208.5 75.5t-74.5 204.5q0 149 75.5 228t212.5 79q76 0 132 -24.5t86 -65.5t43.5 -86.5t13.5 -95.5zM427 287q0 100 -21.5 134.5t-72.5 34.5q-96 0 -96 -170q0 -100 24 -137.5t74 -37.5q49 0 70.5 36.5t21.5 139.5zM475 678l-231 -96
l-55 88l218 121z" />
    <glyph glyph-name="ocircumflex.sc" horiz-adv-x="653" 
d="M613 305q0 -315 -280 -315q-134 0 -208.5 75.5t-74.5 204.5q0 149 75.5 228t212.5 79q76 0 132 -24.5t86 -65.5t43.5 -86.5t13.5 -95.5zM427 287q0 100 -21.5 134.5t-72.5 34.5q-96 0 -96 -170q0 -100 24 -137.5t74 -37.5q49 0 70.5 36.5t21.5 139.5zM531 666l-56 -93
l-139 70l-135 -70l-50 93l191 119z" />
    <glyph glyph-name="otilde.sc" horiz-adv-x="653" 
d="M613 305q0 -315 -280 -315q-134 0 -208.5 75.5t-74.5 204.5q0 149 75.5 228t212.5 79q76 0 132 -24.5t86 -65.5t43.5 -86.5t13.5 -95.5zM427 287q0 100 -21.5 134.5t-72.5 34.5q-96 0 -96 -170q0 -100 24 -137.5t74 -37.5q49 0 70.5 36.5t21.5 139.5zM515 666
q-44 -55 -123 -55q-31 0 -68 18.5t-66 18.5q-40 0 -70 -30l-44 100q48 59 117 59q32 0 70.5 -17.5t65.5 -17.5q21 0 42 9t31 20z" />
    <glyph glyph-name="odieresis.sc" horiz-adv-x="653" 
d="M613 305q0 -315 -280 -315q-134 0 -208.5 75.5t-74.5 204.5q0 149 75.5 228t212.5 79q76 0 132 -24.5t86 -65.5t43.5 -86.5t13.5 -95.5zM427 287q0 100 -21.5 134.5t-72.5 34.5q-96 0 -96 -170q0 -100 24 -137.5t74 -37.5q49 0 70.5 36.5t21.5 139.5zM314 691
q0 -34 -25.5 -58t-60.5 -24q-36 0 -62.5 24t-26.5 58q0 35 25 59.5t60 24.5q37 0 63.5 -24.5t26.5 -59.5zM536 691q0 -34 -25.5 -58t-60.5 -24q-36 0 -62.5 24t-26.5 58q0 35 25 59.5t60 24.5q37 0 63.5 -24.5t26.5 -59.5z" />
    <glyph glyph-name="oslash.sc" horiz-adv-x="653" 
d="M608 305q0 -315 -280 -315q-69 0 -123 21l-63 -92l-83 49l63 94q-77 72 -77 208q0 146 80 226.5t208 80.5q70 0 125 -22l53 78l84 -45l-58 -85q71 -75 71 -198zM381 442q-17 13 -53 13q-96 0 -96 -169q0 -34 3 -59zM422 287q0 30 -1 43l-139 -206q19 -11 48 -11
q49 0 70.5 36t21.5 138z" />
    <glyph glyph-name="ugrave.sc" horiz-adv-x="612" 
d="M547 177q0 -64 -16 -94q-22 -40 -78 -66.5t-142 -26.5q-147 0 -204 72q-20 25 -26 46t-6 75v385h169v-369q0 -40 15.5 -60.5t52.5 -20.5q38 0 53 18.5t15 59.5v372h167v-391zM431 670l-51 -88l-234 96l66 113z" />
    <glyph glyph-name="uacute.sc" horiz-adv-x="612" 
d="M547 177q0 -64 -16 -94q-22 -40 -78 -66.5t-142 -26.5q-147 0 -204 72q-20 25 -26 46t-6 75v385h169v-369q0 -40 15.5 -60.5t52.5 -20.5q38 0 53 18.5t15 59.5v372h167v-391zM476 678l-231 -96l-55 88l218 121z" />
    <glyph glyph-name="ucircumflex.sc" horiz-adv-x="612" 
d="M547 177q0 -64 -16 -94q-22 -40 -78 -66.5t-142 -26.5q-147 0 -204 72q-20 25 -26 46t-6 75v385h169v-369q0 -40 15.5 -60.5t52.5 -20.5q38 0 53 18.5t15 59.5v372h167v-391zM507 676l-56 -93l-139 70l-135 -70l-50 93l191 119z" />
    <glyph glyph-name="udieresis.sc" horiz-adv-x="612" 
d="M547 177q0 -64 -16 -94q-22 -40 -78 -66.5t-142 -26.5q-147 0 -204 72q-20 25 -26 46t-6 75v385h169v-369q0 -40 15.5 -60.5t52.5 -20.5q38 0 53 18.5t15 59.5v372h167v-391zM289 690q0 -34 -25.5 -58t-60.5 -24q-36 0 -62.5 24t-26.5 58q0 35 25 59.5t60 24.5
q37 0 63.5 -24.5t26.5 -59.5zM511 690q0 -34 -25.5 -58t-60.5 -24q-36 0 -62.5 24t-26.5 58q0 35 25 59.5t60 24.5q37 0 63.5 -24.5t26.5 -59.5z" />
    <glyph glyph-name="yacute.sc" horiz-adv-x="517" 
d="M547 568l-201 -328v-240h-172v236l-194 332h201l47 -111q7 -16 19 -51t16 -46q6 15 18 48t18 47l47 113h201zM410 678l-231 -96l-55 88l218 121z" />
    <glyph glyph-name="thorn.sc" horiz-adv-x="547" 
d="M529 299q0 -191 -242 -191h-45v-108h-167v568h167v-90h38q122 0 185.5 -42t63.5 -137zM353 300q0 30 -15.5 41t-45.5 11h-50v-122h41q37 0 53.5 14.5t16.5 55.5z" />
    <glyph glyph-name="ydieresis.sc" horiz-adv-x="517" 
d="M547 568l-201 -328v-240h-172v236l-194 332h201l47 -111q7 -16 19 -51t16 -46q6 15 18 48t18 47l47 113h201zM241 690q0 -34 -25.5 -58t-60.5 -24q-36 0 -62.5 24t-26.5 58q0 35 25 59.5t60 24.5q37 0 63.5 -24.5t26.5 -59.5zM463 690q0 -34 -25.5 -58t-60.5 -24
q-36 0 -62.5 24t-26.5 58q0 35 25 59.5t60 24.5q37 0 63.5 -24.5t26.5 -59.5z" />
    <glyph glyph-name="amacron.sc" horiz-adv-x="549" 
d="M561 0h-182l-30 102h-143l-31 -102h-177l202 568h171zM319 223l-39 158l-41 -158h80zM463 629h-342v95h342v-95z" />
    <glyph glyph-name="abreve.sc" horiz-adv-x="549" 
d="M561 0h-182l-30 102h-143l-31 -102h-177l202 568h171zM319 223l-39 158l-41 -158h80zM477 721q-31 -44 -84.5 -81t-110.5 -37q-58 0 -115 39t-82 80l62 61q74 -64 139 -64q49 0 139 64z" />
    <glyph glyph-name="aogonek.sc" horiz-adv-x="549" 
d="M556 -174q-75 -30 -132 -30q-46 0 -76 25t-30 71q0 58 56 108l-30 102h-143l-31 -102h-177l202 568h171l190 -568q-54 0 -83 -25.5t-29 -52.5q0 -4 2 -10q7 -21 29 -21q21 0 48 16zM314 223l-39 158l-41 -158h80z" />
    <glyph glyph-name="cacute.sc" horiz-adv-x="534" 
d="M524 51q-71 -61 -198 -61q-125 0 -204 79q-72 72 -72 204q0 104 43 175q77 129 253 129q112 0 163 -45l-72 -113q-44 31 -93 31q-44 0 -65 -20q-22 -21 -30.5 -46.5t-8.5 -72.5q0 -73 6 -107t23 -52q31 -34 75 -34q59 0 107 39zM475 678l-231 -96l-55 88l218 121z" />
    <glyph glyph-name="ccircumflex.sc" horiz-adv-x="534" 
d="M524 51q-71 -61 -198 -61q-125 0 -204 79q-72 72 -72 204q0 104 43 175q77 129 253 129q112 0 163 -45l-72 -113q-44 31 -93 31q-44 0 -65 -20q-22 -21 -30.5 -46.5t-8.5 -72.5q0 -73 6 -107t23 -52q31 -34 75 -34q59 0 107 39zM535 666l-56 -93l-139 70l-135 -70l-50 93
l191 119z" />
    <glyph glyph-name="cdotaccent.sc" horiz-adv-x="534" 
d="M524 51q-71 -61 -198 -61q-125 0 -204 79q-72 72 -72 204q0 104 43 175q77 129 253 129q112 0 163 -45l-72 -113q-44 31 -93 31q-44 0 -65 -20q-22 -21 -30.5 -46.5t-8.5 -72.5q0 -73 6 -107t23 -52q31 -34 75 -34q59 0 107 39zM440 712q0 -40 -29 -69t-69 -29
q-39 0 -67.5 29t-28.5 69t29 69t70 29q40 0 67.5 -28.5t27.5 -69.5z" />
    <glyph glyph-name="ccaron.sc" horiz-adv-x="534" 
d="M524 51q-71 -61 -198 -61q-125 0 -204 79q-72 72 -72 204q0 104 43 175q77 129 253 129q112 0 163 -45l-72 -113q-44 31 -93 31q-44 0 -65 -20q-22 -21 -30.5 -46.5t-8.5 -72.5q0 -73 6 -107t23 -52q31 -34 75 -34q59 0 107 39zM504 726l-187 -135l-193 135l51 93
l139 -70l135 70z" />
    <glyph glyph-name="dcaron.sc" horiz-adv-x="593" 
d="M553 294q0 -149 -71 -225q-64 -69 -174 -69h-228v568h222q92 0 149 -36q102 -64 102 -238zM370 299q0 88 -20 115.5t-59 27.5h-43v-315h48q17 0 28.5 5.5t23 22t17 53t5.5 91.5zM470 726l-187 -135l-193 135l51 93l139 -70l135 70z" />
    <glyph glyph-name="dcroat.sc" horiz-adv-x="593" 
d="M548 294q0 -149 -71 -225q-64 -69 -174 -69h-228v230h-51v109h51v229h222q92 0 149 -36q102 -64 102 -238zM365 299q0 88 -20 115.5t-59 27.5h-43v-103h86l-24 -109h-62v-103h48q17 0 28.5 5.5t23 22t17 53t5.5 91.5z" />
    <glyph glyph-name="emacron.sc" horiz-adv-x="476" 
d="M456 0h-376v568h365l-12 -128h-186v-84h152v-123h-152v-104h209v-129zM445 629h-342v95h342v-95z" />
    <glyph glyph-name="edotaccent.sc" horiz-adv-x="476" 
d="M456 0h-376v568h365l-12 -128h-186v-84h152v-123h-152v-104h209v-129zM367 694q0 -40 -28.5 -69t-69.5 -29q-39 0 -67.5 29t-28.5 69t29 69t70 29q40 0 67.5 -28.5t27.5 -69.5z" />
    <glyph glyph-name="eogonek.sc" horiz-adv-x="476" 
d="M451 0q-55 0 -84.5 -25.5t-29.5 -52.5q0 -4 2 -10q7 -21 29 -21q21 0 48 16l33 -81q-75 -30 -132 -30q-46 0 -76 25t-30 71q0 58 56 108h-192v568h365l-12 -128h-186v-84h152v-123h-152v-104h209v-129z" />
    <glyph glyph-name="ecaron.sc" horiz-adv-x="476" 
d="M456 0h-376v568h365l-12 -128h-186v-84h152v-123h-152v-104h209v-129zM455 726l-187 -135l-193 135l51 93l139 -70l135 70z" />
    <glyph glyph-name="gcircumflex.sc" horiz-adv-x="632" 
d="M572 501l-95 -96q-51 45 -125 45q-60 0 -86 -39.5t-26 -131.5q0 -164 105 -164q31 0 52 7v82h-69l-20 124h257v-280q-105 -58 -227 -58q-152 0 -229 97q-59 76 -59 186q0 93 40.5 165.5t116.5 108.5q62 29 143 29q126 0 222 -75zM541 701l-56 -93l-139 70l-135 -70
l-50 93l191 119z" />
    <glyph glyph-name="gbreve.sc" horiz-adv-x="632" 
d="M572 501l-95 -96q-51 45 -125 45q-60 0 -86 -39.5t-26 -131.5q0 -164 105 -164q31 0 52 7v82h-69l-20 124h257v-280q-105 -58 -227 -58q-152 0 -229 97q-59 76 -59 186q0 93 40.5 165.5t116.5 108.5q62 29 143 29q126 0 222 -75zM535 721q-31 -44 -84.5 -81t-110.5 -37
q-58 0 -115 39t-82 80l62 61q74 -64 139 -64q49 0 139 64z" />
    <glyph glyph-name="gdotaccent.sc" horiz-adv-x="632" 
d="M572 501l-95 -96q-51 45 -125 45q-60 0 -86 -39.5t-26 -131.5q0 -164 105 -164q31 0 52 7v82h-69l-20 124h257v-280q-105 -58 -227 -58q-152 0 -229 97q-59 76 -59 186q0 93 40.5 165.5t116.5 108.5q62 29 143 29q126 0 222 -75zM445 694q0 -40 -28.5 -69t-69.5 -29
q-39 0 -67.5 29t-28.5 69t29 69t70 29q40 0 67.5 -28.5t27.5 -69.5z" />
    <glyph glyph-name="gcommaaccent.sc" horiz-adv-x="632" 
d="M572 501l-95 -96q-51 45 -125 45q-60 0 -86 -39.5t-26 -131.5q0 -164 105 -164q31 0 52 7v82h-69l-20 124h257v-280q-105 -58 -227 -58q-152 0 -229 97q-59 76 -59 186q0 93 40.5 165.5t116.5 108.5q62 29 143 29q126 0 222 -75zM429 -120q0 -90 -133 -117l-84 48
q5 2 16 6t20 7.5t18 7.5t14.5 8t5.5 7q0 8 -7 11.5t-15 5.5t-15 12t-7 28q0 25 24.5 43.5t59.5 18.5q46 0 74.5 -23.5t28.5 -62.5z" />
    <glyph glyph-name="hcircumflex.sc" horiz-adv-x="601" 
d="M531 0h-167v234h-117v-234h-167v568h167v-205h117v205h167v-568zM493 681l-56 -93l-139 70l-135 -70l-50 93l191 119z" />
    <glyph glyph-name="hbar.sc" horiz-adv-x="601" 
d="M526 0h-167v234h-117v-234h-167v400h-70v105h70v63h167v-63h117v63h167v-63h70v-104h-70v-401zM242 363h117v37h-117v-37z" />
    <glyph glyph-name="imacron.sc" horiz-adv-x="315" 
d="M317 629h-322v107h322v-107zM245 0h-165v568h165v-568z" />
    <glyph glyph-name="iogonek.sc" horiz-adv-x="315" 
d="M257 -174q-75 -30 -132 -30q-46 0 -76 25t-30 71q0 58 56 108v568h165v-568q-45 -6 -70 -29.5t-25 -47.5q0 -5 2 -11q7 -21 29 -21q21 0 48 16z" />
    <glyph glyph-name="Idotaccent.sc" horiz-adv-x="315" 
d="M240 0h-165v568h165v-568zM255 694q0 -40 -28.5 -69t-69.5 -29q-39 0 -67.5 29t-28.5 69t29 69t70 29q40 0 67.5 -28.5t27.5 -69.5z" />
    <glyph glyph-name="dotlessi.sc" horiz-adv-x="315" 
d="M240 0h-165v568h165v-568z" />
    <glyph glyph-name="jcircumflex.sc" horiz-adv-x="304" 
d="M240 43q0 -70 -50 -121t-123 -75l-77 77q56 35 69.5 67t13.5 112v465h167v-525zM346 686l-56 -93l-139 70l-135 -70l-50 93l191 119z" />
    <glyph glyph-name="kcommaaccent.sc" horiz-adv-x="598" 
d="M248 0h-168v568h168v-252l132 252h206l-161 -261l183 -307h-214l-146 293v-293zM412 -120q0 -90 -133 -117l-84 48q5 2 16 6t20 7.5t18 7.5t14.5 8t5.5 7q0 8 -7 11.5t-15 5.5t-15 12t-7 28q0 25 24.5 43.5t59.5 18.5q46 0 74.5 -23.5t28.5 -62.5z" />
    <glyph glyph-name="lacute.sc" horiz-adv-x="448" 
d="M448 128l-33 -128h-335v568h168v-440h200zM311 678l-231 -96l-55 88l218 121z" />
    <glyph glyph-name="lcommaaccent.sc" horiz-adv-x="448" 
d="M448 128l-33 -128h-335v568h168v-440h200zM348 -120q0 -90 -133 -117l-84 48q5 2 16 6t20 7.5t18 7.5t14.5 8t5.5 7q0 8 -7 11.5t-15 5.5t-15 12t-7 28q0 25 24.5 43.5t59.5 18.5q46 0 74.5 -23.5t28.5 -62.5z" />
    <glyph glyph-name="lcaron.sc" horiz-adv-x="448" 
d="M479 474q0 -57 -38 -102q-15 -18 -44 -34.5t-62 -22.5l-58 54q29 6 47 18.5t18 23.5q0 9 -3.5 13.5t-12.5 10.5t-15 11q-26 24 -26 61q0 33 25.5 55.5t63.5 22.5q49 0 77 -29.5t28 -81.5zM448 128l-33 -128h-335v568h168v-440h200z" />
    <glyph glyph-name="lslash.sc" horiz-adv-x="448" 
d="M443 128l-33 -128h-335v222l-46 -15v112l46 15v234h168v-179l153 50v-114l-153 -49v-148h200z" />
    <glyph glyph-name="nacute.sc" horiz-adv-x="619" 
d="M549 0h-167l-93 160q-10 17 -24.5 48.5t-24.5 55.5l-10 23q10 -82 10 -125v-162h-160v568h159l92 -158q11 -18 27.5 -51.5t27.5 -58.5l11 -24q-8 87 -8 114v178h160v-568zM480 678l-231 -96l-55 88l218 121z" />
    <glyph glyph-name="ncommaaccent.sc" horiz-adv-x="619" 
d="M549 0h-167l-93 160q-10 17 -24.5 48.5t-24.5 55.5l-10 23q10 -82 10 -125v-162h-160v568h159l92 -158q11 -18 27.5 -51.5t27.5 -58.5l11 -24q-8 87 -8 114v178h160v-568zM418 -120q0 -90 -133 -117l-84 48q5 2 16 6t20 7.5t18 7.5t14.5 8t5.5 7q0 8 -7 11.5t-15 5.5
t-15 12t-7 28q0 25 24.5 43.5t59.5 18.5q46 0 74.5 -23.5t28.5 -62.5z" />
    <glyph glyph-name="ncaron.sc" horiz-adv-x="619" 
d="M549 0h-167l-93 160q-10 17 -24.5 48.5t-24.5 55.5l-10 23q10 -82 10 -125v-162h-160v568h159l92 -158q11 -18 27.5 -51.5t27.5 -58.5l11 -24q-8 87 -8 114v178h160v-568zM504 726l-187 -135l-193 135l51 93l139 -70l135 70z" />
    <glyph glyph-name="omacron.sc" horiz-adv-x="653" 
d="M487 629h-322v107h322v-107zM613 305q0 -315 -280 -315q-134 0 -208.5 75.5t-74.5 204.5q0 149 75.5 228t212.5 79q76 0 132 -24.5t86 -65.5t43.5 -86.5t13.5 -95.5zM427 287q0 100 -21.5 134.5t-72.5 34.5q-96 0 -96 -170q0 -100 24 -137.5t74 -37.5q49 0 70.5 36.5
t21.5 139.5z" />
    <glyph glyph-name="ohungarumlaut.sc" horiz-adv-x="653" 
d="M613 305q0 -315 -280 -315q-134 0 -208.5 75.5t-74.5 204.5q0 149 75.5 228t212.5 79q76 0 132 -24.5t86 -65.5t43.5 -86.5t13.5 -95.5zM427 287q0 100 -21.5 134.5t-72.5 34.5q-96 0 -96 -170q0 -100 24 -137.5t74 -37.5q49 0 70.5 36.5t21.5 139.5zM625 780l-171 -192
l-95 51l137 206zM407 792l-135 -210l-100 37l100 220z" />
    <glyph glyph-name="oe.sc" horiz-adv-x="772" 
d="M747 0h-418q-136 0 -210 71t-74 199q0 146 79.5 222t209.5 76h402l-12 -128h-189v-84h155v-123h-155v-104h212v-129zM367 126v315q-22 4 -37 4q-97 0 -97 -159q0 -99 23.5 -131t75.5 -32q20 0 35 3z" />
    <glyph glyph-name="racute.sc" horiz-adv-x="575" 
d="M570 0h-194l-65 162q-16 39 -28.5 50t-34.5 12v-224h-168v568h217q243 0 243 -165q0 -130 -126 -155q36 -13 60 -58q42 -80 96 -190zM355 392q0 27 -15.5 38.5t-52.5 11.5h-39v-108h40q67 0 67 58zM426 678l-231 -96l-55 88l218 121z" />
    <glyph glyph-name="rcommaaccent.sc" horiz-adv-x="575" 
d="M570 0h-194l-65 162q-16 39 -28.5 50t-34.5 12v-224h-168v568h217q243 0 243 -165q0 -130 -126 -155q36 -13 60 -58q42 -80 96 -190zM355 392q0 27 -15.5 38.5t-52.5 11.5h-39v-108h40q67 0 67 58zM402 -120q0 -90 -133 -117l-84 48q5 2 16 6t20 7.5t18 7.5t14.5 8t5.5 7
q0 8 -7 11.5t-15 5.5t-15 12t-7 28q0 25 24.5 43.5t59.5 18.5q46 0 74.5 -23.5t28.5 -62.5z" />
    <glyph glyph-name="rcaron.sc" horiz-adv-x="575" 
d="M570 0h-194l-65 162q-16 39 -28.5 50t-34.5 12v-224h-168v568h217q243 0 243 -165q0 -130 -126 -155q36 -13 60 -58q42 -80 96 -190zM355 392q0 27 -15.5 38.5t-52.5 11.5h-39v-108h40q67 0 67 58zM479 726l-187 -135l-193 135l51 93l139 -70l135 70z" />
    <glyph glyph-name="sacute.sc" horiz-adv-x="592" 
d="M552 199q0 -101 -75 -155t-199 -54q-122 0 -233 53l60 122q90 -47 175 -47q82 0 82 46q0 30 -58 43l-84 20q-143 33 -143 161q0 84 69 136.5t175 52.5q135 0 227 -58l-82 -109q-65 40 -140 40q-28 0 -43 -10t-15 -25q0 -33 56 -45l63 -14q33 -8 55 -15.5t51 -24.5
t44 -46.5t15 -70.5zM455 678l-231 -96l-55 88l218 121z" />
    <glyph glyph-name="scircumflex.sc" horiz-adv-x="592" 
d="M552 199q0 -101 -75 -155t-199 -54q-122 0 -233 53l60 122q90 -47 175 -47q82 0 82 46q0 30 -58 43l-84 20q-143 33 -143 161q0 84 69 136.5t175 52.5q135 0 227 -58l-82 -109q-65 40 -140 40q-28 0 -43 -10t-15 -25q0 -33 56 -45l63 -14q33 -8 55 -15.5t51 -24.5
t44 -46.5t15 -70.5zM522 668l-56 -93l-139 70l-135 -70l-50 93l191 119z" />
    <glyph glyph-name="scedilla.sc" horiz-adv-x="592" 
d="M547 199q0 -91 -61 -144t-165 -63l-8 -17q35 -3 56 -23t21 -50q0 -42 -29.5 -72t-91.5 -30q-50 0 -88 20l32 62q22 -11 48 -11q33 0 33 24t-33 24q-14 0 -28 -2l-10 17l18 57q-103 5 -201 52l60 122q90 -47 175 -47q82 0 82 46q0 30 -58 43l-84 20q-143 33 -143 161
q0 84 69 136.5t175 52.5q135 0 227 -58l-82 -109q-65 40 -140 40q-28 0 -43 -10t-15 -25q0 -33 56 -45l63 -14q33 -8 55 -15.5t51 -24.5t44 -46.5t15 -70.5z" />
    <glyph glyph-name="scaron.sc" horiz-adv-x="592" 
d="M552 199q0 -101 -75 -155t-199 -54q-122 0 -233 53l60 122q90 -47 175 -47q82 0 82 46q0 30 -58 43l-84 20q-143 33 -143 161q0 84 69 136.5t175 52.5q135 0 227 -58l-82 -109q-65 40 -140 40q-28 0 -43 -10t-15 -25q0 -33 56 -45l63 -14q33 -8 55 -15.5t51 -24.5
t44 -46.5t15 -70.5zM494 726l-187 -135l-193 135l51 93l139 -70l135 70z" />
    <glyph glyph-name="tcommaaccent.sc" horiz-adv-x="494" 
d="M494 568l-20 -129h-142v-439h-169v439h-143v129h474zM349 -120q0 -90 -133 -117l-84 48q5 2 16 6t20 7.5t18 7.5t14.5 8t5.5 7q0 8 -7 11.5t-15 5.5t-15 12t-7 28q0 25 24.5 43.5t59.5 18.5q46 0 74.5 -23.5t28.5 -62.5z" />
    <glyph glyph-name="tcaron.sc" horiz-adv-x="494" 
d="M494 568l-20 -129h-142v-439h-169v439h-143v129h474zM435 726l-187 -135l-193 135l51 93l139 -70l135 70z" />
    </font>
</defs>
</svg>
