<?xml version="1.0" standalone="no"?>
<!DOCTYPE svg PUBLIC "-//W3C//DTD SVG 1.1//EN" "http://www.w3.org/Graphics/SVG/1.1/DTD/svg11.dtd" >
<svg xmlns="http://www.w3.org/2000/svg">
<metadata>Generated by IcoMoon</metadata>
<defs>
<font id="icomoon" horiz-adv-x="512">
<font-face units-per-em="512" ascent="480" descent="-32" />
<missing-glyph horiz-adv-x="512" />
<glyph unicode="&#x20;" d="" horiz-adv-x="256" />
<glyph unicode="&#xe600;" d="M506.88 358.4v30.72c0 11.315-9.19 20.48-20.48 20.48h-460.8c-11.315 0-20.48-9.165-20.48-20.48v-30.72h51.2v-51.2h-51.2v-51.2h51.2v-51.2h-51.2v-51.2h51.2v-51.2h-51.2v-30.72c0-11.315 9.165-20.48 20.48-20.48h460.8c11.289 0 20.48 9.165 20.48 20.48v30.72h-51.2v51.2h51.2v51.2h-51.2v51.2h51.2v51.2h-51.2v51.2h51.2zM199.68 153.6v153.6l128-76.8-128-76.8z" />
<glyph unicode="&#xe601;" d="M370.057 91.836c-14.601 0-19.917 11.844-19.917 26.454 0 14.601 5.317 26.462 19.917 26.462h18.21v236.749h-219.486c-24.883 0-45.047-20.173-45.047-45.056v-224.896c0-24.875 20.164-45.039 45.047-45.039h219.486v25.336h-18.21zM343.603 91.836h-172.672c-14.601 0-19.909 11.844-19.909 26.454 0 14.601 5.308 26.462 19.909 26.462h172.672c-10.043-4.599-10.522-14.686-10.522-26.462s0.478-21.863 10.522-26.454z" />
<glyph unicode="&#xe602;" d="M348.57 148.267v-26.615c0-14.788-12.143-26.786-27.094-26.786h-169.899l-52.318-49.954c-4.181-3.158-10.112-2.355-13.227 1.792l-0.12 48.162h-34.893c-14.993 0-27.11 11.99-27.11 26.786v179.533c0 14.779 12.118 26.769 27.11 26.769h150.938v-151.825c0-15.385 12.962-27.861 28.988-27.861h117.623zM232.525 348.647v-149.017c0-12.45 10.206-22.553 22.818-22.553h125.269l44.058-42.053c3.507-2.663 8.507-1.979 11.136 1.493l0.111 40.559h29.355c12.621 0 22.827 10.103 22.827 22.553v149.018c0 12.458-10.206 22.553-22.827 22.553h-209.929c-12.621 0-22.818-10.095-22.818-22.553z" />
<glyph unicode="&#xe603;" d="M409.276 401.656h-306.551c-19.064 0-34.526-15.113-34.526-33.75v-236.825c0-18.645 15.463-33.741 34.526-33.741h95.548l53.82-65.416c3.695-3.644 9.736-3.533 13.483 0.248l50.227 65.169h93.483c19.072 0 34.526 15.104 34.526 33.741v236.834c-0.009 18.637-15.462 33.741-34.534 33.741zM359.33 162.168h-206.669c-9.31 0-16.862 7.56-16.862 16.887s7.552 16.87 16.862 16.87h206.669c9.31 0 16.87-7.543 16.87-16.87s-7.56-16.887-16.87-16.887zM359.33 229.657h-206.669c-9.31 0-16.862 7.552-16.862 16.862 0 9.327 7.552 16.879 16.862 16.879h206.669c9.31 0 16.87-7.552 16.87-16.879 0-9.31-7.56-16.862-16.87-16.862zM359.33 298.197h-206.669c-9.31 0-16.862 7.552-16.862 16.862s7.552 16.879 16.862 16.879h206.669c9.31 0 16.87-7.56 16.87-16.879s-7.56-16.862-16.87-16.862z" />
<glyph unicode="&#xe604;" d="M364.135 133.64c32.426 34.611 60.347 92.544 41.37 151.313-25.267 78.293-110.533 121.156-190.089 95.488l-2.458-0.802c-38.469-12.416-70.016-38.724-88.755-74.095-18.953-35.703-22.605-76.442-10.249-114.697 15.949-49.476 61.721-87.185 120.005-98.611 1.229-0.179 2.867-0.325 4.719-0.452 1.093-0.103 2.841-0.197 4.394-0.384l5.316-16.418-3.942-1.263c-9.976-3.226-15.463-13.944-12.262-23.911l17.118-53.043c2.56-7.851 9.814-13.107 18.065-13.107 1.971 0 3.942 0.29 5.846 0.887l2.808 0.913c27.673-11.546 44.868-17.459 50.978-17.459 0.973 0 2.474 0.179 3.405 0.392 29.875 7.262 31.863 9.029 34.168 11 1.724 1.502 3.43 3.038 26.855 43.324l6.341 2.031c9.933 3.217 15.437 13.961 12.237 23.928l-17.101 52.975c-3.132 9.771-14.046 15.402-23.928 12.262l-9.447-3.038-4.966 15.419c1.092 0.837 2.27 1.647 3.072 2.245 2.389 1.656 4.421 3.089 6.502 5.103zM326.579-7.56c-2.697 0.623-7.851 2.355-14.233 4.728l44.305 14.302c-3.43-5.726-6.255-10.454-7.962-13.099-3.704-1.178-11.452-3.303-22.11-5.93zM371.422 89.216l13.884-43-5.675-1.817c-0.034-0.026-0.060-0.026-0.077-0.026l-108.825-35.106-13.849 42.974 114.543 36.975zM346.949 150.724c-0.768-0.64-1.962-1.442-3.269-2.355-7.048-4.95-17.707-12.493-14.072-23.748l6.853-21.188-65.015-21-6.835 21.214c-3.481 10.803-15.915 11.733-24.149 12.339-1.169 0.094-2.227 0.162-2.423 0.162-38.425 7.526-85.145 33.058-100.992 82.176-10.326 31.949-7.279 66.005 8.55 95.872 15.813 29.747 42.376 51.909 74.846 62.37l2.458 0.802c66.765 21.529 138.343-14.259 159.513-79.855 15.752-48.81-9.541-99.072-35.464-126.788zM175.104 461.671c-2.048 6.383 1.425 13.201 7.808 15.266 6.4 2.031 13.235-1.468 15.283-7.808l17.255-53.504c2.048-6.392-1.425-13.218-7.808-15.266-1.246-0.409-2.492-0.58-3.738-0.58-5.112 0-9.873 3.26-11.537 8.397l-17.263 53.495zM285.978 415.88l12.731 54.75c1.527 6.528 8.022 10.565 14.541 9.063 6.536-1.51 10.599-8.038 9.096-14.566l-12.766-54.733c-1.297-5.598-6.281-9.387-11.81-9.387-0.896 0-1.834 0.077-2.748 0.298-6.536 1.511-10.59 8.030-9.046 14.575zM374.033 364.919c-5.137 4.31-5.794 11.964-1.502 17.075l36.096 43.094c4.293 5.137 11.938 5.82 17.075 1.51 5.146-4.293 5.82-11.921 1.502-17.075l-36.096-43.077c-2.373-2.858-5.803-4.352-9.301-4.352-2.731-0.017-5.495 0.93-7.774 2.824zM428.774 308.31l54.306 14.421c6.477 1.741 13.15-2.133 14.839-8.601 1.733-6.459-2.142-13.090-8.61-14.831l-54.323-14.43c-1.033-0.264-2.065-0.409-3.106-0.409-5.359 0-10.274 3.592-11.725 9.019-1.681 6.451 2.151 13.090 8.618 14.831zM496.649 185.464c-1.553-5.325-6.4-8.764-11.665-8.764-1.11 0-2.262 0.162-3.37 0.495l-53.99 15.574c-6.442 1.861-10.146 8.593-8.303 15.036 1.861 6.442 8.61 10.146 15.036 8.277l53.974-15.591c6.442-1.869 10.171-8.576 8.32-15.027zM73.762 390.332c-5.034 4.386-5.564 12.066-1.177 17.092 4.412 5.035 12.091 5.59 17.127 1.169l42.359-36.967c5.035-4.411 5.581-12.083 1.169-17.118-2.398-2.757-5.769-4.156-9.148-4.156-2.833 0-5.657 0.998-7.97 2.987l-42.359 36.992zM23.646 276.958c-6.596 1.195-10.991 7.475-9.796 14.072s7.527 10.931 14.071 9.813l55.33-9.873c6.579-1.195 10.991-7.493 9.796-14.072-1.041-5.897-6.169-10.010-11.912-10.010-0.725 0-1.425 0.051-2.168 0.197l-55.322 9.873zM91.614 174.021l-52.539-20.053c-1.425-0.546-2.885-0.802-4.309-0.802-4.889 0-9.489 2.986-11.341 7.8-2.381 6.264 0.742 13.278 6.989 15.659l52.566 20.070c6.281 2.355 13.252-0.76 15.65-6.998 2.355-6.281-0.76-13.278-7.014-15.675zM150.332 100.736l-34.705-44.237c-2.398-3.046-5.93-4.651-9.54-4.651-2.62 0-5.248 0.845-7.458 2.594-5.299 4.147-6.213 11.784-2.073 17.050l34.705 44.228c4.138 5.274 11.768 6.195 17.016 2.048 5.282-4.113 6.221-11.742 2.056-17.032z" />
<glyph unicode="&#xe605;" d="M338.313 386.841c12.714-6.442 47.932-14.609 47.932-14.609-15.087 73.506-105.122 107.784-158.183 107.767-52.71-0.026-63.608-38.323-65.425-57.685 0 0-25.438 12.911-30.891-43.546-3.149-32.623 20.966-90.454 32.674-106.18l-0.025-0.017c1.963-2.952 8.567-13.201 11.29-17.502 24.269-38.204 35.712-60.416 59.989-62.267 5.512-0.418 13.875-0.904 22.733-0.904 14.848 0 40.712 1.382 46.993 6.818 4.625 4.002 27.767 42.172 43.127 78.549 3.687 3.661 7.441 8.363 10.666 14.78 10.547 20.958 0.563 77.952 0.563 77.952l-0.12-0.017c8.089 0.904 11.623 1.92 7.748 2.338-14.533 1.605-29.073 14.524-29.073 14.524zM341.649 305.519c-6.827-30.567-28.63-79.71-46.31-95.044-4.079-2.85-36.557-3.891-58.488-2.227-18.585 1.416-40.704 37.504-54.921 59.879-2.133 3.362-3.994 6.246-5.683 8.849-9.745 53.564 3.064 90.957 3.064 90.957 41.797-35.464 101.367-12.655 101.367-12.655-23.62 9.677-25.378 23.501-25.378 23.501 26.24-9.856 57.498-28.877 84.625-27.895 1.843-17.63 5.453-27.563 1.724-45.363zM450.398-32h-388.796l14.951 122.394c0 42.752 35.678 79.514 77.21 79.514l27.912 8.721 46.558-105.327 3.397-2.279 10.769 68.361-10.769 15.471 15.471 18.176h17.494l15.309-18.995-11-13.781 12.151-71.006 6.981 4.053 44.613 105.327 28.68-9.685c41.531 0 76.254-35.806 76.254-78.558l12.817-122.385z" />
<glyph unicode="&#xe606;" d="M54.553-32c0 0 26.786 128.077 35.013 159.591s19.183 34.27 26.035 38.375 44.484 8.96 92.442 28.143l43.767-164.121 52.156 165.495c47.957-19.183 85.589-24.030 92.442-28.143s17.809-6.861 26.035-38.375 35.012-159.591 35.012-159.591l-402.901-1.374zM367.215 287.736c-3.2-11.059-9.967-36.804-27.904-52.804-21.435-19.131-59.461-36.489-80.683-35.507-38.971 1.817-56.072 30.968-62.37 30.968-35.089 0-63.958 21.947-74.752 33.792-10.803 11.835 26.163-3.746 24.362 19.925-1.519 19.968-9.002 124.74 26.991 157.517 35.993 32.768 59.059 36.411 85.769 38.229 26.701 1.826 54.647-12.731 77.568-37.325s35.516-69.205 36.421-81.954c0.896-12.74 2.389-45.901-5.401-72.84zM333.935 315.981c-0.563 26.641-9.011 35.49-20.702 35.499-11.699 0.008-25.19 0-42.282 0-17.101 0-53.99 20.941-63.889 33.681-9.907 12.74-18.901-1.809-18.901-7.288 0 0-6.298-72.823-4.497-87.39 1.792-14.566 21.598-84.685 75.366-81.954 53.769 2.722 75.52 77.38 74.906 107.452z" />
<glyph unicode="&#xe607;" d="M414.003 419.763v32.871c0 15.129-10.701 27.366-23.97 27.366-13.235 0-23.962-12.237-23.962-27.366v-32.871h-79.846v32.871c0 15.129-10.701 27.366-23.962 27.366-13.235 0-23.97-12.237-23.97-27.366v-32.871h-72.986v32.871c0 15.129-10.726 27.366-23.953 27.366-13.261 0-23.978-12.237-23.978-27.366v-32.871h-96.376v-451.763h469.999v451.763h-76.997zM428.237 11.366h-344.49v269.209h344.49v-269.209z" />
<glyph unicode="&#xe608;" d="M414.021 419.755v32.887c0 15.096-10.735 27.358-23.995 27.358-13.201 0-23.919-12.262-23.919-27.358v-32.887h-79.829v32.887c0 15.096-10.735 27.358-23.995 27.358s-23.953-12.262-23.953-27.358v-32.887h-73.011v32.887c0 15.096-10.735 27.358-23.97 27.358s-23.97-12.262-23.97-27.358v-32.887h-96.376v-451.755h469.999v451.755h-76.979zM428.254 11.332h-344.517v269.243h344.507v-269.243zM404.053 152.678h-78.481v87.194h78.481v-87.194zM295.535 152.678h-78.447v87.194h78.447v-87.194zM404.053 39.134h-78.481v87.117h78.481v-87.117zM295.535 39.134h-78.447v87.117h78.447v-87.117zM187.725 39.134h-78.456v87.117h78.456v-87.117z" />
<glyph unicode="&#xe609;" d="M298.342 183.322l-3.089 2.927c-4.616 4.522-7.253 10.701-7.296 17.212v152.337c0 17.63-14.327 31.983-31.958 31.983-17.621 0-31.975-14.353-31.975-31.983l-0.734-157.585c-0.964-4.267-3.064-8.183-6.076-11.349l-0.563-1.339-3.131-2.304c-18.825-13.841-29.611-34.952-29.611-57.933 0-39.722 32.341-72.064 72.081-72.064 39.731 0 72.089 32.341 72.089 72.064-0.009 23.091-10.863 44.228-29.738 58.035zM255.992 77.15c-26.582 0-48.119 21.563-48.119 48.137 0 23.091 16.273 42.343 37.974 47.027v72.943c0 6.971 5.342 12.63 11.938 12.63 6.579 0 11.93-5.666 11.93-12.63v-74.070c19.849-5.905 34.398-24.115 34.398-45.901 0.017-26.573-21.529-48.137-48.12-48.137zM255.992 480c-141.371 0-255.992-114.629-255.992-256 0-141.363 114.62-256 255.992-256 141.389 0 256.009 114.637 256.009 256 0 141.371-114.62 256-256.009 256zM255.992 25.216c-55.185 0-100.088 44.877-100.088 100.070 0 29.995 13.159 57.668 36.292 76.8l0.060 0.392 3.635 2.952 0.128 150.375c0 33.066 26.914 59.981 59.972 59.981 33.050 0 59.955-26.914 59.955-59.981v-150.238l3.678-3.345c22.912-18.952 36.446-47.283 36.446-76.937 0.009-55.193-44.877-100.070-100.079-100.070z" />
<glyph unicode="&#xe60a;" d="M257.622 12.8c-0.103 0-0.205 0-0.307 0-91.469 0.197-125.594 78.678-133.274 120.141l-0.307 3.473v107.050h37.948v-105.105c2.705-12.075 18.133-87.433 95.701-87.611 0.086 0 0.154 0 0.239 0 65.255 0 88.013 50.875 92.689 71.501v224.017c-10.18 49.536-51.721 50.978-56.465 50.978-53.248 0-58.88-48.717-58.88-49.195l-0.102-150.272c-0.581-6.963-1.007-33.382 20.992-32.802 21.427 0.58 21.47 29.346 21.47 37.111v114.363h37.93v-114.355c0-4.275-0.657-42.359-23.552-62.779-10.803-9.642-24.687-13.79-40.124-12.032-44.331 5.060-56.857 46.174-54.562 73.25v147.567c0 23.254 22.946 87.108 96.827 87.108 62.618 0 88.952-54.81 94.097-83.781l0.315-3.319v-215.697l-0.683-18.048c-4.591-39.808-49.229-101.563-129.954-101.563z" />
<glyph unicode="&#xe60b;" d="M255.958 479.991c-141.133 0-255.958-114.875-255.958-256.060 0-141.125 114.825-255.923 255.958-255.923 141.192 0 256.043 114.799 256.043 255.923 0 141.184-114.85 256.060-256.043 256.060zM255.958 31.096c-106.291 0-192.76 86.519-192.76 192.845 0 106.334 86.477 192.87 192.76 192.87 106.334 0 192.827-86.536 192.827-192.87s-86.494-192.845-192.827-192.845zM393.421 302.592c-5.188 6.895-13.44 10.966-22.058 10.966-6.007 0-11.682-1.861-16.426-5.512l-96.597-73.737-66.825 51.78c-4.779 3.72-10.735 5.726-16.802 5.726-8.542 0-16.461-3.891-21.657-10.565-4.506-5.811-6.486-12.988-5.598-20.31 0.939-7.322 4.677-13.85 10.488-18.287 87.868-67.934 87.868-67.934 89.302-68.138 4.002-1.971 8.158-2.978 12.347-2.978 5.504 0 10.812 1.809 15.402 5.265 5.299 4.147 113.075 87.031 113.075 87.031 5.863 4.369 9.685 10.821 10.726 18.245 1.007 7.338-0.93 14.797-5.376 20.514z" />
<glyph unicode="&#xe60c;" d="M389.069-32l-93.142 98.611h57.89v110.524c0 0.35 0.281 0.649 0.64 0.649h69.368c0.375 0 0.623-0.298 0.623-0.649v-110.524h56.832l-92.211-98.611zM417.502 411.776c-12.74 15.829-43.981 51.234-78.831 63.744-7.851 2.825-24.005 4.48-24.005 4.48h-197.060c-14.148 0-25.634-11.486-25.634-25.634v-115.78h-66.329v-161.101h66.329v-131.755c0-14.183 11.486-25.668 25.634-25.668h190.575l-35.67 37.786c-0.93 0.964-1.698 2.014-2.398 3.063h-141.73v116.565h191.266v161.101h-191.266v108.408h200.038c0 0 18.551-0.99 21.47-31.224 2.927-30.267 4.881-75.144 4.881-75.144s84.659-8.806 98.313-19.541v-229.709l33.272-0.026c0 0 0 224.239 0 232.849 0 11.221-50.841 65.212-68.856 87.586zM285.978 306.082c10.872 0 19.123-2.432 22.835-4.539l-4.411-18.134c-4.122 1.954-10.018 3.763-17.596 3.763-16.503 0-29.423-11.017-29.423-33.826 0-20.403 11-33.246 29.56-33.246 6.486 0 13.337 1.365 17.596 3.337l3.029-18.134c-3.721-1.962-12.519-4.386-23.646-4.386-32.051 0-48.546 22.041-48.546 51.209 0 34.757 22.562 53.957 50.603 53.957zM182.451 306.082c28.458 0 44.006-23.424 44.006-51.533 0-33.544-18.296-53.64-45.389-53.64h-0.137c-27.375 0-43.589 22.81-43.589 51.823-0.008 30.532 17.869 53.35 45.107 53.35zM128.418 255.915c0-19.499-6.451-32.956-15.249-41.242-9.77-8.926-24.773-13.142-42.906-13.142-10.871 0-18.705 0.743-23.799 1.493v99.882c7.697 1.511 17.741 2.262 28.203 2.262 17.724 0 29.287-3.174 38.084-10.573 9.634-7.851 15.667-20.566 15.667-38.682zM181.76 219.195h0.145c14.174 0 22.28 14.669 22.28 34.594 0 18.296-7.833 33.997-22.28 33.997-14.439 0-22.554-15.411-22.554-34.44-0.008-19.2 8.38-34.151 22.409-34.151zM76.851 287.488c-4.54 0-7.689-0.452-9.489-0.905v-66.619c1.8-0.478 4.813-0.478 7.305-0.478 19.106-0.137 31.616 11.333 31.616 35.686 0 21.905-11.273 32.316-29.431 32.316z" />
<glyph unicode="&#xe60d;" d="M258.236 392.866c0-22.519-8.857-39.065-24.32-39.065h-0.162c-15.309 0-24.465 16.887-24.465 38.57 0 21.513 8.857 38.904 24.627 38.904 15.761-0.008 24.32-17.75 24.32-38.409zM119.953 430.933c-4.958 0-8.406-0.52-10.359-1.024v-75.255c1.954-0.512 5.248-0.512 7.945-0.512 20.873-0.179 34.543 12.791 34.543 40.269-0.008 23.894-12.314 36.522-32.128 36.522zM467.857 444.903v-381.782h-40.935v254.89h-341.846v-272.273h195.345l38.673-40.952h-239.863c-19.379 0-35.089 15.71-35.089 35.089v405.026c0 19.379 15.71 35.097 35.089 35.097h353.536c19.379 0 35.089-15.718 35.089-35.097zM176.239 395.264c0 20.471-6.605 34.466-17.118 43.332-9.608 8.192-22.221 12.297-41.591 12.297-11.4 0-22.366-0.871-30.763-2.569v-112.793c5.546-0.862 14.114-1.698 25.975-1.698 19.806 0 36.165 4.762 46.831 14.831 9.608 9.404 16.666 24.584 16.666 46.601zM282.394 393.736c0 31.736-16.956 58.181-48.034 58.181-29.713 0-49.238-25.771-49.238-60.245 0-32.76 17.715-58.522 47.582-58.522h0.162c29.576 0 49.528 22.69 49.528 60.587zM315.307 392.363c0 25.6 14.106 38.050 32.128 38.050 8.252 0 14.72-2.048 19.217-4.267l4.796 20.642c-4.053 2.219-13.056 4.95-24.918 4.95-30.626 0-55.254-21.675-55.254-60.732 0-32.776 18.014-57.694 53-57.694 12.16 0 21.76 2.731 25.813 4.95l-3.311 20.471c-4.642-2.21-12.151-3.746-19.209-3.746-20.258 0.008-32.264 14.507-32.264 37.376zM400.529 110.762h-46.097c-0.281 0-0.529-61.926-0.529-61.926h-52.096l76.347-80.837 75.589 80.845h-52.702c0.009 0-0.222 61.918-0.512 61.918zM327.322 137.805h-199.441v-22.75h199.441v22.75zM327.322 183.714h-199.441v-22.741h199.441v22.741zM327.322 230.536h-99.721v-22.741h99.729v22.742zM326.17 276.446h-99.729v-22.75h99.729v22.75zM161.178 208.145l6.238 28.151c1.561 6.707 2.619 12.953 3.789 20.344h0.196c0.768-7.493 1.843-13.637 3.106-20.258l5.538-28.237h16.069l16.947 65.63h-15.087l-5.359-26.778c-1.357-7.885-2.808-15.582-3.78-22.887h-0.196c-0.973 7.296-2.040 14.319-3.507 21.999l-5.256 27.656h-15.778l-5.547-26.778c-1.655-8.175-3.217-16.069-4.292-23.27h-0.188c-1.058 6.707-2.423 15.173-3.891 23.065l-4.958 26.974h-15.881l15.582-65.63h16.256z" />
<glyph unicode="&#xe60e;" d="M389.069-32l-93.142 98.594h57.856v110.558c0 0.358 0.315 0.632 0.674 0.632h69.342c0.358 0 0.632-0.273 0.632-0.632v-110.558h56.841l-92.202-98.594zM170.368 275.192c0 7.62-4.95 12.791-15.351 12.791-3.909 0-6.588-0.281-7.978-0.589v-26.206c1.519-0.162 3.32-0.315 6.203-0.315 10.513-0.009 17.126 5.478 17.126 14.319zM486.366 324.216c0-8.601 0-232.875 0-232.875l-33.272 0.043v229.709c-13.662 10.735-98.321 19.541-98.321 19.541s-1.962 44.877-4.889 75.153c-2.918 30.233-21.47 31.224-21.47 31.224h-200.081v-108.425h191.266v-161.11h-191.266v-116.557h141.773c0.709-1.058 1.459-2.091 2.363-3.072l35.687-37.777h-190.558c-14.174 0-25.66 11.495-25.66 25.659v131.738h-66.304v161.11h66.313v115.806c-0.008 14.131 11.477 25.617 25.651 25.617h197.069c0 0 16.111-1.655 23.995-4.454 34.816-12.51 66.074-47.914 78.822-63.744 17.997-22.383 68.881-76.382 68.881-87.586zM102.238 307.951h-27.23v-63.386c0-14.131-5.726-18.117-14.438-18.117-4.386 0-8.61 0.751-11.904 1.69l-2.867-22.102c4.975-1.656 12.357-2.449 17.928-2.449 24.354 0 38.52 11.136 38.52 40.977v63.386zM206.481 255.104c0-14.643 4.95-27.904 14.439-37.018 9.156-8.841 22.698-13.858 42.573-13.858 13.243 0 27.392 3.2 35.063 5.769v56.2h-39.74v-21.307h13.56v-17.681c-1.357-0.589-4.805-0.905-8.584-0.905-16.537 0-28.732 11.127-28.732 30.311 0 20.881 13.858 29.721 30.549 29.721 11.452 0 18.346-1.817 24.072-4.429l5.41 22.11c-5.248 2.56-15.625 5.009-29.329 5.009-32.793-0.008-59.136-18.125-59.281-53.922zM120.124 306.415v-101.128h26.914v34.893c1.655 0 3.925-0.315 6.631-0.315 13.688 0 25.575 3.362 33.707 10.658 6.469 5.913 9.941 14.916 9.941 25.301 0 10.496-4.677 19.499-11.597 24.67-7.066 5.487-17.605 8.209-32.205 8.209-15.36 0-26.010-1.067-33.391-2.287z" />
<glyph unicode="&#xe60f;" d="M401.050 48.862h52.702l-75.589-80.862-76.365 80.862h52.096c0 0 0.231 61.901 0.529 61.901h46.097c0.298-0.009 0.529-61.901 0.529-61.901zM467.865 444.903v-381.773h-40.952v254.882h-341.837v-272.273h195.337l38.682-40.943h-239.855c-19.379 0-35.097 15.719-35.097 35.098v405.009c-0.008 19.379 15.71 35.097 35.097 35.097h353.528c19.379 0 35.097-15.718 35.097-35.097zM130.619 450.039h-23.338v-72.525c0-17.741-6.153-22.698-15.975-22.698-4.608 0-8.755 0.862-11.981 2.056l-2.611-20.992c4.6-1.707 11.674-2.739 17.212-2.739 22.57 0 36.702 11.435 36.702 44.211v72.687zM222.925 415.062c0 11.255-4.301 20.821-11.059 26.453-6.912 6.306-17.203 9.387-31.642 9.387-14.285 0-24.414-1.016-31.642-2.381v-113.493h23.194v41.301c2.159-0.512 4.915-0.674 7.995-0.674 13.824 0 25.651 3.917 33.638 12.109 6.289 6.306 9.514 15.863 9.514 27.298zM322.748 400.896h-38.553v-20.31h15.966v-24.235c-1.834-0.845-6.135-1.544-11.366-1.544-19.2 0-32.709 13.832-32.709 37.726 0 24.901 14.89 37.197 34.389 37.197 11.366 0 18.287-2.057 23.97-4.958l4.915 20.992c-5.060 2.577-15.343 5.478-28.723 5.478-33.937 0-58.965-21.854-59.127-60.075 0-16.896 5.231-31.914 14.592-41.984 9.531-10.070 23.185-15.351 42.103-15.351 13.654 0 27.332 3.738 34.551 6.469v60.595zM181.291 431.104c-4.6 0-7.825-0.35-9.514-0.853v-33.962c2.006-0.512 4.301-0.674 7.842-0.674 12.441 0 20.113 6.997 20.113 18.602 0 10.565-6.613 16.887-18.441 16.887zM347.981 132.199c35.379-1.834 14.584 27.631 10.752 34.27-8.337 14.473-37 68.318-50.117 82.423-15.368 16.529-29.832-1.954-29.832-1.954s-28.024-49.587-64.179-114.739h133.376zM232.525 182.912c-11.187 19.456-18.236 31.249-18.236 31.249s-10.163 12.988-20.958 1.374c-10.811-11.614-37.162-57.942-37.162-57.942s-10.428-21.188 8.883-21.188h40.601c9.395 16.819 18.509 32.521 26.871 46.507zM187.862 268.51c-9.302 0-16.853-7.535-16.853-16.853 0-9.285 7.552-16.819 16.853-16.819s16.837 7.535 16.837 16.819c0 9.319-7.535 16.853-16.837 16.853z" />
<glyph unicode="&#xe610;" d="M389.069-32l-93.142 98.594h57.899v110.558c0 0.358 0.273 0.632 0.632 0.632h69.385c0.358 0 0.632-0.273 0.632-0.632v-110.558h56.798l-92.202-98.594zM213.351 273.058c0 6.989-4.54 11.725-13.977 11.725-3.55 0-6.033-0.273-7.262-0.546v-23.995c1.382-0.119 3.004-0.273 5.607-0.273 9.591-0.008 15.633 5 15.633 13.090zM486.366 324.216c0-8.601 0-232.875 0-232.875l-33.272 0.043v229.709c-13.662 10.735-98.321 19.541-98.321 19.541s-1.937 44.877-4.847 75.153c-2.927 30.233-21.478 31.224-21.478 31.224h-200.072v-108.425h191.266v-161.11h-191.266v-116.557h141.73c0.709-1.058 1.459-2.091 2.406-3.072l35.687-37.777h-190.601c-14.131 0-25.617 11.495-25.617 25.659v131.738h-66.347v161.11h66.347v115.806c0 14.131 11.486 25.617 25.617 25.617h197.069c0 0 16.154-1.655 23.995-4.454 34.85-12.51 66.108-47.914 78.822-63.744 18.039-22.383 68.881-76.382 68.881-87.586zM281.318 236.953c0-6.4-5.76-9.591-14.524-9.591-8.482 0-17.365 3.464-21.214 5.445l-4.633-18.825c5.598-3.473 15.727-6.434 27.904-6.434 23.014 0 38.075 11.289 38.075 28.024 0 11.563-8.49 19.653-19.021 21.47v0.273c10.949 3.909 16.273 11.289 16.273 20.923 0 12.945-11.639 22.963-31.334 22.963-12.313 0-23.68-3.319-29.312-6.827l4.659-17.954c3.576 1.937 11.512 5.137 19.038 5.137 7.654 0 11.904-3.038 11.904-7.654 0-6.272-7.791-8.209-13.969-8.209h-8.764v-17.843h9.318c8.055-0.008 15.599-3.482 15.599-10.897zM167.612 209.084h24.507v31.923c1.502 0 3.55-0.273 6.016-0.273 12.459 0 23.27 3.081 30.669 9.754 5.897 5.453 9.046 13.662 9.046 23.134 0 9.625-4.241 17.834-10.538 22.579-6.434 5.009-16.025 7.535-29.304 7.535-13.977 0-23.68-0.981-30.395-2.090v-92.561zM120.891 303.019l-6.981-25.063c-2.739-9.907-5.743-23.177-8.354-34.577h-0.418c-1.912 11.4-4.633 23.962-7.245 34.295l-6.033 25.344h-33.272l-5.743-93.935h22.715l1.519 33.741c0.418 10.582 0.811 24.517 1.357 37.777h0.273c2.193-12.825 4.933-26.761 7.398-36.787l7.68-32.768h19.302l9.156 32.768c3.021 10.299 6.843 24.354 9.728 36.787h0.418c0-14.643 0.119-27.196 0.546-37.777l1.083-33.741h23.962l-4.65 93.935h-32.444z" />
<glyph unicode="&#xe611;" d="M401.050 48.837h52.702l-75.589-80.837-76.365 80.837h52.096c0 0 0.248 61.926 0.529 61.926h46.097c0.315-0.009 0.529-61.926 0.529-61.926zM248.107 431.096c-4.6 0-7.833-0.333-9.514-0.853v-33.954c1.988-0.52 4.292-0.683 7.833-0.683 12.442 0 20.113 6.998 20.113 18.611-0.009 10.565-6.605 16.879-18.432 16.879zM467.865 444.903v-381.798h-40.952v254.908h-341.837v-272.273h195.337l38.682-40.943h-239.855c-19.379 0-35.106 15.693-35.106 35.072v405.034c-0.008 19.379 15.718 35.097 35.106 35.097h353.545c19.362 0 35.081-15.718 35.081-35.097zM198.971 335.027l-5.53 115.003h-30.728l-10.897-38.221c-3.533-12.791-7.057-27.972-9.831-41.293h-0.614c-2.304 13.483-5.376 27.819-8.746 41.122l-10.138 38.392h-31.181l-6.622-115.004h21.666l1.989 43.673c0.615 14.345 1.237 32.094 1.689 47.616h0.316c2.611-15.173 5.982-31.394 9.361-44.886l11.068-44.535h18.279l12.595 44.877c4.002 13.491 8.303 29.867 11.673 44.544h0.315c0-16.887 0.452-33.45 0.913-47.266l1.69-44.023h22.733zM289.733 415.062c0 11.255-4.301 20.804-11.050 26.445-6.921 6.323-17.221 9.403-31.65 9.403-14.285 0-24.414-1.032-31.633-2.389v-113.485h23.194v41.301c2.15-0.529 4.915-0.683 7.995-0.683 13.824 0 25.634 3.926 33.638 12.118 6.272 6.297 9.506 15.855 9.506 27.289zM369.28 366.933c0 14.678-9.685 24.738-21.666 27.136v0.333c12.296 4.617 18.287 14.003 18.287 25.771 0 15.19-11.818 27.656-33.015 27.656-13.065 0-24.883-4.088-30.865-8.354l4.753-18.774c3.985 2.722 12.603 6.647 20.736 6.647 9.984 0 14.754-4.941 14.754-11.597 0-9.387-9.83-12.808-17.664-12.808h-9.063v-18.603h9.531c10.137 0 19.968-4.933 19.968-16.034 0-8.201-6.152-14.678-18.287-14.678-9.514 0-19.046 4.267-23.202 6.827l-4.753-19.618c5.837-3.934 16.734-7.689 29.654-7.689 25.319-0.008 40.832 14.328 40.832 33.784zM332.519 256.333l-59.085 29.432c-0.068 0.043-0.137 0.068-0.214 0.086-0.281 0.145-0.58 0.239-0.887 0.35-0.264 0.085-0.546 0.179-0.819 0.248-0.231 0.051-0.486 0.077-0.734 0.12-0.35 0.042-0.7 0.102-1.033 0.111-0.068 0-0.154 0.025-0.214 0.025-0.154 0-0.298-0.051-0.469-0.051-0.333-0.017-0.683-0.042-1.033-0.111-0.248-0.042-0.486-0.111-0.717-0.171-0.315-0.086-0.598-0.171-0.896-0.273-0.248-0.102-0.486-0.205-0.717-0.324-0.281-0.137-0.529-0.264-0.802-0.427-0.214-0.154-0.435-0.298-0.649-0.452-0.231-0.179-0.469-0.367-0.683-0.563-0.197-0.188-0.384-0.409-0.563-0.597-0.197-0.214-0.367-0.427-0.546-0.649-0.179-0.264-0.333-0.538-0.521-0.827-0.068-0.154-0.179-0.273-0.248-0.427-0.051-0.077-0.068-0.154-0.086-0.222-0.154-0.298-0.248-0.606-0.35-0.93-0.086-0.231-0.179-0.486-0.248-0.734-0.051-0.281-0.086-0.563-0.12-0.837-0.051-0.315-0.103-0.614-0.103-0.93 0-0.086-0.017-0.162-0.017-0.248v-115.286c-10.189 4.421-23.868 4.898-37.581 0.307-23.603-7.911-38.246-27.716-32.717-44.245 5.53-16.538 29.159-23.535 52.762-15.659 22.323 7.493 35.089 24.815 35.072 46.643v73.779l41.779-20.796c1.246-0.623 2.586-0.93 3.899-0.93 3.217 0 6.315 1.775 7.851 4.847 2.168 4.361 0.401 9.617-3.934 11.784l-49.596 24.704v20.659l46.387-23.1c1.263-0.631 2.603-0.93 3.917-0.93 3.234 0 6.315 1.784 7.868 4.873 2.159 4.327 0.392 9.591-3.959 11.751z" />
<glyph unicode="&#xe612;" d="M275.012 20.062h-190.566c-14.148 0-25.634 11.486-25.634 25.651v408.653c0 14.149 11.478 25.634 25.634 25.634h197.069c0 0 16.12-1.656 23.995-4.48 34.833-12.51 66.091-47.914 78.814-63.744 18.014-22.375 68.873-76.365 68.873-87.578 0-8.61 0-232.849 0-232.849l-33.272 0.026v229.709c-13.654 10.735-98.313 19.533-98.313 19.533s-1.954 44.877-4.864 75.153c-2.927 30.233-21.478 31.215-21.478 31.215h-200.081v-386.082h141.747c0.717-1.041 1.468-2.091 2.389-3.055l35.686-37.786zM448.103 66.611h-56.815v110.524c0 0.358-0.273 0.657-0.632 0.657h-69.359c-0.358 0-0.657-0.298-0.657-0.657v-110.524h-57.873l93.133-98.611 92.202 98.611zM287.479 187.085c-4.933-8.901-15.215-16.632-28.313-20.147-20.941-5.598-41.105 1.758-45.031 16.401-3.951 14.686 9.864 31.138 30.779 36.745 10.137 2.722 20.053 2.373 28.101-0.333v41.933l-71.1 32.623v-67.712c-0.214-13.619-14.882-32.845-33.647-37.854-20.915-5.623-41.096 1.733-45.031 16.375-3.942 14.686 9.865 31.138 30.806 36.753 11.196 3.004 22.127 2.287 30.506-1.263v112.879c0 0.197 0.060 0.358 0.060 0.546 0.042 0.341 0.042 0.674 0.102 0.99s0.145 0.589 0.231 0.904c0.069 0.179 0.085 0.393 0.162 0.589 0.025 0.034 0.069 0.094 0.069 0.162 0.137 0.307 0.273 0.563 0.435 0.87 0.119 0.231 0.231 0.453 0.375 0.666 0.162 0.239 0.333 0.435 0.529 0.674 0.154 0.214 0.307 0.435 0.512 0.632 0.196 0.188 0.435 0.376 0.649 0.546 0.214 0.197 0.401 0.359 0.614 0.512 0.273 0.196 0.546 0.315 0.827 0.478 0.196 0.12 0.393 0.239 0.614 0.359 0.29 0.119 0.589 0.196 0.887 0.29 0.239 0.069 0.478 0.162 0.734 0.214 0.256 0.085 0.529 0.085 0.81 0.128 0.315 0.034 0.589 0.077 0.905 0.103 0.077 0 0.119 0.017 0.179 0.017 0.214 0 0.418-0.043 0.631-0.086 0.29 0 0.606-0.034 0.922-0.077 0.298-0.059 0.589-0.162 0.905-0.231 0.196-0.085 0.375-0.085 0.571-0.162l88.465-33.075c0.043 0 0.077-0.043 0.162-0.086 0.273-0.119 0.563-0.273 0.87-0.435 0.214-0.12 0.452-0.214 0.649-0.359 0.256-0.154 0.461-0.333 0.674-0.512s0.452-0.333 0.649-0.529c0.188-0.179 0.35-0.418 0.512-0.606 0.197-0.214 0.401-0.444 0.555-0.674 0.162-0.214 0.29-0.478 0.435-0.709 0.12-0.239 0.273-0.478 0.392-0.708 0.086-0.281 0.162-0.52 0.256-0.793s0.197-0.546 0.256-0.853c0.077-0.214 0.077-0.452 0.12-0.691 0.043-0.359 0.077-0.666 0.077-1.024 0-0.043 0.043-0.12 0.043-0.162v-118.784c0.307-2.091-0.776-11.546-2.91-14.524zM273.015 280.781v33.587l-71.1 26.607v-27.571l71.1-32.623z" />
<glyph unicode="&#xe613;" d="M331.853 162.253v122.888c0 0.051-0.017 0.111-0.017 0.171 0 0.35-0.068 0.691-0.103 1.049-0.034 0.248-0.068 0.495-0.12 0.726-0.068 0.307-0.171 0.589-0.248 0.87-0.103 0.281-0.179 0.538-0.298 0.802-0.103 0.264-0.248 0.503-0.401 0.742-0.137 0.256-0.264 0.521-0.435 0.76-0.171 0.248-0.367 0.47-0.563 0.691-0.171 0.214-0.35 0.435-0.546 0.623-0.197 0.196-0.435 0.367-0.666 0.563-0.214 0.179-0.452 0.367-0.7 0.521-0.197 0.154-0.452 0.256-0.683 0.384-0.281 0.162-0.58 0.307-0.896 0.444-0.051 0.025-0.103 0.068-0.171 0.085l-91.512 34.193c-0.205 0.077-0.41 0.094-0.606 0.162-0.315 0.086-0.631 0.188-0.93 0.239-0.325 0.060-0.64 0.086-0.947 0.094-0.214 0.026-0.435 0.077-0.649 0.077-0.069 0-0.137-0.017-0.179-0.017-0.325-0.009-0.631-0.068-0.939-0.111-0.281-0.025-0.563-0.043-0.837-0.111s-0.512-0.154-0.751-0.222c-0.315-0.103-0.64-0.197-0.93-0.316-0.214-0.111-0.418-0.239-0.623-0.358-0.281-0.154-0.597-0.29-0.862-0.487-0.222-0.162-0.435-0.35-0.631-0.529-0.214-0.179-0.487-0.358-0.674-0.571-0.188-0.188-0.35-0.435-0.546-0.657-0.179-0.231-0.367-0.461-0.529-0.708-0.154-0.214-0.256-0.452-0.375-0.691-0.171-0.29-0.315-0.581-0.435-0.887-0.034-0.069-0.069-0.111-0.094-0.179-0.077-0.205-0.119-0.418-0.179-0.631-0.085-0.298-0.179-0.589-0.239-0.904-0.051-0.333-0.069-0.666-0.094-1.016-0.017-0.188-0.069-0.375-0.069-0.58v-116.779c-8.661 3.661-19.985 4.421-31.556 1.305-21.674-5.803-35.934-22.827-31.881-38.016 4.079-15.163 24.943-22.776 46.609-16.964 19.413 5.205 34.585 25.088 34.808 39.168v70.050l73.566-33.724v-43.401c-8.32 2.808-18.586 3.149-29.065 0.341-21.666-5.811-35.917-22.818-31.872-37.99 4.070-15.181 24.935-22.784 46.601-16.973 13.551 3.627 24.2 11.631 29.303 20.839 2.176 3.072 3.311 12.842 2.961 15.036zM240.913 284.058v25.029l64.555-24.132v-30.489l-64.555 29.593zM319.104 4.796h-239.863c-19.379 0-35.097 15.719-35.097 35.098v405.017c-0.008 19.379 15.71 35.089 35.097 35.089h353.527c19.379 0 35.098-15.71 35.098-35.089v-381.781h-40.952v319.291h-341.837v-336.691h195.337l38.69-40.935zM378.163-32l-76.365 80.853h52.096c0 0 0.248 61.926 0.529 61.926h46.097c0.281 0 0.521-61.926 0.521-61.926h52.702l-75.579-80.853z" />
<glyph unicode="&#xe614;" d="M401.050 48.845h52.702l-75.597-80.845-76.356 80.845h52.096c0 0 0.239 61.926 0.529 61.926h46.097c0.298-0.009 0.529-61.926 0.529-61.926zM208.631 430.933c-5.069 0-8.601-0.52-10.599-1.024v-75.255c1.997-0.512 5.368-0.512 8.141-0.512 21.351-0.179 35.328 12.791 35.328 40.269 0 23.894-12.595 36.522-32.87 36.522zM467.857 444.903v-381.782h-40.935v254.89h-341.846v-272.273h195.345l38.673-40.952h-239.863c-19.379 0-35.089 15.71-35.089 35.089v405.026c0 19.379 15.71 35.097 35.089 35.097h353.536c19.379 0 35.089-15.718 35.089-35.097zM161.339 415.062c0 11.264-4.301 20.813-11.067 26.445-6.912 6.323-17.203 9.403-31.633 9.403-14.293 0-24.422-1.032-31.65-2.398v-113.468h23.194v41.293c2.159-0.529 4.924-0.683 7.995-0.683 13.824 0 25.651 3.934 33.638 12.118 6.298 6.297 9.523 15.855 9.523 27.289zM266.231 395.264c0 20.471-6.759 34.466-17.511 43.332-9.831 8.192-22.733 12.297-42.547 12.297-11.673 0-22.895-0.871-31.48-2.569v-112.793c5.683-0.862 14.43-1.698 26.565-1.698 20.267 0 37.018 4.762 47.915 14.831 9.839 9.404 17.058 24.584 17.058 46.601zM343.313 450.031h-63.113v-115.003h23.339v46.242h37.163v21.154h-37.163v26.274h39.774v21.334zM119.706 431.104c-4.6 0-7.825-0.341-9.523-0.862v-33.954c1.997-0.529 4.309-0.683 7.842-0.683 12.442 0 20.113 6.989 20.113 18.602 0 10.573-6.605 16.896-18.432 16.896zM133.401 250.667h198.451v22.639h-198.451v-22.639zM133.401 204.979h198.451v22.639h-198.451v-22.639zM133.401 158.396h99.226v22.63h-99.226v-22.63zM133.401 112.709h99.226v22.63h-99.226v-22.63zM331.853 169.984c0 6.101-4.941 11.050-11.050 11.050h-58.001c-6.11 0-11.059-4.95-11.059-11.050v-46.225c0-6.11 4.949-11.050 11.059-11.050h58.001c6.11 0 11.050 4.941 11.050 11.050v46.225z" />
<glyph unicode="&#xe615;" d="M401.050 48.845h52.702l-75.589-80.845-76.365 80.845h52.096c0 0 0.231 61.926 0.529 61.926h46.097c0.298-0.009 0.529-61.926 0.529-61.926zM207.403 431.104c-4.6 0-7.825-0.341-9.514-0.862v-33.954c1.988-0.529 4.301-0.683 7.825-0.683 12.441 0 20.13 6.989 20.13 18.602 0 10.573-6.605 16.896-18.441 16.896zM467.865 444.903v-381.782h-40.952v254.89h-341.837v-272.273h195.337l38.682-40.952h-239.855c-19.379 0-35.097 15.71-35.097 35.089v405.026c-0.008 19.379 15.71 35.097 35.097 35.097h353.528c19.379 0 35.097-15.718 35.097-35.097zM161.349 415.062c0 11.264-4.31 20.813-11.067 26.445-6.912 6.323-17.203 9.403-31.642 9.403-14.285 0-24.414-1.032-31.642-2.398v-113.468h23.194v41.293c2.159-0.529 4.915-0.683 7.995-0.683 13.824 0 25.651 3.934 33.638 12.118 6.298 6.297 9.523 15.855 9.523 27.289zM249.029 415.062c0 11.264-4.292 20.813-11.050 26.445-6.921 6.323-17.212 9.403-31.65 9.403-14.293 0-24.422-1.032-31.633-2.398v-113.468h23.194v41.293c2.142-0.529 4.915-0.683 7.995-0.683 13.816 0 25.634 3.934 33.63 12.118 6.289 6.297 9.514 15.855 9.514 27.289zM334.114 450.031h-79.565v-21.846h27.955v-93.159h23.347v93.167h28.262v21.837zM119.722 431.104c-4.617 0-7.842-0.341-9.531-0.862v-33.954c2.005-0.529 4.301-0.683 7.842-0.683 12.442 0 20.113 6.989 20.113 18.602 0 10.573-6.605 16.896-18.424 16.896zM237.867 291.635c-45.662-1.962-82.236-38.502-84.292-84.121h84.293v84.121zM220.254 273.869c-0.879 1.903-3.114 2.713-5.009 1.834-20.165-9.404-35.729-26.846-42.692-47.914-0.657-1.98 0.41-4.113 2.389-4.77 0.393-0.137 0.793-0.188 1.195-0.188 1.587 0 3.047 0.99 3.584 2.585 6.323 19.097 20.446 34.927 38.707 43.452 1.894 0.862 2.705 3.106 1.826 5zM253.465 106.582c47.172 0 85.401 38.238 85.401 85.401s-38.23 85.418-85.401 85.418c-1.255 0-2.466-0.145-3.72-0.179v-81.357h-81.494c-0.060-1.288-0.188-2.56-0.188-3.874 0-47.163 38.23-85.41 85.401-85.41z" />
<glyph unicode="&#xe616;" d="M261.752 53.334h-173.679v330.795h335.864v-313.719h40.235v375.108c0 19.038-15.437 34.483-34.483 34.483h-347.358c-19.038 0-34.492-15.445-34.492-34.483v-397.943c0-19.038 15.454-34.474 34.492-34.474h211.669l-32.248 40.234zM445.397 54.247h-54.221c0 0 0.367 87.56 0.034 87.56l-53.086-0.632c-0.333 0-0.615-86.929-0.615-86.929h-53.529l81.135-86.246 80.281 86.246zM293.368 299.4c0 7.945-8.235 14.396-18.398 14.396h-134.528c-10.163 0-18.389-6.451-18.389-14.396 0-7.936 8.226-14.387 18.389-14.387h134.528c10.163 0 18.398 6.451 18.398 14.387zM293.368 242.995c0 7.945-8.235 14.379-18.398 14.379h-134.528c-10.163 0-18.389-6.434-18.389-14.379 0-7.953 8.226-14.395 18.389-14.395h134.528c10.163 0 18.398 6.442 18.398 14.395zM293.368 186.565c0 7.953-8.235 14.387-18.398 14.387h-134.528c-10.163 0-18.389-6.434-18.389-14.387 0-7.945 8.226-14.396 18.389-14.396h134.528c10.163 0.009 18.398 6.459 18.398 14.396z" />
<glyph unicode="&#xe617;" d="M453.188 91.349c0 0 0 224.239 0 232.849 0 11.204-50.858 65.203-68.873 87.577-12.723 15.821-43.981 51.234-78.814 63.744-7.877 2.825-24.005 4.48-24.005 4.48h-197.052c-14.157 0-25.634-11.486-25.634-25.634v-408.661c0-14.166 11.486-25.651 25.634-25.651h190.566l-35.678 37.786c-0.922 0.964-1.673 2.014-2.389 3.055h-141.756v386.091h200.064c0 0 18.551-0.981 21.478-31.215 2.227-23.048 3.882-54.391 4.557-68.138h-209.066v-23.424h22.186v-22.741h-22.186v-17.357h22.186v-22.742h-22.186v-17.322h22.186v-22.733h-22.186v-17.399h22.186v-22.699h-22.186v-23.441h208.41v-91.144h-57.873l93.142-98.629 92.202 98.611h-56.815v110.524c0 0.358-0.273 0.657-0.632 0.657h-55.365v3.405h-24.892v22.699h24.892v17.399h-24.892v22.733h24.892v17.322h-24.892v22.742h24.892v17.357h-24.892v22.741h24.892v14.84c24.525-2.987 74.419-9.907 84.634-17.954v-229.709l33.263-0.017zM283.315 188.305h-119.151v128.768h119.151v-128.768zM260.147 252.68l-57.583-35.447v70.895l57.583-35.447z" />
<glyph unicode="&#xe618;" d="M361.054 292.454v18.313h-210.107v-18.313h17.331v-17.767h-17.331v-13.594h17.331v-17.775h-17.331v-13.542h17.331v-17.767h-17.331v-13.611h17.331v-17.75h-17.331v-18.321h210.107v18.321h-19.447v17.75h19.447v13.611h-19.447v17.767h19.447v13.542h-19.447v17.775h19.447v13.594h-19.447v17.767h19.447zM320.452 186.214h-128.896v100.676h128.896v-100.676zM284.45 236.553l-45.022-27.716v55.433l45.022-27.716zM319.104 4.796h-239.863c-19.379 0-35.097 15.719-35.097 35.098v405.017c-0.008 19.379 15.71 35.089 35.097 35.089h353.527c19.379 0 35.098-15.71 35.098-35.089v-381.781h-40.952v319.291h-341.837v-336.691h195.337l38.69-40.935zM378.163-32l-76.365 80.853h52.096c0 0 0.231 61.926 0.529 61.926h46.097c0.281 0 0.521-61.926 0.521-61.926h52.702l-75.579-80.853z" />
<glyph unicode="&#xe619;" d="M389.069-32l-93.142 98.594h57.856v110.558c0 0.358 0.315 0.632 0.674 0.632h69.342c0.358 0 0.632-0.273 0.632-0.632v-110.558h56.841l-92.202-98.594zM190.259 265.284c-1.297 4.975-2.961 12.203-4.258 17.451h-0.256c-1.28-5.248-2.585-12.476-3.865-17.451l-3.738-15.906h16.111l-3.994 15.906zM486.366 324.216c0-8.601 0-232.875 0-232.875l-33.272 0.043v229.709c-13.662 10.735-98.321 19.541-98.321 19.541s-1.962 44.877-4.889 75.153c-2.918 30.233-21.47 31.224-21.47 31.224h-200.081v-108.425h191.266v-161.11h-191.266v-116.557h141.773c0.709-1.058 1.459-2.091 2.363-3.072l35.687-37.777h-190.558c-14.174 0-25.66 11.495-25.66 25.659v131.738h-66.304v161.11h66.313v115.806c-0.008 14.131 11.477 25.617 25.651 25.617h197.069c0 0 16.111-1.655 23.995-4.454 34.816-12.51 66.074-47.914 78.822-63.744 17.997-22.383 68.881-76.382 68.881-87.586zM219.708 299.938l27.579-88.534h27.571l28.356 88.534h-24.747l-9.395-35.209c-2.611-9.549-5.051-19.815-7.108-30.592h-0.248c-2.193 11.29-4.522 21.043-7.21 30.984l-9.293 34.816h-25.506zM171.315 299.938l-25.258-88.534h24.090l4.889 20.48h22.442l5.521-20.48h25.139l-25.898 88.534h-30.925zM125.338 267.495c-1.544-10.488-3.097-20.873-4.386-30.857h-0.248c-1.169 9.984-2.329 19.055-3.874 29.286l-5.427 34.023h-24.866l-5.538-32.453c-1.937-10.888-3.737-21.512-5.154-31.488h-0.256c-1.28 9.19-2.841 20.873-4.386 31.104l-5.034 32.845h-25.002l19.993-88.534h25.779l6.553 34.688c1.561 7.739 2.722 16.154 4.138 26.522h0.239c1.186-10.496 2.321-18.782 3.627-26.522l5.811-34.688h25.378l21.393 88.534h-23.586l-5.154-32.461z" />
<glyph unicode="&#xe61a;" d="M401.050 48.862h52.702l-75.589-80.862-76.365 80.862h52.096c0 0 0.248 61.901 0.529 61.901h46.097c0.298-0.009 0.529-61.901 0.529-61.901zM252.245 430.584h-0.452c-1.391-6.818-3.072-15.531-4.617-22.17l-6.298-24.405h22.886l-6.434 24.405c-1.69 6.818-3.542 15.531-5.086 22.17zM467.865 444.903v-381.773h-40.952v254.882h-341.837v-272.273h195.337l38.682-40.943h-239.855c-19.379 0-35.097 15.719-35.097 35.098v405.009c-0.008 19.379 15.71 35.097 35.097 35.097h353.528c19.379 0 35.097-15.718 35.097-35.097zM184.534 335.027l26.718 115.021h-23.799l-8.448-46.933c-2.142-13.816-4.446-27.29-5.982-40.090h-0.307c-1.536 12.8-3.226 25.079-5.53 38.571l-8.294 48.443h-24.892l-8.738-46.933c-2.629-14.336-5.078-28.152-6.775-40.773h-0.299c-1.689 11.784-3.84 26.615-6.144 40.448l-7.834 47.258h-25.037l24.576-115.021h25.651l9.831 49.314c2.458 11.776 4.138 22.707 5.982 35.669h0.307c1.238-13.133 2.918-23.894 4.923-35.499l8.746-49.485h25.344zM300.485 335.027l-32.248 115.012h-30.575l-31.642-115.021h24.278l7.219 29.525h29.79l7.987-29.525h25.19zM390.315 450.039h-24.866l-13.218-49.143c-3.533-13.142-6.75-26.786-9.37-40.627h-0.469c-2.449 14.336-5.683 27.307-9.216 41.13l-12.578 48.64h-25.668l33.186-115.021h27.349l34.85 115.021zM317.969 134.221c-4.463-8.064-13.815-15.104-25.702-18.296-19.021-5.103-37.334 1.587-40.9 14.899-3.567 13.329 8.951 28.262 27.972 33.357 9.199 2.466 18.202 2.168 25.498-0.307v38.093l-64.563 29.602v-61.482c-0.188-12.356-13.5-29.807-30.541-34.373-19.012-5.094-37.325 1.587-40.9 14.899-3.567 13.329 8.952 28.262 27.972 33.349 10.155 2.731 20.088 2.074 27.708-1.135v102.486c0 0.179 0.034 0.341 0.051 0.521 0.025 0.29 0.034 0.589 0.077 0.887 0.060 0.273 0.145 0.538 0.214 0.811 0.060 0.179 0.094 0.367 0.154 0.529 0.025 0.059 0.051 0.102 0.085 0.162 0.111 0.273 0.231 0.529 0.375 0.793 0.111 0.196 0.205 0.41 0.333 0.589 0.145 0.214 0.307 0.409 0.47 0.623 0.179 0.196 0.315 0.392 0.495 0.571 0.171 0.179 0.384 0.333 0.581 0.512 0.179 0.154 0.358 0.324 0.554 0.461 0.231 0.179 0.504 0.298 0.751 0.435 0.179 0.111 0.358 0.214 0.546 0.298 0.256 0.12 0.537 0.197 0.819 0.282 0.214 0.068 0.418 0.154 0.649 0.205 0.248 0.051 0.495 0.077 0.743 0.094 0.273 0.051 0.537 0.094 0.827 0.094 0.060 0 0.111 0.017 0.171 0.017 0.188 0 0.375-0.043 0.563-0.060 0.273-0.026 0.537-0.026 0.837-0.085 0.273-0.051 0.537-0.137 0.827-0.214 0.179-0.051 0.35-0.077 0.529-0.136l80.315-30.038c0.051-0.017 0.103-0.051 0.154-0.068 0.264-0.111 0.529-0.248 0.785-0.393 0.197-0.111 0.418-0.205 0.598-0.325 0.214-0.145 0.418-0.315 0.615-0.478 0.197-0.154 0.418-0.307 0.58-0.495 0.179-0.162 0.333-0.358 0.486-0.538 0.171-0.196 0.35-0.384 0.503-0.597 0.137-0.205 0.248-0.452 0.384-0.666 0.12-0.214 0.248-0.435 0.35-0.649 0.103-0.231 0.171-0.461 0.248-0.7 0.068-0.248 0.171-0.512 0.231-0.768 0.051-0.205 0.051-0.426 0.086-0.64 0.034-0.298 0.103-0.614 0.103-0.913 0-0.060 0.017-0.102 0.017-0.162v-107.853c0.281-1.928-0.717-10.488-2.646-13.201zM304.837 219.307v30.498l-64.563 24.132v-25.019l64.563-29.611z" />
<glyph unicode="&#xe61b;" d="M275.021 20.087h-190.583c-14.131 0-25.617 11.486-25.617 25.651v408.627c0 14.149 11.486 25.634 25.617 25.634h197.069c0 0 16.137-1.656 23.995-4.471 34.85-12.519 66.108-47.898 78.822-63.744 18.031-22.358 68.864-76.347 68.864-87.56 0-8.61 0-232.866 0-232.866l-33.263 0.026v229.718c-13.671 10.743-98.313 19.541-98.313 19.541s-1.937 44.877-4.856 75.153c-2.927 30.225-21.478 31.215-21.478 31.215h-200.072v-386.074h141.73c0.708-1.067 1.459-2.091 2.406-3.080l35.678-37.769zM448.094 66.62h-56.789v110.549c0 0.35-0.281 0.632-0.632 0.632h-69.393c-0.358 0-0.632-0.281-0.632-0.632v-110.549h-57.899l93.15-98.62 92.194 98.62zM292.318 226.543c0-14.797-3.934-28.714-10.743-40.807l0.418-0.068-3.925-5.863c-12.143-18.031-30.609-30.404-51.353-35.012-0.358-0.103-0.734-0.179-1.109-0.256-1.024-0.214-2.031-0.409-3.055-0.563-0.529-0.086-1.049-0.179-1.561-0.256-0.964-0.145-1.937-0.273-2.918-0.418-0.512-0.043-1.024-0.077-1.578-0.12-1.066-0.12-2.133-0.214-3.217-0.273h-0.017l-1.263-0.060c-0.81-0.026-1.595-0.043-2.406-0.060-0.042 0-0.119-0.026-0.162-0.026h-0.145c-0.256 0-0.529-0.017-0.768-0.017-0.077 0-0.196 0-0.281 0h-0.231v0.017c-1.459 0-2.901 0.060-4.327 0.145-0.47 0.017-0.922 0.077-1.425 0.12-1.143 0.086-2.287 0.179-3.413 0.315-0.512 0.043-1.024 0.12-1.561 0.197-1.126 0.162-2.227 0.315-3.337 0.512-0.47 0.086-0.947 0.162-1.425 0.256-1.263 0.231-2.483 0.529-3.729 0.81-0.298 0.086-0.606 0.162-0.922 0.197-1.502 0.392-3.004 0.827-4.463 1.297-0.47 0.12-0.922 0.315-1.382 0.461-0.99 0.307-1.954 0.683-2.918 1.024-0.674 0.248-1.339 0.529-2.031 0.81s-1.399 0.589-2.090 0.87c-0.768 0.358-1.561 0.691-2.313 1.041-0.512 0.256-0.99 0.503-1.459 0.734-10.419 5.171-19.712 12.51-27.273 21.692-0.034 0.017-0.077 0.094-0.119 0.137-1.715 2.048-3.362 4.207-4.873 6.434l-3.925 5.863 0.358 0.068c-6.75 12.075-10.658 25.984-10.658 40.806 0 12.68 2.876 24.738 7.936 35.542l-0.256 0.034 3.183 5.589c0.196 0.35 0.393 0.666 0.614 1.041 0.495 0.853 1.049 1.715 1.561 2.551 0.393 0.589 0.751 1.203 1.143 1.775 0.81 1.229 1.655 2.406 2.526 3.593 0.435 0.589 0.905 1.143 1.382 1.732 0.529 0.691 1.066 1.365 1.655 2.048 0.512 0.589 1.024 1.186 1.544 1.784 0.631 0.708 1.263 1.374 1.937 2.065 0.452 0.478 0.887 0.964 1.339 1.425 1.066 1.083 2.167 2.091 3.311 3.115 0.393 0.375 0.827 0.708 1.263 1.083 0.87 0.793 1.792 1.544 2.722 2.296 0.358 0.256 0.708 0.546 1.066 0.827 2.739 2.090 5.607 4.027 8.559 5.768 0.077 0.034 0.162 0.077 0.239 0.12 9.216 5.41 19.541 9.063 30.549 10.573 0.273 0.043 0.589 0.086 0.922 0.12 1.365 0.179 2.748 0.315 4.165 0.443 0.239 0 0.435 0.017 0.649 0.034-0.512-3.387-0.853-6.843-0.853-10.419 0-2.014 0.119-3.985 0.315-5.999-7.108-7.577-12.433-17.212-15.906-28.851 8.422-0.461 16.853-0.631 25.258-0.571 1.851-3.098 3.865-6.101 6.119-8.9-3.038-0.042-6.119-0.162-9.156-0.162-8.132 0-16.298 0.273-24.431 0.751-1.655-8.149-2.56-17.152-2.679-26.957h58.257c-0.017 3.004-0.137 5.88-0.298 8.687 2.944-1.536 5.999-2.841 9.182-3.985 0.034-1.544 0.119-3.072 0.119-4.702h34.577c-0.017 0.554-0.12 1.032-0.12 1.587 3.003 0.478 5.957 1.066 8.832 1.937 0.137-1.997 0.375-3.976 0.375-5.982zM181.445 221.961c0.256-11.486 1.459-21.623 3.746-30.567 16.853 0.947 33.784 0.853 50.637-0.231 2.287 8.977 3.55 19.243 3.806 30.797h-58.189zM146.91 268.851c10.010-1.544 20.088-2.645 30.2-3.43 3.865 14.089 10.18 25.719 18.825 34.808-0.239-0.042-0.495-0.077-0.751-0.137-0.162-0.025-0.358-0.060-0.512-0.102-10.299-1.937-20.011-6.042-28.536-11.904-0.154-0.12-0.358-0.256-0.512-0.375-0.947-0.649-1.851-1.34-2.765-2.014-0.315-0.273-0.674-0.546-0.99-0.785-0.751-0.589-1.459-1.229-2.167-1.817-0.393-0.341-0.768-0.649-1.143-0.99-0.751-0.649-1.459-1.357-2.167-2.048-0.631-0.589-1.229-1.203-1.817-1.817-0.512-0.546-1.066-1.101-1.578-1.69-0.47-0.529-0.947-1.067-1.399-1.621-0.418-0.47-0.853-0.982-1.246-1.476-0.478-0.572-0.905-1.127-1.349-1.715-0.41-0.529-0.81-1.067-1.186-1.613-0.307-0.444-0.623-0.837-0.905-1.272zM133.811 228.983h38.596c0.137 9.95 1.007 19.141 2.645 27.571-11.094 0.888-22.144 2.227-33.109 3.985-4.864-9.506-7.782-20.207-8.132-31.556zM176.077 190.779c-2.193 9.276-3.379 19.618-3.635 31.173h-38.553c0.785-12.68 4.736-24.542 11.050-34.722 10.317 1.579 20.719 2.765 31.138 3.55zM195.772 152.849c-7.655 7.902-13.381 17.485-17.246 29.090-9.25-0.649-18.509-1.613-27.708-2.927 7.441-9.019 16.93-16.231 27.785-20.992 0.358-0.162 0.708-0.333 1.066-0.478 0.674-0.273 1.349-0.529 2.031-0.81 0.571-0.197 1.126-0.435 1.715-0.615 0.554-0.231 1.143-0.409 1.741-0.623 0.691-0.197 1.382-0.435 2.056-0.632 0.546-0.162 1.066-0.315 1.595-0.461 0.768-0.214 1.544-0.409 2.329-0.606 0.495-0.077 0.964-0.214 1.476-0.315 0.81-0.197 1.655-0.333 2.492-0.495 0.231-0.051 0.427-0.077 0.666-0.137zM233.071 182.272c-15.018 0.887-30.114 0.964-45.159 0.214 4.813-13.022 12.271-23.065 22.613-30.524 10.309 7.424 17.732 17.391 22.545 30.31zM266.103 179.021c-7.851 1.127-15.744 1.945-23.637 2.611-3.695-10.931-9.019-20.087-16.060-27.665 15.778 3.899 29.627 12.86 39.697 25.054zM283.136 221.961h-34.509c-0.239-11.699-1.459-22.178-3.669-31.488 9.037-0.793 18.073-1.861 27.076-3.234 6.349 10.214 10.334 22.050 11.102 34.722zM358.221 212.019c-4.531-4.087-10.966-4.344-14.37-0.572l-35.234 39.33c-9.404-6.946-20.983-11.094-33.553-11.094-31.224 0-56.525 25.302-56.525 56.517 0 31.198 25.302 56.517 56.525 56.517 31.215 0 56.517-25.318 56.517-56.517 0-10.615-2.969-20.48-8.013-28.954l36.77-41.028c3.37-3.789 2.432-10.138-2.116-14.199zM315.52 296.201c0 22.34-18.116 40.448-40.448 40.448-22.366 0-40.482-18.108-40.482-40.448 0-22.358 18.117-40.474 40.482-40.474 22.332 0 40.448 18.117 40.448 40.474z" />
<glyph unicode="&#xe61c;" d="M326.315 226.313c-2.952-0.887-6.016-1.519-9.113-2.014 0.026-0.538 0.128-1.058 0.145-1.604h-35.627c-0.026 1.638-0.094 3.234-0.145 4.83-3.26 1.161-6.434 2.509-9.447 4.105 0.162-2.901 0.29-5.871 0.325-8.943h-60.058c0.128 10.095 1.049 19.362 2.756 27.759 8.388-0.495 16.802-0.76 25.182-0.76 3.149 0 6.298 0.102 9.447 0.179-2.329 2.858-4.421 5.947-6.298 9.157-8.687-0.069-17.365 0.119-26.043 0.58 3.593 11.998 9.046 21.93 16.367 29.747-0.179 2.048-0.315 4.087-0.315 6.195 0 3.652 0.358 7.219 0.879 10.709-0.214-0.009-0.435-0.034-0.657-0.051-1.451-0.111-2.893-0.256-4.301-0.435-0.333-0.043-0.649-0.094-0.964-0.137-11.333-1.561-21.974-5.325-31.471-10.872-0.077-0.051-0.162-0.094-0.239-0.145-3.047-1.8-6.007-3.789-8.823-5.93-0.367-0.281-0.734-0.563-1.093-0.87-0.964-0.76-1.92-1.545-2.833-2.346-0.452-0.384-0.87-0.743-1.297-1.118-1.161-1.041-2.304-2.107-3.397-3.208-0.478-0.478-0.922-0.982-1.391-1.468-0.666-0.691-1.339-1.408-1.988-2.151-0.537-0.58-1.058-1.212-1.578-1.817-0.597-0.699-1.161-1.408-1.724-2.116-0.478-0.597-0.964-1.186-1.417-1.8-0.896-1.203-1.767-2.432-2.602-3.686-0.41-0.606-0.776-1.212-1.169-1.817-0.546-0.879-1.093-1.767-1.63-2.663-0.205-0.341-0.435-0.691-0.64-1.058l-3.26-5.76 0.281-0.043c-5.231-11.136-8.192-23.543-8.192-36.642 0-15.257 4.011-29.602 10.991-42.053l-0.367-0.068 4.054-6.016c1.561-2.313 3.251-4.514 5-6.647 0.042-0.043 0.094-0.103 0.119-0.154 7.808-9.438 17.399-17.007 28.135-22.332 0.504-0.248 0.982-0.521 1.485-0.751 0.802-0.367 1.595-0.726 2.389-1.058 0.717-0.325 1.442-0.632 2.167-0.93 0.691-0.281 1.382-0.546 2.073-0.827 1.007-0.367 2.023-0.717 3.030-1.041 0.47-0.171 0.913-0.341 1.399-0.495 1.528-0.486 3.072-0.913 4.617-1.297 0.315-0.094 0.631-0.162 0.939-0.231 1.263-0.298 2.552-0.589 3.849-0.837 0.495-0.094 0.982-0.171 1.468-0.264 1.152-0.205 2.287-0.384 3.439-0.529 0.529-0.068 1.066-0.145 1.605-0.214 1.161-0.12 2.329-0.222 3.516-0.307 0.487-0.034 0.973-0.103 1.459-0.128 1.468-0.077 2.952-0.128 4.446-0.128l0.008-0.026h0.231c0.111 0 0.196 0 0.298 0 0.256 0 0.52 0.026 0.793 0.026h0.128c0.069 0 0.128 0 0.196 0 0.827 0.017 1.638 0.043 2.466 0.060l1.322 0.068c1.126 0.068 2.227 0.179 3.337 0.281 0.529 0.060 1.066 0.086 1.605 0.154 1.007 0.111 1.997 0.273 3.012 0.418 0.537 0.077 1.075 0.162 1.613 0.239 1.058 0.188 2.108 0.384 3.149 0.598 0.392 0.086 0.768 0.179 1.152 0.256 21.385 4.753 40.397 17.485 52.906 36.096l4.053 6.016-0.426 0.068c7.014 12.476 11.042 26.829 11.042 42.053-0.009 2.108-0.205 4.147-0.367 6.195zM272.418 215.433c-0.273-11.93-1.562-22.477-3.934-31.752-17.365 1.127-34.808 1.221-52.198 0.239-2.329 9.216-3.601 19.687-3.874 31.505h60.007zM177.758 265.063c0.41 0.554 0.81 1.118 1.238 1.664 0.452 0.606 0.913 1.195 1.382 1.775 0.41 0.504 0.845 1.016 1.272 1.519 0.47 0.555 0.956 1.127 1.434 1.664 0.546 0.589 1.093 1.169 1.638 1.75 0.606 0.632 1.238 1.255 1.869 1.869 0.734 0.717 1.485 1.442 2.253 2.116 0.375 0.35 0.768 0.674 1.161 0.999 0.734 0.64 1.485 1.272 2.244 1.886 0.341 0.273 0.683 0.538 1.016 0.802 0.939 0.717 1.886 1.433 2.858 2.099 0.179 0.137 0.35 0.256 0.52 0.367 8.79 6.067 18.808 10.291 29.406 12.288 0.179 0.034 0.367 0.068 0.537 0.102 0.256 0.043 0.529 0.086 0.793 0.128-8.926-9.378-15.419-21.334-19.422-35.865-10.419 0.802-20.787 1.954-31.113 3.533 0.29 0.444 0.606 0.87 0.913 1.306zM171.725 255.19c11.29-1.809 22.69-3.183 34.117-4.105-1.681-8.679-2.594-18.15-2.714-28.391h-39.799c0.375 11.682 3.362 22.69 8.397 32.495zM174.805 179.618c-6.528 10.522-10.582 22.741-11.392 35.815h39.739c0.256-11.913 1.485-22.579 3.72-32.128-10.735-0.81-21.435-2.065-32.069-3.687zM226.483 144.35c-0.845 0.154-1.698 0.315-2.552 0.495-0.512 0.111-1.007 0.239-1.519 0.358-0.819 0.197-1.595 0.401-2.389 0.606-0.537 0.145-1.101 0.298-1.63 0.469-0.717 0.214-1.434 0.443-2.125 0.666-0.606 0.197-1.229 0.401-1.817 0.615-0.597 0.205-1.178 0.435-1.758 0.666-0.7 0.264-1.408 0.529-2.090 0.819-0.375 0.162-0.734 0.341-1.109 0.495-11.17 4.898-20.966 12.339-28.621 21.632 9.472 1.349 19.012 2.346 28.561 3.038 3.976-11.964 9.873-21.871 17.758-29.995-0.239 0.043-0.461 0.086-0.708 0.137zM242.406 143.283c-10.658 7.688-18.346 18.039-23.287 31.471 15.496 0.776 31.035 0.709 46.515-0.214-4.958-13.32-12.603-23.611-23.227-31.257zM258.748 145.339c7.271 7.817 12.766 17.255 16.555 28.519 8.141-0.691 16.281-1.536 24.389-2.671-10.394-12.57-24.67-21.803-40.943-25.848zM305.784 179.644c-9.259 1.408-18.568 2.509-27.913 3.328 2.304 9.625 3.558 20.411 3.798 32.469h35.584c-0.802-13.065-4.906-25.267-11.469-35.798zM396.817 219.818l-37.913 42.291c5.214 8.738 8.286 18.918 8.286 29.841 0 32.171-26.095 58.257-58.274 58.257s-58.257-26.095-58.257-58.257c0-32.179 26.087-58.257 58.257-58.257 12.979 0 24.918 4.284 34.594 11.452l36.327-40.534c3.49-3.882 10.103-3.644 14.788 0.58 4.676 4.19 5.649 10.743 2.193 14.626zM267.213 291.951c0 23.023 18.671 41.694 41.694 41.694 23.040 0 41.711-18.671 41.711-41.694 0-23.031-18.671-41.719-41.711-41.719-23.023 0-41.694 18.688-41.694 41.719zM319.096 4.796h-239.863c-19.379 0-35.089 15.719-35.089 35.098v405.017c0 19.379 15.71 35.089 35.089 35.089h353.536c19.379 0 35.089-15.71 35.089-35.089v-381.781h-40.935v319.291h-341.846v-336.691h195.345l38.673-40.935zM378.154-32l-76.356 80.853h52.096c0 0 0.239 61.926 0.529 61.926h46.097c0.29 0 0.529-61.926 0.529-61.926h52.702l-75.597-80.853z" />
<glyph unicode="&#xe61d;" d="M275.012 20.087h-190.566c-14.165 0-25.651 11.486-25.651 25.651v408.627c0.008 14.149 11.486 25.634 25.651 25.634h197.069c0 0 16.111-1.656 23.995-4.471 34.808-12.519 66.065-47.898 78.814-63.744 17.997-22.358 68.864-76.347 68.864-87.56 0-8.61 0-232.866 0-232.866l-33.263 0.026v229.718c-13.662 10.743-98.313 19.541-98.313 19.541s-1.971 44.877-4.889 75.153c-2.927 30.225-21.47 31.215-21.47 31.215h-200.064v-386.074h141.764c0.708-1.067 1.459-2.091 2.363-3.080l35.695-37.769zM448.111 66.62h-56.832v110.549c0 0.35-0.273 0.632-0.623 0.632h-69.351c-0.35 0-0.666-0.281-0.666-0.632v-110.549h-57.856l93.133-98.62 92.194 98.62zM326.912 252.869c-0.197-55.296-44.988-100.088-99.976-99.994-54.971 0.103-99.951 45.286-99.704 100.267 0.239 54.724 45.329 99.661 99.781 99.413 55.099-0.231 100.088-45.107 99.899-99.686zM316.211 256.478c-1.817 48.452-41.241 85.171-89.13 85.512-49.613 0.137-89.831-40.389-89.182-90.778 0.631-48.034 39.279-87.381 88.806-87.697 48.734-0.281 91.52 39.023 89.506 92.962zM305.476 252.57c-1.067-0.649-1.399-2.338-2.21-3.464-1.297-1.758-2.765-3.413-4.139-5.095-0.315 0.179-0.632 0.307-0.947 0.495 0.197-3.26 0.546-6.536 0.512-9.787-0.077-2.885-0.162-5.974-4.344-6.451-0.623-0.102-1.416-1.988-1.536-3.114-0.674-6.912-9.019-17.238-17.050-15.846-3.43 0.572-4.975 4.104-4.813 6.221 0.358 4.122-1.399 7.339-2.406 10.914-0.734 2.543-2.799 5.581 1.604 7.16 0.478 0.162 0.529 1.758 0.529 2.705 0 0.563-0.401 1.28-0.81 1.673-4.053 3.609-7.082 7.577-4.284 13.082-2.193 0.666-3.473 1.186-4.796 1.417-1.562 0.315-3.132 0.657-4.694 0.554-2.389-0.179-4.762-0.947-7.125-1.024-2.765-0.085-5.206 0.47-5.922 4.028-0.375 1.732-1.937 3.234-2.799 4.933-2.44 4.779-2.526 9.395 0.674 13.969 2.27 3.2 4.344 6.562 6.306 9.925 0.401 0.691 0.085 1.843-0.077 2.748-0.435 2.978-0.905 5.913-1.485 9.489 2.901-0.256 5.12-0.461 8.465-0.777-1.775 4.463-3.353 8.406-4.779 11.955-2.21 0.315-3.909 0.572-5.598 0.837 0 0.512 0.034 1.024 0.077 1.562 2.090 0.102 4.181 0.179 7.296 0.333-0.333 2.091-0.785 4.95-1.297 8.166 4.301-2.090 5.999-5.205 6.793-12.697 2.918 2.961 5.282 5.325 7.646 7.705-0.214 0.333-0.435 0.632-0.623 0.947-0.589 0-1.186 0.103-1.741-0.017-3.353-0.717-3.507 0.665-2.313 3.277 3.49 7.595 3.575 7.689 10.538 3.158 20.539-13.423 33.238-32.051 37.060-56.457 0.298-1.877 0.649-3.738 0.904-5.606 0.418-2.791 0.103-5.154-2.62-6.912zM291.012 289.553c-4.446 0.649-8.149 1.229-12.68 1.92-0.529-0.162-2.134-0.964-3.789-1.152-1.741-0.154-3.592 0.239-5.094 0.358-0.197 0.905-0.043 3.234-0.904 3.738-2.296 1.314-5.017 1.877-7.603 2.628-0.256 0.077-0.853-0.503-1.084-0.887-1.775-2.782-3.533-5.581-4.992-7.936 3.533 0.734 7.85 1.673 12.177 2.586 0.231-0.435 0.521-0.887 0.751-1.339-0.435-1.143-1.024-2.253-1.246-3.43-0.103-0.666 0.29-1.988 0.691-2.091 2.526-0.665 5.265-1.817 7.637-1.339 4.599 0.904 8.858 1.066 13.397-1.476 0.973 2.995 1.851 5.674 2.739 8.422zM306.151 261.563c-8.337 1.212-7.228 9.096-11.725 13.355 0.315-8.909 5.205-15.070 11.725-13.355zM212.565 245.282c-2.961 0.905-5.999 2.748-8.047 5.018-2.509 2.799-4.429 5.88-8.704 5.88-0.674 0-1.715 0.469-1.954 0.982-1.382 3.157-4.301 3.072-6.981 3.592-1.212 0.214-2.765 0.315-3.516 1.11-2.167 2.21-3.823 0.964-5.598-0.401-1.109-0.827-2.133-1.988-3.397-2.363-0.81-0.231-2.841 0.751-2.841 1.109 0.196 4.002-1.715 5.999-5.913 5.957 1.066 2.961 1.894 5.291 2.799 7.774-2.526-1.459-4.617-2.927-6.929-3.909-2.825-1.229-4.514-0.162-4.633 2.841-0.162 3.217-0.145 6.519 3.567 8.047 4.497 1.861 8.823 1.067 11.153-1.911 0.554-0.734 1.339-1.28 2.014-1.92-0.691 5.786 2.065 9.113 6.553 11.529 0.435 0.188 0.87 0.666 1.007 1.101 1.502 4.625 5.265 6.204 9.506 7.185 3.618 0.837 6.101 2.765 7.048 6.613 0.307 1.314 1.63 2.406 2.398 3.49 1.032-1.937 1.468-4.122 2.449-4.429 2.296-0.665 4.813-0.307 5.828 1.587-1.92 4.975-3.49 9.353-5.248 13.679-0.964 2.423-2.236 4.753-5.607 2.944-0.478 2.679-0.563 5.444-4.045 5.162-3.2-0.273-5.333-1.297-5.427-5.325-0.069-2.159-2.159-4.25-3.345-6.315-2.253 1.579-3.865 2.722-5.555 3.942-15.155-11.341-25.225-25.864-30.293-43.87-0.887-3.132 0.649-4.95 3.191-6.528 4.403-2.722 8.781-5.564 13.039-8.525 2.654-1.817 5.171-3.32 8.67-1.741 2.841-4.096 0.358-7.501-0.793-10.777-2.040-5.743-1.681-10.522 3.114-14.43 3.994-3.217 6.912-6.434 6.298-11.844 0-0.12 0.119-0.239 0.119-0.358 0.298-6.87 0.87-13.688 0.768-20.539-0.034-2.586-0.964-4.915 2.073-6.434 0.631-0.333 1.024-1.758 1.024-2.628-0.102-4.386 3.865-10.949 7.902-12.118 1.186-0.315 2.816 0.887 4.241 1.382-0.657 0.981-1.186 2.091-1.997 2.918-0.827 0.879-2.679 1.382-2.756 2.176-0.315 2.918-0.256 5.913 0 8.858 0.196 1.834 0.589 3.849 1.561 5.393 2.987 4.779 6.272 9.31 9.447 13.969 0.179 0.298 0.239 0.734 0.239 1.11 0.137 4.454 4.454 5.726 6.571 8.644 1.109 1.502 2.552 2.901 3.2 4.574 1.083 2.765 1.322 5.845 2.449 8.567 1.707 4.181-0.427 7.893-4.65 9.233zM213.043 333.184c-1.049-5.999 1.255-9.711 4.762-12.987 2.381-2.227 3.909-2.168 4.403 0.947 0.649 4.027 3.447 5.487 6.409 7.185 2.552 1.485 4.898 3.2 7.399 4.856-7.816 0-15.343 0-22.971 0zM239.095 328.525c-2.492 0-3.55-0.837-3.081-3.14 3.123-0.999 6.119-1.988 9.421-3.055-0.905 6.195-0.99 6.195-6.34 6.195zM302.592 233.25c1.604-4.992-4.796-8.567-1.656-14.814 1.698 4.906 3.217 8.977 4.463 13.115 0.162 0.478-1.033 1.425-1.587 2.133-0.409-0.162-0.819-0.315-1.221-0.435z" />
<glyph unicode="&#xe61e;" d="M254.686 334.268c58.53-0.231 106.317-47.923 106.112-105.925-0.205-58.726-47.803-106.317-106.197-106.223-58.453 0.094-106.206 48.12-105.95 106.522 0.248 58.137 48.162 105.865 106.035 105.625zM254.728 323.047c-52.71 0.136-95.437-42.931-94.737-96.487 0.666-51.021 41.703-92.834 94.336-93.142 51.798-0.315 97.238 41.472 95.104 98.765-1.92 51.481-43.801 90.479-94.703 90.863zM295.637 226.415c-2.321 0.708-3.695 1.246-5.094 1.536-1.647 0.325-3.353 0.674-4.992 0.563-2.551-0.179-5.051-1.024-7.586-1.083-2.935-0.094-5.512 0.512-6.289 4.241-0.375 1.886-2.031 3.464-2.969 5.256-2.611 5.069-2.688 10.010 0.726 14.857 2.389 3.405 4.599 6.946 6.707 10.538 0.418 0.743 0.060 1.971-0.086 2.952-0.452 3.14-0.981 6.272-1.596 10.043 3.106-0.264 5.445-0.478 9.002-0.802-1.886 4.728-3.558 8.901-5.077 12.697-2.329 0.341-4.139 0.606-5.957 0.888 0.026 0.529 0.068 1.101 0.094 1.647 2.227 0.103 4.454 0.205 7.748 0.35-0.35 2.245-0.827 5.274-1.365 8.696 4.557-2.21 6.366-5.513 7.228-13.526 3.106 3.149 5.606 5.691 8.106 8.226-0.222 0.333-0.461 0.666-0.683 0.998-0.606 0-1.238 0.103-1.809-0.008-3.575-0.776-3.738 0.717-2.466 3.464 3.695 8.047 3.789 8.183 11.195 3.345 21.837-14.25 35.294-34.048 39.382-59.964 0.307-1.98 0.657-3.968 0.955-5.957 0.435-2.952 0.103-5.504-2.799-7.339-1.118-0.7-1.476-2.509-2.346-3.678-1.382-1.878-2.935-3.635-4.411-5.427-0.325 0.179-0.657 0.341-0.973 0.521 0.179-3.447 0.58-6.929 0.512-10.385-0.077-3.072-0.154-6.366-4.591-6.861-0.674-0.094-1.51-2.125-1.63-3.32-0.726-7.339-9.591-18.313-18.134-16.853-3.635 0.615-5.291 4.377-5.111 6.613 0.367 4.386-1.485 7.808-2.568 11.614-0.768 2.671-2.961 5.913 1.715 7.594 0.495 0.179 0.563 1.877 0.555 2.885 0 0.589-0.392 1.349-0.87 1.758-4.275 3.865-7.51 8.081-4.522 13.918zM297.173 268.647c0.264-0.469 0.538-0.939 0.81-1.416-0.469-1.221-1.11-2.407-1.322-3.678-0.128-0.7 0.307-2.108 0.734-2.219 2.68-0.683 5.598-1.911 8.115-1.408 4.873 0.947 9.43 1.135 14.242-1.587 1.041 3.209 1.954 6.041 2.91 8.977-4.711 0.708-8.653 1.297-13.474 2.022-0.58-0.179-2.27-1.016-4.036-1.195-1.861-0.188-3.806 0.239-5.41 0.375-0.205 0.947-0.034 3.405-0.973 3.951-2.415 1.391-5.317 1.988-8.055 2.79-0.273 0.077-0.896-0.529-1.161-0.947-1.894-2.952-3.755-5.922-5.317-8.414 3.746 0.802 8.346 1.775 12.937 2.748zM326.272 251.802c0.341-9.489 5.555-16.034 12.45-14.2-8.832 1.272-7.646 9.668-12.45 14.2zM197.222 221.943c-2.167-6.152-1.784-11.187 3.32-15.343 4.232-3.439 7.339-6.853 6.69-12.603-0.008-0.128 0.128-0.256 0.128-0.392 0.325-7.271 0.922-14.533 0.819-21.794-0.042-2.774-1.024-5.205 2.202-6.861 0.683-0.333 1.109-1.843 1.083-2.791-0.077-4.625 4.121-11.623 8.388-12.842 1.263-0.367 3.004 0.921 4.514 1.45-0.683 1.050-1.246 2.227-2.099 3.106-0.887 0.904-2.858 1.467-2.952 2.313-0.341 3.080-0.281 6.264 0 9.395 0.179 1.962 0.631 4.104 1.647 5.743 3.166 5.060 6.673 9.89 10.035 14.822 0.205 0.325 0.256 0.785 0.273 1.169 0.137 4.745 4.71 6.093 6.981 9.19 1.169 1.604 2.696 3.072 3.397 4.864 1.126 2.935 1.399 6.204 2.585 9.113 1.809 4.438-0.444 8.397-4.933 9.779-3.131 0.973-6.357 2.927-8.542 5.351-2.662 2.97-4.694 6.221-9.25 6.221-0.717 0-1.817 0.52-2.065 1.083-1.485 3.345-4.557 3.268-7.416 3.798-1.297 0.248-2.961 0.333-3.755 1.169-2.313 2.373-4.053 1.049-5.93-0.401-1.186-0.887-2.287-2.125-3.626-2.509-0.862-0.264-3.021 0.776-3.012 1.169 0.196 4.241-1.826 6.366-6.298 6.323 1.135 3.131 2.031 5.607 2.995 8.251-2.696-1.544-4.923-3.097-7.364-4.138-3.004-1.297-4.796-0.171-4.933 3.021-0.162 3.405-0.137 6.921 3.806 8.542 4.762 1.979 9.361 1.152 11.835-2.031 0.589-0.776 1.434-1.339 2.159-2.014-0.76 6.127 2.193 9.677 6.963 12.211 0.444 0.231 0.896 0.717 1.049 1.195 1.605 4.915 5.581 6.596 10.103 7.637 3.84 0.888 6.477 2.936 7.493 7.032 0.35 1.399 1.741 2.551 2.577 3.703 1.075-2.048 1.544-4.377 2.602-4.693 2.415-0.7 5.077-0.341 6.161 1.681-2.006 5.265-3.712 9.925-5.555 14.515-1.049 2.611-2.381 5.060-5.965 3.141-0.504 2.841-0.606 5.794-4.31 5.478-3.362-0.281-5.641-1.374-5.751-5.657-0.069-2.279-2.304-4.48-3.542-6.715-2.381 1.689-4.105 2.918-5.922 4.198-16.102-12.049-26.794-27.477-32.179-46.601-0.93-3.337 0.708-5.282 3.405-6.946 4.685-2.901 9.335-5.905 13.867-9.063 2.774-1.92 5.47-3.516 9.19-1.834 3.004-4.369 0.367-7.962-0.87-11.434zM244.864 299.913c2.535-2.389 4.147-2.313 4.685 0.973 0.691 4.31 3.669 5.846 6.809 7.655 2.688 1.57 5.205 3.397 7.868 5.154-8.294 0-16.281 0-24.423 0-1.093-6.366 1.374-10.325 5.060-13.781zM274.227 302.157c-0.921 6.562-1.050 6.562-6.724 6.562-2.637 0-3.763-0.845-3.277-3.311 3.32-1.083 6.502-2.116 10.001-3.251zM334.959 207.505c1.698-5.317-5.103-9.088-1.75-15.744 1.809 5.214 3.405 9.523 4.753 13.926 0.171 0.538-1.092 1.519-1.69 2.279-0.452-0.145-0.879-0.307-1.314-0.461zM280.414 45.73h-195.337v336.691h341.846v-319.3h40.935v381.79c0 19.379-15.71 35.089-35.089 35.089h-353.536c-19.379 0-35.089-15.71-35.089-35.089v-405.017c0-19.379 15.71-35.097 35.089-35.097h239.855l-38.673 40.935zM453.752 48.853h-52.702c0 0-0.231 61.926-0.529 61.926h-46.097c-0.281 0-0.529-61.926-0.529-61.926h-52.096l76.356-80.853 75.597 80.853z" />
<glyph unicode="&#xe61f;" d="M401.050 48.862h52.702l-75.597-80.862-76.356 80.862h52.096c0 0 0.239 61.901 0.529 61.901h46.097c0.298-0.009 0.529-61.901 0.529-61.901zM467.857 444.903v-381.773h-40.935v254.882h-341.846v-272.273h195.345l38.673-40.943h-239.863c-19.379 0-35.089 15.719-35.089 35.098v405.009c0 19.379 15.71 35.097 35.089 35.097h353.536c19.379 0 35.089-15.718 35.089-35.097zM168.567 335.027l-30.737 58.88 29.192 56.132h-26.735l-8.755-20.992c-2.611-6.648-4.6-11.768-7.057-19.106h-0.316c-2.441 6.486-4.753 12.117-7.825 19.106l-9.063 20.992h-26.88l28.877-56.832-29.952-58.18h26.727l8.448 20.813c3.379 8.030 5.99 14.012 8.132 20.651h0.316c2.918-6.639 5.367-12.621 9.207-20.65l9.378-20.813h27.042zM244.267 356.873h-41.165v93.167h-23.339v-115.021h64.512v21.854zM323.507 368.981c0 16.214-8.448 26.795-26.726 34.304-13.509 5.623-19.192 8.874-19.192 16.214 0 5.802 4.898 11.085 15.053 11.085 9.976 0 17.502-3.234 21.504-5.453l5.214 20.805c-6.144 3.251-14.592 5.803-26.419 5.803-24.269 0-39.16-14.831-39.16-34.458 0-16.734 11.367-27.306 28.561-34.142 12.45-4.762 17.357-8.866 17.357-16.034 0-7.501-5.683-12.459-16.426-12.459-9.993 0-19.823 3.592-25.967 7.168l-4.762-21.334c5.837-3.567 17.502-7.168 29.337-7.168 28.416 0.009 41.625 16.392 41.625 35.669zM349.961 263.586v-137.779h-195.78v137.779h195.78zM159.804 183.902h43.221v27.623h-43.221v-27.623zM208.64 183.902h38.963v27.623h-38.963v-27.623zM247.612 216.909v27.921h-38.971v-27.921h38.971zM253.244 183.902h42.257v27.623h-42.257v-27.623zM295.501 216.909v27.921h-42.257v-27.921h42.257zM159.804 244.83v-27.921h43.221v27.921h-43.221zM159.804 157.423h43.221v21.094h-43.221v-21.094zM208.64 157.423h38.963v21.094h-38.963v-21.094zM208.64 152.055v-21.401h38.963v21.401h-38.963zM253.244 130.663h42.257v21.401h-42.257v-21.401zM295.501 157.423v21.094h-42.257v-21.094h42.257zM301.115 157.423h43.204v21.094h-43.204v-21.094zM344.329 183.902v27.623h-43.204v-27.623h43.204zM344.329 216.909v27.921h-43.204v-27.921h43.204zM159.804 130.663h43.221v21.401h-43.221v-21.401zM344.329 130.663v21.401h-43.204v-21.401h43.204z" />
<glyph unicode="&#xe620;" d="M401.050 48.862h52.702l-75.589-80.862-76.365 80.862h52.096c0 0 0.248 61.901 0.529 61.901h46.097c0.298-0.009 0.529-61.901 0.529-61.901zM467.865 444.903v-381.773h-40.952v254.882h-341.837v-272.273h195.337l38.682-40.943h-239.855c-19.379 0-35.097 15.719-35.097 35.098v405.009c-0.008 19.379 15.71 35.097 35.097 35.097h353.528c19.379 0 35.097-15.718 35.097-35.097zM160.879 356.531h-48.999v0.683l48.231 77.807v15.018h-75.111v-21.504h44.851v-0.512l-49.305-79.019v-13.995h80.333v21.521zM197.572 450.039h-23.339v-115.021h23.339v115.021zM290.654 415.062c0 11.255-4.301 20.821-11.050 26.453-6.921 6.306-17.203 9.387-31.642 9.387-14.293 0-24.431-1.016-31.642-2.381v-113.493h23.194v41.301c2.142-0.512 4.915-0.674 7.995-0.674 13.824 0 25.634 3.917 33.638 12.109 6.272 6.306 9.506 15.863 9.506 27.298zM249.019 431.104c-4.6 0-7.825-0.35-9.514-0.853v-33.962c1.988-0.512 4.301-0.683 7.825-0.683 12.442 0 20.139 6.998 20.139 18.602 0 10.573-6.622 16.896-18.449 16.896zM262.187 131.755c19.464 0 35.217-9.063 35.217-20.241 0-11.153-15.752-20.207-35.217-20.207s-35.234 9.063-35.234 20.207c-0.008 11.178 15.769 20.241 35.234 20.241zM254.993 97.834h14.353v22.178h-14.353v-22.178zM288.751 246.486c1.221-0.862 2.748-1.058 4.25-0.726 0.93-10.436 20.113-20.95 20.113-20.95l13.167 20.224c0 0-17.75 13.261-27.699 9.541-0.281 1.246-0.93 2.321-1.979 3.064-2.586 1.817-6.434 0.802-8.601-2.287s-1.834-7.040 0.751-8.866zM306.586 276.983c1.135-0.998 2.637-1.374 4.13-1.203-0.264-10.479 17.587-23.125 17.587-23.125l15.419 18.569c0 0-16.12 15.215-26.419 12.655-0.154 1.263-0.683 2.423-1.613 3.294-2.363 2.099-6.298 1.519-8.815-1.297-2.509-2.799-2.646-6.775-0.29-8.891zM274.329 212.096c1.365-0.683 2.901-0.649 4.335-0.086 2.483-10.189 23.014-17.715 23.014-17.715l9.984 21.957c0 0-19.515 10.462-28.8 5.291-0.469 1.186-1.28 2.185-2.432 2.739-2.799 1.408-6.469-0.179-8.149-3.542s-0.768-7.228 2.048-8.644zM265.002 176.197c1.45-0.401 2.952-0.103 4.25 0.726 4.301-9.558 25.865-13.209 25.865-13.209l5.82 23.416c0 0-21.12 6.716-29.286-0.068-0.683 1.084-1.664 1.911-2.885 2.262-3.029 0.87-6.332-1.357-7.365-4.983-1.050-3.61 0.563-7.253 3.601-8.141zM260.19 141.926c1.493-0.231 2.944 0.264 4.13 1.246 5.504-8.935 27.332-9.796 27.332-9.796l2.799 23.978c0 0-21.803 3.959-29.048-3.789-0.819 0.973-1.886 1.664-3.166 1.861-3.115 0.486-6.084-2.159-6.665-5.88-0.563-3.746 1.494-7.142 4.617-7.62zM236.177 237.167c-2.167 3.081-6.007 4.096-8.584 2.287-1.041-0.726-1.707-1.817-1.997-3.072-9.941 3.729-27.682-9.523-27.682-9.523l13.159-20.224c0 0 19.174 10.505 20.113 20.958 1.502-0.358 3.021-0.154 4.258 0.717 2.577 1.809 2.91 5.777 0.734 8.857zM217.31 267.682c-2.5 2.816-6.442 3.387-8.806 1.297-0.947-0.87-1.468-2.006-1.613-3.294-10.309 2.56-26.41-12.646-26.41-12.646l15.411-18.577c0 0 17.843 12.647 17.57 23.126 1.528-0.171 3.012 0.196 4.138 1.22 2.363 2.099 2.219 6.075-0.29 8.875zM197.291 295.722c-2.611 2.705-6.571 3.141-8.84 0.956-0.905-0.896-1.399-2.082-1.494-3.353-10.402 2.142-25.907-13.679-25.907-13.679l16.119-17.962c0 0 17.331 13.329 16.666 23.791 1.528-0.111 3.012 0.325 4.088 1.365 2.27 2.193 1.988 6.186-0.631 8.883zM251.904 202.547c-1.69 3.379-5.342 4.958-8.158 3.55-1.143-0.555-1.954-1.545-2.432-2.722-9.293 5.154-28.8-5.308-28.8-5.308l9.993-21.947c0 0 20.548 7.526 23.031 17.707 1.425-0.555 2.952-0.589 4.31 0.086 2.825 1.408 3.729 5.282 2.056 8.635zM262.801 166.152c-1.033 3.635-4.335 5.854-7.381 4.983-1.229-0.35-2.202-1.169-2.885-2.245-8.175 6.767-29.295 0.051-29.295 0.051l5.828-23.416c0 0 21.547 3.652 25.873 13.209 1.297-0.81 2.799-1.127 4.249-0.709 3.038 0.87 4.659 4.505 3.61 8.123zM268.621 131.337c-0.563 3.729-3.567 6.366-6.682 5.888-1.263-0.197-2.338-0.887-3.149-1.869-7.254 7.757-29.048 3.789-29.048 3.789l2.774-23.97c0 0 21.863 0.862 27.349 9.788 1.186-0.973 2.637-1.467 4.139-1.246 3.115 0.495 5.18 3.891 4.616 7.62z" />
<glyph unicode="&#xe621;" d="M255.992 480c-141.363 0-255.992-114.629-255.992-256 0-141.363 114.629-256 255.992-256 141.346 0 256.009 114.637 256.009 256 0 141.371-114.663 256-256.009 256zM329.37 316.919c-18.603-6.895-38.545-11.213-59.341-12.621v75.947c24.38-16.154 44.74-37.88 59.341-63.326zM288.171 387.379c33.365-6.545 63.181-23.074 86.221-46.361-9.31-6.537-18.944-12.638-29.38-17.528-14.174 25.216-33.75 46.771-56.841 63.889zM337.11 301.85c9.046-19.704 14.728-41.191 16.418-63.838h-83.507v49.511c23.56 1.476 46.131 6.349 67.089 14.327zM353.527 209.997c-1.639-22.4-7.245-43.656-16.137-63.181-21.026 8.030-43.69 12.954-67.379 14.43v48.751h83.515zM345.361 125.099c10.522-4.923 20.156-11.050 29.406-17.639-23.082-23.526-53.034-40.234-86.63-46.839 23.279 17.263 43.034 39.048 57.224 64.478zM329.736 131.721c-14.651-25.702-35.115-47.633-59.716-63.94v76.689c20.941-1.433 41.011-5.786 59.716-12.749zM352.827 140.135c9.788 21.546 15.813 45.099 17.502 69.871h51.533c-2.841-33.869-15.813-64.87-35.942-89.933-10.394 7.493-21.291 14.498-33.093 20.062zM370.321 238.012c-1.69 25.011-7.877 48.743-17.826 70.477 11.818 5.538 22.639 12.493 33.024 19.959 20.361-25.182 33.493-56.354 36.335-90.436h-51.533zM160.214 307.61c-9.711-21.495-15.71-44.937-17.399-69.598h-52.677c2.841 33.851 15.813 64.827 35.909 89.925 10.726-7.655 21.93-14.729 34.167-20.327zM137.182 340.539c23.433 23.859 53.965 40.67 88.132 47.070-23.493-17.349-43.4-39.262-57.668-64.956-10.88 4.95-20.856 11.187-30.464 17.886zM142.822 209.997c1.673-24.414 7.56-47.65 17.101-68.983-12.271-5.64-23.475-12.74-34.236-20.446-19.9 24.994-32.725 55.783-35.541 89.43h52.676zM167.296 125.952c14.293-25.959 34.355-48.068 58.035-65.57-34.398 6.469-65.066 23.45-88.559 47.539 9.608 6.784 19.609 13.056 30.524 18.031zM183.023 132.377c18.5 6.699 38.289 10.854 58.974 12.143v-76.032c-24.32 16.341-44.527 38.289-58.974 63.889zM175.429 147.524c-8.704 19.311-14.174 40.354-15.813 62.472h82.381v-48.683c-23.381-1.365-45.747-6.084-66.569-13.79zM159.607 238.012c1.673 22.383 7.245 43.631 16.111 63.147 20.744-7.672 43.008-12.365 66.27-13.696v-49.45h-82.381zM183.39 316.254c14.413 25.344 34.475 47.061 58.599 63.274v-75.281c-20.523 1.272-40.209 5.393-58.599 12.007z" />
<glyph unicode="&#xe622;" d="M481.911 480h-451.798c-16.581 0-30.114-13.568-30.114-30.114v-451.772c0-16.546 13.534-30.114 30.114-30.114h451.798c16.546 0 30.089 13.568 30.089 30.114v451.772c0 16.546-13.543 30.114-30.089 30.114zM356.224 146.825h-200.465v112.939l91.793-57.114h16.888l91.784 57.13v-112.956zM356.224 286.788l-91.776-57.148h-16.896l-91.793 57.114v14.413h200.465v-14.379z" />
<glyph unicode="&#xe623;" d="M255.992 480c-141.363 0-255.992-114.629-255.992-256s114.629-256 255.992-256c141.355 0 256.009 114.629 256.009 256s-114.654 256-256.009 256zM197.112 375.279l1.339 1.305c5.863 5.88 14.822 6.673 22.4 2.841-3.772 7.603-2.987 16.572 2.901 22.451l1.339 1.288c7.493 7.493 20.155 6.929 28.365-1.254l43.025-43.127c8.2-8.175 8.747-20.898 1.203-28.416l-1.305-1.314c-5.854-5.854-14.814-6.622-22.425-2.841 3.772-7.552 3.021-16.529-2.901-22.4l-1.322-1.306c-7.466-7.492-20.155-6.929-28.399 1.255l-43.025 43.128c-8.167 8.2-8.721 20.898-1.195 28.39zM94.267 280.696l3.021 2.986c6.614 6.648 17.203 6.587 25.207 0.896 1.4 3.064 3.089 6.016 5.521 8.423l3.149 3.115c4.727 2.022 7.407 1.476 8.507-3.226-0.495-7.168 1.775-14.635 7.441-20.293l19.285-19.311c5.88-5.905 13.704-8.149 21.145-7.381 9.514-2.901 9.514-7.603 8.892-12.365-0.631-4.727-6.698-6.725-6.698-6.725-2.654-2.304-9.054-3.089-16.495-2.458 0.581-5.521-0.93-11.111-4.975-15.138l-1.314-1.331c-7.518-7.458-20.233-6.878-28.391 1.288l-43.067 43.136c-8.166 8.201-8.738 20.89-1.229 28.382zM271.65 71.466h-174.745v20.301h0.487c1.237 8.661 8.354 15.42 17.374 15.42h9.651c-0.213 0.887-0.461 1.75-0.461 2.68 0 5.47 3.772 9.899 8.448 9.899h5c0.495 6.187 5.41 11.102 11.571 11.102h70.588c6.153 0 11.050-4.915 11.571-11.102h5.035c4.667 0 8.448-4.438 8.448-9.899 0-0.93-0.248-1.8-0.47-2.68h9.625c9.020 0 16.128-6.759 17.383-15.419h0.486v-20.301h0.009zM415.949 82.568c-8.653-8.644-21.829-9.464-29.431-1.851l-162.253 162.594c-2.535 2.543-3.772 5.718-4.48 9.063-11.759-1.536-23.928 1.587-32.571 10.257l-29.398 29.457c-15.369 15.403-13.756 41.899 1.724 57.336l4.403 4.377c6.605 3.013 10.249 2.355 11.512-3.993-1.016-9.814 1.75-19.909 9.242-27.435l25.412-25.464c7.766-7.8 18.381-10.445 28.561-9.071 5.854-1.587 7.928-4.95 8.397-8.807 3.141-0.768 6.153-2.023 8.534-4.403l162.287-162.628c7.577-7.629 6.707-20.813-1.937-29.431z" />
<glyph unicode="&#xe624;" d="M256 480c-141.159 0-256-114.833-256-256s114.841-256 256-256c141.167 0 256 114.833 256 256s-114.833 256-256 256zM293.47 368.743l-11.418-204.032h-49.229l-10.701 204.032h71.347zM257.792 63.411c-22.648 0-41.019 18.363-41.019 41.019s18.363 41.019 41.019 41.019c22.656 0 41.019-18.363 41.019-41.019s-18.363-41.019-41.019-41.019z" />
<glyph unicode="&#xe625;" d="M282.043 164.711h-49.221l-10.701 204.032h71.33l-11.409-204.032zM257.8 145.442c-22.648 0-41.019-18.363-41.019-41.019s18.363-41.019 41.019-41.019c22.639 0 41.011 18.363 41.011 41.019s-18.373 41.019-41.011 41.019zM512 224c0 141.167-114.833 256-256 256-141.159 0-256-114.833-256-256s114.841-256 256-256c141.167 0 256 114.833 256 256zM467.592 224c0-116.668-94.925-211.584-211.593-211.584s-211.584 94.916-211.584 211.584c0 116.659 94.917 211.584 211.584 211.584s211.593-94.925 211.593-211.584z" />
<glyph unicode="&#xe626;" d="M481.92 480h-451.806c-16.581 0-30.114-13.568-30.114-30.114v-451.772c0-16.546 13.534-30.114 30.114-30.114h451.798c16.563 0 30.088 13.568 30.088 30.114v451.772c0 16.546-13.526 30.114-30.080 30.114zM320.853 308.933c-12.118 0-25.165 0-31.351 0-6.221 0-12.502-6.469-12.502-11.196 0-4.77 0-32 0-32s38.793 0 43.784 0c-1.707-24.542-5.351-46.95-5.351-46.95h-38.656v-128.418h-57.583v128.41h-28.015v46.771h28.015c0 0 0 31.24 0 38.263 0 7.014-1.434 53.854 59.034 53.854 8.072 0 26.488 0 42.624 0 0-20.327 0-42.368 0-48.734z" />
<glyph unicode="&#xe627;" d="M199.722 104.038c0-42.658 0.094-85.282-0.085-127.889-0.042-6.178 1.195-8.243 7.859-8.089 22.733 0.461 45.457 0.563 68.138-0.051 8.038-0.213 9.634 2.279 9.634 9.831-0.307 84.411-0.128 168.815-0.307 253.278 0 6.442 1.272 8.644 8.183 8.397 20.164-0.461 40.389-0.051 60.578-0.264 4.411 0 6.639 0.683 6.4 5.982-0.171 19.541-0.171 39.202 0 58.872 0.145 4.548-1.647 5.666-5.837 5.563-14.822-0.214-29.551-0.145-44.433 0-7.808 0-18.313-2.62-22.938 1.382-5.538 4.599-1.647 15.454-1.758 23.526-0.103 17.339-1.221 34.705 1.911 51.899 2.927 16.29 10.966 22.929 27.478 23.245 10.471 0.222 20.906-0.751 31.343-2.662 4.275-0.726 5.999 0.103 6.536 4.728 1.869 19.413 4.070 38.954 6.238 58.427 0.409 4.062-0.231 5.982-5.171 6.392-25.916 2.065-52.070 4.002-78.267 3.217-11.656-0.29-22.998-3.337-33.238-9.293-30.267-17.502-41.071-45.816-42.154-78.754-0.64-24.96-0.179-49.997 0-75.017 0.137-5.393-1.101-7.552-6.946-7.313-9.421 0.435-18.756 0-28.126 0.214-4.079 0.103-5.897-0.768-6.357-5.351-1.826-19.516-4.019-39.057-6.4-58.479-0.683-5.589 1.288-6.681 6.4-6.588 11.341 0.367 22.725-0.231 34.107 0.273 6.221 0.315 7.458-1.741 7.322-7.586-0.111-42.59-0.111-85.265-0.111-127.889z" />
<glyph unicode="&#xe628;" d="M237.423 268.185l7.799-26.582h-27.682l7.612 26.582c1.869 7.253 3.909 16.717 5.581 24.158h0.554c1.861-7.245 4.088-16.726 6.136-24.158zM358.946 293.095c-19.32 0-30.464-18.774-30.464-42.368 0-23.978 11.315-42.001 30.285-42.001h0.179c19.149 0 30.114 18.023 30.114 42.547 0.009 22.861-10.777 41.822-30.114 41.822zM471.416 382.831v-256.094c0-19.618-16.086-35.524-35.951-35.524h-225.459l-69.427-66.304c-5.564-4.182-13.431-3.132-17.578 2.355l-0.162 63.94h-46.285c-19.883 0-35.968 15.906-35.968 35.524v256.103c0 19.618 16.094 35.533 35.968 35.533h358.92c19.857 0 35.942-15.915 35.942-35.533zM172.936 313.531h-76.374v-125.243h28.245v50.346h44.971v23.048h-44.971v28.63h48.128v23.219zM289.63 188.279l-39.023 125.243h-36.983l-38.28-125.243h29.355l8.73 32.154h36.053l9.668-32.154h30.481zM419.533 188.638c-9.848 1.869-20.634 4.293-30.097 7.082v0.726c16.35 7.441 29.551 27.512 29.551 55.945 0 34.185-21 63.181-59.102 63.181-37.529 0-61.32-28.066-61.32-65.775 0-40.891 26.368-61.705 54.818-63.565 2.799-0.179 5.752-0.734 8.55-1.861 16.896-7.065 31.786-12.442 49.613-17.647l7.987 21.913z" />
<glyph unicode="&#xe629;" d="M453.18 324.224c0-8.601 0-232.849 0-232.849h-33.263v229.735c-13.654 10.735-98.313 19.524-98.313 19.524s-1.954 44.868-4.881 75.136c-2.901 30.25-21.453 31.224-21.453 31.224h-200.055v-386.039h141.721c0.708-1.067 1.476-2.099 2.406-3.080l35.687-37.769h-190.583c-14.148 0-25.626 11.478-25.626 25.634v408.61c0 14.166 11.478 25.651 25.626 25.651h197.060c0 0 16.137-1.656 23.995-4.497 34.85-12.51 66.082-47.889 78.831-63.736 18.014-22.341 68.847-76.331 68.847-87.543zM391.288 91.375v85.803c0 0.358-0.264 0.64-0.632 0.64h-69.376c-0.35 0-0.632-0.281-0.632-0.64v-110.541h-57.882l93.133-98.637 92.219 98.629h-56.832v24.747z" />
<glyph unicode="&#xe62a;" d="M453.18 324.224c0-8.601 0-232.849 0-232.849h-33.263v229.735c-13.654 10.735-98.313 19.524-98.313 19.524s-1.954 44.868-4.881 75.136c-2.901 30.25-21.453 31.224-21.453 31.224h-200.055v-386.039h141.721c0.708-1.067 1.476-2.099 2.406-3.080l35.687-37.769h-190.583c-14.148 0-25.626 11.478-25.626 25.634v408.61c0 14.166 11.478 25.651 25.626 25.651h197.060c0 0 16.137-1.656 23.995-4.497 34.85-12.51 66.082-47.889 78.831-63.736 18.014-22.341 68.847-76.331 68.847-87.543zM391.288 91.375v85.803c0 0.358-0.264 0.64-0.632 0.64h-69.376c-0.35 0-0.632-0.281-0.632-0.64v-110.541h-57.882l93.133-98.637 92.219 98.629h-56.832v24.747zM293.086 328.158c0 10.035-8.149 18.193-18.185 18.193h-133.035c-10.043 0-18.184-8.149-18.184-18.193s8.141-18.193 18.184-18.193h133.035c10.035-0.008 18.185 8.149 18.185 18.193zM293.086 265.046c0 10.053-8.149 18.193-18.185 18.193h-133.035c-10.043 0-18.184-8.149-18.184-18.193s8.141-18.193 18.184-18.193h133.035c10.035-0.008 18.185 8.149 18.185 18.193zM293.086 203.648c0 10.053-8.149 18.202-18.185 18.202h-133.035c-10.043 0-18.184-8.149-18.184-18.202 0-10.043 8.141-18.185 18.184-18.185h133.035c10.035 0 18.185 8.149 18.185 18.185z" />
<glyph unicode="&#xe62b;" d="M357.418 55.663c0 37.871-38.084 71.407-104.098 83.653l0.008-32.248c42.538-8.824 72.251-29.961 72.251-51.397 0-26.402-47.582-55.808-115.865-55.808-68.267 0-115.857 29.406-115.857 55.808 0 20.233 31.027 43.955 70.383 53.325l-0.529 31.471c-57.754-9.634-101.709-48.103-101.709-84.805 0-49.152 64.896-87.663 147.712-87.663 82.833 0 147.704 38.519 147.704 87.663zM226.185 55.663h-31.855v424.337h31.855v-424.337zM449.988 471.637h-193.681v-160.896h193.69v160.896z" />
<glyph unicode="&#xe62c;" d="M228.65 55.663h-31.855v424.337h31.855v-424.337zM259.575 480v-218.897l187.417 122.266-187.418 96.631zM360.414 55.663c0 37.871-38.084 71.407-104.098 83.653l0.009-32.248c42.538-8.824 72.252-29.961 72.252-51.397 0-26.402-47.582-55.808-115.874-55.808-68.266 0-115.849 29.406-115.849 55.808 0 20.233 31.027 43.955 70.383 53.325l-0.529 31.471c-57.754-9.634-101.709-48.103-101.709-84.805 0-49.152 64.896-87.663 147.712-87.663 82.841 0 147.703 38.519 147.703 87.663z" />
<glyph unicode="&#xe62d;" d="M258.381-32l-10.666 60.57c-9.429 0.273-18.774 1.238-27.835 2.816-2.236 0.418-4.446 0.853-6.673 1.314l-25.77-55.365-76.219 35.584 25.37 54.502c-9.233 6.954-18.048 14.925-26.299 23.834l-51.849-29.952-42.035 72.883 50.475 29.184c-5.846 17.246-9.233 35.046-10.12 53.103l-56.584 9.993 14.609 82.901 55.8-9.856c4.574 11.512 10.334 22.665 17.212 33.374l-39.962 39.953 59.478 59.52 39.672-39.731c10.573 6.844 21.803 12.672 33.502 17.425l-9.77 55.347 82.876 14.601 9.873-55.987c8.807-0.359 17.101-1.238 25.122-2.663 3.823-0.674 7.723-1.519 11.776-2.517l24.132 51.849 76.245-35.593-24.678-52.933c9.293-7.364 18.048-15.752 26.154-25.054l51.303 29.585 41.993-72.841-52.121-30.149c5.077-16.802 7.911-34.031 8.397-51.49l60.032-10.573-14.575-82.885-60.877 10.769c-4.421-10.454-9.805-20.616-16.111-30.344l43.947-43.938-59.495-59.554-43.998 44.032c-9.531-6.118-19.687-11.401-30.302-15.863l10.795-61.218-82.816-14.634zM268.433 53.427l10.001-56.772 34.142 6.016-10.043 57.113 9.779 3.533c15.42 5.555 29.798 13.099 42.752 22.4l8.525 6.11 41.147-41.173 24.534 24.567-41.147 41.147 6.152 8.517c9.651 13.431 17.288 27.793 22.647 42.752l3.524 9.788 56.746-10.026 6.016 34.185-56.389 9.933 0.273 10.649c0.546 21.47-2.901 42.658-10.24 62.985l-3.524 9.736 48.444 28.015-17.322 30.038-48.179-27.819-6.622 8.423c-10.752 13.671-22.904 25.327-36.113 34.646l-8.457 5.947 22.835 49.015-31.437 14.661-22.613-48.546-10.231 3.055c-6.963 2.082-13.303 3.618-19.353 4.685-9.301 1.647-19.123 2.457-29.986 2.457l-11.571-0.051-9.165 51.959-34.167-6.016 9.113-51.55-9.976-3.43c-16.418-5.649-31.795-13.637-45.756-23.757l-8.55-6.195-36.881 36.958-24.525-24.542 37.112-37.128-6.093-8.507c-10.24-14.302-18.133-29.645-23.458-45.594l-3.388-10.103-52.121 9.207-6.016-34.201 52.497-9.285-0.059-10.402c-0.094-22.033 4.037-43.69 12.305-64.392l3.951-9.933-47.368-27.375 17.34-30.046 48.154 27.819 6.656-7.919c11.136-13.235 23.458-24.371 36.667-33.118l8.875-5.88-23.799-51.115 31.411-14.651 23.995 51.515 10.010-2.697c4.881-1.297 9.847-2.415 14.745-3.303 9.643-1.698 19.712-2.551 29.867-2.551l14.336 0.248zM254.31 125.602c-5.871 0-11.793 0.529-17.587 1.562-26.479 4.668-49.561 19.379-64.99 41.43s-21.342 48.793-16.649 75.29c8.474 48.247 50.133 83.268 99.055 83.268 5.854 0 11.742-0.512 17.57-1.536 54.656-9.677 91.298-62.046 81.673-116.728-8.49-48.264-50.176-83.286-99.072-83.286zM254.139 302.43c-36.881 0-68.31-26.445-74.726-62.856-3.542-20.002 0.922-40.175 12.57-56.815 11.639-16.649 29.056-27.75 49.007-31.283 4.403-0.768 8.892-1.161 13.321-1.161 36.872 0 68.301 26.419 74.718 62.822 7.279 41.267-20.369 80.802-61.619 88.106-4.377 0.802-8.841 1.186-13.269 1.186zM253.338 179.115c-25.651 0-46.523 20.864-46.523 46.524 0 25.651 20.873 46.524 46.524 46.524 25.668 0 46.55-20.873 46.55-46.524 0.009-25.651-20.881-46.524-46.549-46.524zM253.338 247.458c-12.024 0-21.811-9.77-21.811-21.811 0-12.032 9.779-21.829 21.811-21.829s21.845 9.788 21.845 21.828c0 12.041-9.813 21.811-21.846 21.811z" />
<glyph unicode="&#xe62e;" d="M497.255 138.735l14.567 82.901-60.049 10.59c-0.495 17.434-3.328 34.679-8.397 51.482l52.13 30.131-42.001 72.849-51.311-29.585c-8.089 9.301-16.87 17.681-26.129 25.045l24.635 52.95-76.228 35.592-24.132-51.857c-4.045 0.998-7.945 1.843-11.767 2.526-8.022 1.425-16.315 2.304-25.139 2.663l-9.864 55.978-82.825-14.609 9.754-55.356c-11.699-4.745-22.921-10.565-33.511-17.417l-39.663 39.74-59.461-59.511 39.953-39.962c-6.895-10.701-12.655-21.871-17.221-33.374l-55.808 9.856-14.609-82.901 56.584-9.993c0.888-18.065 4.275-35.849 10.104-53.103l-50.458-29.201 42.044-72.866 51.84 29.935c8.243-8.901 17.058-16.862 26.3-23.817l-25.378-54.536 76.211-35.567 25.779 55.382c2.253-0.486 4.438-0.913 6.673-1.322 9.063-1.604 18.389-2.551 27.845-2.816l10.641-60.561 82.841 14.626-10.794 61.209c10.615 4.48 20.77 9.753 30.31 15.863l43.973-44.032 59.512 59.554-43.947 43.947c6.289 9.736 11.682 19.865 16.12 30.336l60.877-10.769zM353.382 208.887c-8.482-48.264-50.176-83.286-99.081-83.286-5.854 0-11.793 0.529-17.578 1.553-26.488 4.676-49.561 19.379-65.007 41.438-15.428 22.050-21.316 48.785-16.64 75.29 8.482 48.248 50.133 83.268 99.064 83.268 5.854 0 11.742-0.512 17.57-1.536 54.656-9.685 91.289-62.055 81.673-116.728zM267.409 301.286c-4.386 0.751-8.858 1.152-13.269 1.152-36.881 0-68.31-26.445-74.735-62.856-3.55-20.010 0.93-40.175 12.561-56.832 11.665-16.64 29.082-27.75 49.024-31.274 4.411-0.751 8.892-1.152 13.304-1.152 36.898 0 68.327 26.419 74.735 62.822 7.262 41.285-20.369 80.827-61.619 88.141zM253.321 179.115c-25.643 0-46.515 20.856-46.515 46.524s20.873 46.524 46.515 46.524c25.694 0 46.558-20.847 46.558-46.524 0-25.659-20.873-46.524-46.558-46.524zM253.321 247.45c-12.006 0-21.811-9.754-21.811-21.811 0-12.032 9.797-21.802 21.811-21.802 12.057 0 21.854 9.779 21.854 21.803-0.009 12.058-9.796 21.811-21.854 21.811z" />
<glyph unicode="&#xe62f;" d="M248.525 479.889c-141.286-4.113-252.544-122.035-248.405-263.33 4.13-141.346 122.026-252.561 263.339-248.448 141.278 4.104 252.57 122.043 248.44 263.339-4.113 141.32-122.070 252.553-263.373 248.44zM256.009 53.223c-94.293 0-170.769 76.476-170.769 170.778s76.467 170.769 170.769 170.769c94.267-0.008 170.744-76.475 170.744-170.769 0-94.302-76.476-170.778-170.744-170.778zM256.034 78.25c-80.375 0-145.767 65.382-145.767 145.75s65.391 145.75 145.767 145.75c80.358 0 145.715-65.382 145.715-145.75s-65.357-145.75-145.715-145.75zM256.034 350.139c-69.572 0-126.131-56.584-126.131-126.139s56.559-126.131 126.131-126.131c69.521 0 126.114 56.593 126.114 126.131 0 69.547-56.593 126.139-126.114 126.139zM322.885 211.524c-5.368 6.451-13.637 11.87-24.567 16.025-6.178 2.296-16.572 4.881-31.096 7.791v41.574c7.466-0.998 14.003-2.628 18.432-5.632 6.486-4.378 10.206-10.744 11.349-19.448l0.333-2.569 28.382 1.775-0.111 2.688c-0.443 9.285-3.67 17.723-9.514 25.071-5.854 7.322-14.225 12.928-24.935 16.64-7.117 2.474-15.326 3.798-23.936 4.608v21.299h-22.4v-21.111c-8.653-0.7-16.956-1.997-24.371-4.514-10.479-3.558-18.569-8.892-24.038-15.838-5.581-7.014-8.423-14.686-8.423-22.81 0-7.433 2.355-14.242 6.938-20.258 4.54-5.88 11.409-10.846 20.454-14.754 6.016-2.611 15.863-5.317 29.423-8.192v-48.248c-4.079 0.717-7.987 1.647-11.597 2.901-7.766 2.816-13.482 6.434-17.041 10.777-3.584 4.394-5.871 10.129-6.895 17.075l-0.358 2.526-27.947-1.997 0.111-2.654c0.333-10.505 3.882-20.079 10.555-28.442 6.613-8.286 15.813-14.55 27.35-18.663 7.339-2.594 16.248-4.053 25.822-4.975v-15.531h22.4v14.925c10.837 0.538 21 2.193 29.926 5.538 10.752 4.062 19.166 9.873 25.029 17.288 5.905 7.501 8.858 15.608 8.858 24.123 0.026 8.635-2.722 16.341-8.132 23.006zM222.678 247.356c-3.994 2.952-5.905 6.562-5.905 11.050 0 5.223 2.841 9.668 8.704 13.534 4.292 2.816 11.238 4.318 19.362 5.162v-37.205c-13.85 3.157-19.865 5.734-22.161 7.458zM297.882 175.906c-3.115-3.498-7.962-6.332-14.438-8.354-4.762-1.545-10.308-2.363-16.214-2.765v44.442c7.347-1.596 12.825-2.901 15.727-3.865 7.117-2.253 12.194-4.95 15.147-8.064 2.841-3.012 4.216-6.4 4.216-10.394s-1.476-7.594-4.438-11z" />
<glyph unicode="&#xe630;" d="M481.92 480h-451.798c-16.581 0-30.114-13.568-30.114-30.114v-451.781c0-16.538 13.534-30.106 30.114-30.106h451.789c16.538 0 30.063 13.568 30.063 30.106v451.781c0.009 16.546-13.526 30.114-30.055 30.114zM188.245 386.338c1.032-0.87 3.695-2.201 4.906-4.326 15.744-24.098 27.835-42.709 43.238-66.841 4.019-6.332-0.614-9.839-4.633-13.005-4.344-3.328-4.224-6.050-6.622-2.338-15.889 24.781-31.642 49.528-47.368 74.326-4.053 6.425 0.205 11.913 10.479 12.185zM346.914 83.021c-9.967-6.767-21.026-5.999-32.026-1.613-43.025 17.98-89.754 50.262-114.117 76.424-29.764 31.786-50.133 55.62-70.929 113.007-6.050 16.58-10.061 33.954-14.37 51.132-2.108 8.534 0.384 16.837 5.965 23.399 10.905 12.672 25.31 20.386 40.798 27.461 9.421-14.985 18.825-29.585 28.091-44.126 7.031-11.094 14.123-21.999 21.162-33.075 4.6-7.288 4.036-9.438-3.909-13.875-2.296-1.238-4.403-2.858-6.818-3.763-7.569-2.688-8.405-8.277-5.035-14.183 8.721-15.215 16.597-31.112 27.367-44.783 18.714-23.603 48.35-46.003 57.097-51.891 4.181-2.799 7.399-1.587 10.649 3.003 11.153 16.034 11.733 16.094 26.565 2.833 19.695-17.8 39.296-35.891 58.983-53.82 0.598-0.674 1.186-1.399 2.014-2.534-8.67-12.954-18.526-24.806-31.488-33.596zM390.656 128.162c-2.202-1.092-6.861 0.819-9.139 2.85-20.898 18.611-41.531 37.606-62.208 56.423-3.678 3.277-7.543 6.656-3.158 11.981 4.377 5.385 9.702 5.769 15.198 0.879 20.505-18.731 41.002-37.462 61.38-56.337 1.664-1.613 2.799-4.104 4.548-6.946-2.279-3.405-3.84-7.603-6.622-8.849z" />
<glyph unicode="&#xe631;" d="M143.513 480c1.69-1.45 6.093-3.652 8.132-7.211 26.172-39.995 46.208-70.912 71.799-110.993 6.725-10.496-1.016-16.333-7.689-21.555-7.21-5.512-7.014-10.087-10.982-3.917-26.368 41.147-52.548 82.253-78.626 123.452-6.784 10.666 0.281 19.789 17.365 20.224zM406.981-23.688c-16.538-11.239-34.935-9.984-53.171-2.705-71.433 29.858-149.043 83.49-189.491 126.916-49.451 52.787-83.269 92.365-117.82 187.665-10.010 27.554-16.691 56.389-23.851 84.941-3.533 14.114 0.674 27.93 9.915 38.835 18.099 21.026 42.043 33.817 67.737 45.602 15.675-24.892 31.258-49.135 46.643-73.275 11.708-18.432 23.466-36.557 35.174-54.938 7.646-12.118 6.725-15.676-6.486-23.032-3.823-2.056-7.304-4.77-11.323-6.238-12.578-4.497-13.986-13.764-8.371-23.569 14.464-25.275 27.579-51.695 45.431-74.368 31.061-39.185 80.273-76.416 94.805-86.195 6.963-4.642 12.288-2.646 17.707 5.009 18.534 26.607 19.447 26.683 44.126 4.668 32.709-29.56 65.229-59.554 97.937-89.37 1.015-1.11 1.937-2.313 3.379-4.181-14.455-21.538-30.805-41.173-52.344-55.765zM479.608 51.26c-3.627-1.817-11.366 1.331-15.138 4.719-34.688 30.89-69 62.438-103.347 93.696-6.093 5.445-12.485 11.034-5.223 19.882 7.305 8.952 16.111 9.583 25.259 1.476 34.056-31.113 68.079-62.216 101.939-93.526 2.757-2.705 4.642-6.853 7.501-11.546-3.729-5.658-6.349-12.621-10.991-14.703z" />
<glyph unicode="&#xe632;" d="M457.199 281.344l-153.848 156.63c-44.416 47.479-86.272 0-86.272 0l-124.936-123.563c-94.055-90.368-46.532-110.046-28.749-114.065v-172.501c0-33.033 26.752-59.844 59.776-59.844h79.642v138.010c0 0-5.777 15.761 27.323 15.761 33.016 0 67.507 0 67.507 0s15.846 1.51 15.846-18.663c0-20.079 1.357-135.108 1.357-135.108h76.8c32.998 0 59.853 26.812 59.853 59.844v182.375c52.599 7.774 5.7 71.125 5.7 71.125zM427.017 460.971c0 0 2.757 18.637-20.13 18.637h-51.738c0 0-18.688 4.361-18.688-15.838 0-20.027 0-28.647 0-28.647l90.565-84.847v110.695z" />
<glyph unicode="&#xe633;" d="M269.252 163.439h-72.013c-6.887 0-12.527-3.277-12.527-10.171 0-6.946 5.641-12.502 12.527-12.502h72.013c6.887 0 12.467 5.546 12.467 12.502 0.009 6.904-5.589 10.171-12.467 10.171zM328.32 206.106h-130.637c-6.861 0-12.467-3.286-12.467-10.171s5.607-12.502 12.467-12.502h130.637c6.904 0 12.502 5.606 12.502 12.502s-5.606 10.171-12.502 10.171zM197.683 229.291h130.185c6.451 0 11.639 2.927 11.639 9.327 0 6.425-5.188 11.623-11.639 11.623h-130.185c-6.4 0-11.673-5.197-11.673-11.623-0.017-6.409 5.274-9.327 11.673-9.327zM255.992 480c-141.371 0-255.992-114.629-255.992-255.992 0-141.355 114.62-256.009 255.992-256.009 141.355 0 256.009 114.654 256.009 256.009 0 141.363-114.654 255.991-256.009 255.991zM295.288 378.249l82.654-86.358-74.582-0.529-8.064 5.863v81.024zM378.454 97.152c0-15.215-12.305-27.597-27.563-27.597h-174.712c-15.232 0-27.597 12.382-27.597 27.597v253.704c0 15.232 12.365 27.597 27.597 27.597h105.293c1.272-19.814-4.394-90.479 4.889-94.532 9.481-5.675 90.769-0.751 92.083-4.779v-181.99z" />
<glyph unicode="&#xe634;" d="M255.975 479.147c-138.555 0-250.871-114.219-250.871-255.113 0-140.962 112.316-255.181 250.871-255.181s250.923 114.227 250.923 255.181c0 140.894-112.367 255.112-250.923 255.112zM293.026 148.548c-9.625-14.233-21.274-26.454-34.611-36.327-10.582-7.962-21.162-12.015-31.411-12.015-7.62 0-14.063 2.346-19.2 6.938-5.291 4.762-8.098 11.119-8.098 18.415 0 5.76 1.809 14.455 5.495 26.555l26.488 87.663c5.743 18.944 6.169 23.56 6.169 24.507-0.776 1.058-1.971 1.305-3.499 1.305-1.229 0-5.385-0.188-17.305-2.073l-9.608-1.511v24.883l90.488 14.055-44.177-150.016c-1.621-5.615-2.569-9.105-3.072-11.264 6.955 5.231 14.277 13.056 21.641 23.211l4.531 6.255 21.154-13.235-4.983-7.347zM303.65 328.73c-5.563-5.41-12.348-8.141-20.096-8.141-7.697 0-14.661 2.816-20.156 8.166-5.709 5.47-8.619 12.168-8.619 19.917 0 7.739 2.961 14.66 8.533 20.045 5.504 5.299 12.288 7.995 20.241 7.995 7.902 0 14.695-2.688 20.216-7.978 5.589-5.359 8.542-12.297 8.542-20.062 0-7.697-2.91-14.413-8.661-19.942z" />
<glyph unicode="&#xe635;" d="M128.094 480c85.265 0 170.53 0 255.889 0 1.527-0.426 3.063-1.007 4.668-1.255 36.975-7.134 64.145-39.108 64.179-76.535 0.145-118.673 0.145-237.389-0.043-356.087-0.086-42.931-35.106-77.798-78.080-77.935-78.558-0.248-157.082-0.248-235.606 0-45.858 0.137-79.864 34.594-79.966 80.435-0.094 59.836 0 119.697 0 179.576 0 56.994-0.197 113.997 0.034 171.025 0.128 34.782 16.384 59.75 47.846 74.376 6.588 3.047 14.003 4.31 21.078 6.4zM137.933 264.158h-0.017c0-40.005-0.042-80.026 0-119.987 0-12.544 5.828-18.474 18.346-18.474 66.875-0.068 133.734-0.068 200.584-0.026 10.812 0 17.255 6.358 17.255 17.178 0.068 80.367 0.068 160.76 0 241.143 0 10.889-6.4 17.272-17.152 17.272-67.046 0.051-134.127 0.025-201.173 0-11.81-0.034-17.861-6.067-17.861-17.775 0-39.766 0.017-79.556 0.017-119.33zM295.33 46.302c0.248 21.82-17.007 39.501-38.921 39.902-21.325 0.384-39.535-17.221-39.816-38.519-0.171-21.7 17.007-39.859 38.084-40.106 22.46-0.358 40.328 16.691 40.653 38.724z" />
<glyph unicode="&#xe636;" d="M409.813 302.908l-94.882 89.429c-21.282 20.053-57.096 16.606-80-7.705l-60.151-63.821c-22.912-24.303-24.243-60.254-2.97-80.298l9.531-8.986-117.811-111.104v-77.798h76.066l115.754 119.151 11.366-10.701c21.265-20.036 57.071-16.589 79.983 7.705l60.16 63.813c22.904 24.303 24.217 60.279 2.952 80.315zM346.428 257.502l-19.2-20.394c-7.339-7.757-20.582-7.168-29.637 1.357l-40.303 37.999c-9.029 8.49-10.419 21.7-3.106 29.474l19.226 20.386c7.305 7.757 20.565 7.143 29.611-1.357l40.312-37.982c9.019-8.525 10.428-21.726 3.098-29.483z" />
<glyph unicode="&#xe637;" d="M281.753 173.457l7.253-7.279c23.637-23.731 24.593-61.125 2.125-83.55l-98.492-98.133c-22.477-22.4-59.862-21.342-83.533 2.398l-90.727 90.94c-23.646 23.731-24.619 61.15-2.116 83.575l98.492 98.134c22.459 22.4 59.862 21.325 83.525-2.398l8.243-8.294-45.371-45.227c-10.103 1.622-21.282-1.741-29.577-10.061l-50.637-50.406c-13.115-13.073-14.114-33.374-2.176-45.303l45.653-45.798c11.921-11.973 32.205-11.025 45.321 2.039l50.629 50.415c5.035 5.026 8.261 11.144 9.72 17.416l51.669 51.533zM319.385 463.514l-103.731-103.39c-22.469-22.417-21.512-59.819 2.133-83.533l8.269-8.235 44.169 44.007c-1.613 10.129 1.809 21.265 10.129 29.551l55.859 55.646c13.107 13.047 33.374 14.020 45.295 2.056l45.688-45.815c11.913-11.938 10.94-32.231-2.193-45.32l-55.859-55.629c-5.034-5.026-11.153-8.269-17.399-9.643l-50.517-50.304 7.288-7.271c23.646-23.757 61.039-24.798 83.533-2.398l103.706 103.339c22.468 22.425 21.513 59.818-2.151 83.576l-90.709 90.922c-23.663 23.774-61.031 24.815-83.507 2.44zM350.396 318.831c-12.621 12.638-34.637 11.119-49.152-3.37l-139.631-139.205c-14.532-14.524-16.111-36.505-3.516-49.152v0c12.638-12.672 34.654-11.161 49.195 3.311l139.623 139.247c14.533 14.473 16.094 36.514 3.481 49.169v0z" />
<glyph unicode="&#xe638;" d="M481.886 480h-451.815c-16.555 0-30.072-13.568-30.072-30.114v-451.772c0-16.546 13.517-30.114 30.072-30.114h451.806c16.598 0 30.123 13.568 30.123 30.114v451.772c0 16.546-13.526 30.114-30.114 30.114zM191.813 117.393h-45.167v144.521h45.167v-144.521zM168.081 279.953h-0.315c-16.367 0-26.948 11.059-26.948 25.019 0 14.293 10.914 25.131 27.571 25.131 16.666 0 26.905-10.803 27.238-25.088-0.008-13.977-10.565-25.063-27.546-25.063zM372.429 117.393h-51.175v74.777c0 19.558-8.005 32.904-25.6 32.904-13.491 0-20.95-8.994-24.482-17.673-1.297-3.132-1.084-7.458-1.084-11.827v-78.191h-50.714c0 0 0.64 132.446 0 144.529h50.714v-22.698c2.986 9.899 19.2 24.039 45.056 24.039 32.077 0 57.284-20.762 57.284-65.485v-80.375z" />
<glyph unicode="&#xe639;" d="M421.401 341.47c-16.154 91.742-105.814 154.777-199.526 134.835-77.517-16.486-131.268-81.016-133.999-159.752-1.34-40.328 10.65-76.757 35.721-108.288 42.803-54.007 85.982-107.656 129.101-161.459 0.922-1.144 2.031-2.236 3.37-3.729 1.416 1.639 2.628 2.927 3.67 4.241 41.608 51.951 83.192 104.005 124.885 155.853 32.743 40.704 45.875 86.647 36.779 138.3zM256.171 238.575c-40.047-0.145-73.216 32.845-73.361 73.046-0.051 40.175 32.87 73.241 73.054 73.267 40.269 0.026 73.293-32.845 73.293-73.019 0.060-40.149-32.802-73.147-72.986-73.293zM256.034 7.825c51.909 0 94.533-8.969 94.533-19.865 0.103-10.949-42.265-19.917-94.106-19.959-51.669-0.025-94.472 8.935-94.592 19.857-0.119 10.949 42.385 19.917 94.166 19.968z" />
<glyph unicode="&#xe63a;" d="M0 425.506v-403.021h512v403.021h-512zM464.598 67.687h-417.195v228.77l191.010-115.686h35.175l191.018 115.729v-228.813zM464.598 351.173l-191.010-115.763h-35.174l-191.010 115.712v29.201h417.203v-29.15z" />
<glyph unicode="&#xe63b;" d="M277.572 170.931l234.428 142.046v-280.841h-512v280.798l234.411-142.003h43.161zM0 380.007l234.411-142.003h43.17l234.419 142.072v35.789h-512v-35.857z" />
<glyph unicode="&#xe63c;" d="M456.781 62.993v308.557c0 0.154-0.051 0.281-0.051 0.409-0.017 0.896-0.145 1.767-0.256 2.654-0.086 0.623-0.12 1.246-0.256 1.826-0.171 0.751-0.426 1.467-0.674 2.185-0.222 0.691-0.426 1.357-0.683 1.997-0.29 0.657-0.674 1.255-1.033 1.877-0.341 0.64-0.666 1.288-1.075 1.877-0.426 0.623-0.947 1.178-1.442 1.733-0.443 0.521-0.853 1.075-1.349 1.57-0.512 0.512-1.118 0.947-1.681 1.408-0.572 0.461-1.135 0.947-1.75 1.339-0.529 0.358-1.144 0.623-1.733 0.947-0.734 0.392-1.476 0.785-2.262 1.109-0.145 0.051-0.256 0.145-0.409 0.197l-229.76 85.888c-0.52 0.196-1.032 0.256-1.536 0.409-0.785 0.231-1.553 0.469-2.355 0.623-0.819 0.145-1.587 0.179-2.389 0.248-0.546 0.026-1.066 0.154-1.63 0.154-0.162 0-0.29-0.051-0.461-0.051-0.802-0.017-1.57-0.145-2.363-0.248-0.708-0.094-1.425-0.128-2.107-0.29-0.657-0.154-1.246-0.392-1.877-0.589-0.768-0.222-1.57-0.452-2.304-0.785-0.554-0.264-1.066-0.589-1.605-0.888-0.717-0.392-1.468-0.751-2.142-1.229-0.571-0.409-1.066-0.87-1.605-1.322-0.546-0.461-1.152-0.904-1.664-1.425-0.504-0.529-0.913-1.109-1.391-1.673-0.461-0.589-0.93-1.143-1.339-1.766-0.358-0.555-0.64-1.144-0.947-1.733-0.41-0.751-0.802-1.468-1.109-2.253-0.060-0.145-0.145-0.264-0.214-0.427-0.179-0.503-0.256-1.049-0.41-1.57-0.231-0.751-0.47-1.502-0.623-2.287-0.145-0.853-0.179-1.698-0.248-2.552-0.025-0.512-0.145-0.981-0.145-1.467v-293.223c-21.777 9.182-50.193 11.085-79.249 3.286-54.408-14.567-90.223-57.276-80.017-95.403 10.215-38.11 62.618-57.19 117-42.615 48.743 13.056 86.835 62.993 87.39 98.304v175.923l184.653-84.711v-108.962c-20.847 7.057-46.635 7.945-72.943 0.887-54.4-14.592-90.206-57.31-80-95.437 10.189-38.101 62.575-57.19 117.009-42.607 33.98 9.113 60.714 29.218 73.506 52.318 5.572 7.748 8.397 32.29 7.526 37.786zM227.030 353.349v71.586l184.653-69.043v-87.262l-184.653 84.719z" />
<glyph unicode="&#xe63d;" d="M445.534 396.826l-161.869 80.64c-0.197 0.094-0.409 0.145-0.623 0.231-0.785 0.358-1.604 0.64-2.423 0.921-0.743 0.248-1.476 0.521-2.21 0.691-0.657 0.162-1.349 0.239-2.031 0.35-0.938 0.128-1.886 0.248-2.816 0.281-0.214 0-0.409 0.060-0.615 0.060-0.426 0-0.837-0.111-1.246-0.128-0.964-0.060-1.911-0.128-2.85-0.299-0.683-0.111-1.339-0.298-1.997-0.452-0.837-0.214-1.622-0.469-2.44-0.751-0.674-0.281-1.331-0.563-1.988-0.904-0.734-0.35-1.442-0.717-2.142-1.161-0.623-0.375-1.203-0.81-1.784-1.246-0.657-0.486-1.28-0.99-1.877-1.536-0.563-0.529-1.066-1.092-1.578-1.664-0.52-0.571-1.007-1.143-1.451-1.767-0.529-0.717-0.973-1.485-1.425-2.27-0.239-0.401-0.52-0.734-0.734-1.152-0.094-0.188-0.128-0.41-0.214-0.598-0.393-0.827-0.691-1.69-0.973-2.551-0.222-0.674-0.47-1.365-0.631-2.048-0.188-0.734-0.281-1.502-0.375-2.253-0.128-0.862-0.231-1.707-0.248-2.569-0.008-0.239-0.077-0.452-0.077-0.691v-315.81c-27.87 12.083-65.365 13.363-102.929 0.785-64.665-21.623-104.79-75.904-89.626-121.19 15.147-45.286 79.855-64.495 144.529-42.846 61.159 20.463 96.154 67.951 96.103 127.727v202.163l114.449-57.002c3.439-1.715 7.082-2.535 10.701-2.535 8.824 0 17.305 4.881 21.521 13.329 5.922 11.87 1.092 26.291-10.795 32.222l-135.885 67.687v56.627l127.113-63.317c3.439-1.724 7.091-2.534 10.701-2.534 8.832 0 17.331 4.881 21.521 13.329 5.93 11.87 1.092 26.3-10.786 32.231z" />
<glyph unicode="&#xe63e;" d="M389.069-32l-93.15 98.629h57.899v110.541c0 0.35 0.273 0.649 0.632 0.649h69.368c0.367 0 0.632-0.298 0.632-0.649v-110.532h56.832l-92.211-98.637zM417.502 411.759c-12.749 15.829-43.981 51.226-78.831 63.736-7.868 2.85-24.005 4.505-24.005 4.505h-197.052c-14.148 0-25.626-11.486-25.626-25.651v-115.754h-66.321v-161.11h66.321v-131.763c0-14.166 11.478-25.642 25.626-25.642h190.575l-35.669 37.794c-0.93 0.955-1.698 2.005-2.406 3.055h-141.721v116.557h191.24v161.11h-191.24v108.373h200.030c0 0 18.543-0.964 21.47-31.215 2.927-30.268 4.873-75.153 4.873-75.153s84.659-8.781 98.313-19.515v-229.709h33.263c0 0 0 224.231 0 232.832 0 11.213-50.825 65.195-68.839 87.552zM233.352 305.758h60.518v-18.432h-38.144v-22.673h35.644v-18.244h-35.644v-39.902h-22.375v99.251zM131.294 304.273c8.226 1.476 19.004 2.184 30.166 2.184 19.012 0 31.377-3.081 40.798-10.299 10.309-7.655 16.81-20.011 16.81-37.692 0-18.987-6.946-32.111-16.367-40.209-10.462-8.678-26.522-12.791-45.96-12.791-11.623 0-20.011 0.709-25.455 1.459l0.008 97.349zM76.168 241.544c-2.944 0-5.606 0.137-7.654 0.597v-35.635h-22.221v97.911c6.904 1.186 16.64 2.048 30.311 2.048 13.85 0 23.859-2.637 30.507-8.081 6.323-4.847 10.471-13.098 10.471-22.809 0-9.865-3.115-18.116-9.002-23.56-7.654-7.083-19.149-10.47-32.41-10.47zM195.345 257.732c0 21.351-12.083 31.514-31.522 31.514-4.898 0-8.269-0.409-10.163-0.87v-64.947c1.894-0.435 5.171-0.435 7.799-0.435 20.488-0.162 33.886 11.050 33.886 34.739zM77.781 289.391c-4.557 0-7.646-0.29-9.267-0.726v-29.329c1.937-0.435 4.266-0.572 7.518-0.572 11.938 0 19.302 6.016 19.302 16.043 0 9.139-6.195 14.583-17.553 14.583z" />
</font>
</defs>
</svg>
